osu file format v14

[General]
AudioFilename: audio.mp3
AudioLeadIn: 0
PreviewTime: 61052
Countdown: 0
SampleSet: Soft
StackLeniency: 0.7
Mode: 0
LetterboxInBreaks: 0
WidescreenStoryboard: 0

[Editor]
DistanceSpacing: 0.9
BeatDivisor: 4
GridSize: 4
TimelineZoom: 1.2

[Metadata]
Title:Eutopia (TV Size)
TitleUnicode:Eutopia (TV Size)
Artist:Zhong Lanzhu (CV: Homoto Akina)
ArtistUnicode:鐘 嵐珠 (CV: 法元明菜)
Creator:Doormat
Version:Easy
Source:ラブライブ!虹ヶ咲学園スクールアイドル同好会
Tags:Froskya Revialink Houmoto Hōmoto ショウ ランジュ 鐘嵐珠 love live! nijigasaki high school idol club gakuen doukoukai doukou kai season two 2 nijigaku ニジガク llas sifas スクスタ festival all stars スクールアイドルフェスティバル Ayaka Miyake *Luna Kadono Toshikazu 角野寿和 insert anime insert video game japanese chinese electronic dance j-pop jpop pop edm music
BeatmapID:3542721
BeatmapSetID:1733247

[Difficulty]
HPDrainRate:3
CircleSize:3
OverallDifficulty:3
ApproachRate:4
SliderMultiplier:1.1
SliderTickRate:1

[Events]
//Background and Video events
0,0,"lanzhu.jpg",0,0
Video,0,"lanzhu solo.mp4"
//Break Periods
//Storyboard Layer 0 (Background)
//Storyboard Layer 1 (Fail)
//Storyboard Layer 2 (Pass)
//Storyboard Layer 3 (Foreground)
//Storyboard Layer 4 (Overlay)
//Storyboard Sound Samples

[TimingPoints]
420,468.75,4,2,1,60,1,0
888,-100,4,2,1,5,0,0
1005,-100,4,2,1,60,0,0
1357,-100,4,2,1,5,0,0
1474,-100,4,2,1,60,0,0
2763,-100,4,2,1,5,0,0
2880,-100,4,2,1,60,0,0
3232,-100,4,2,1,5,0,0
3349,-100,4,2,1,60,0,0
4638,-100,4,2,1,5,0,0
4755,-100,4,2,1,60,0,0
5107,-100,4,2,1,5,0,0
5224,-100,4,2,1,60,0,0
7920,-100,4,2,1,80,0,0
13545,-100,4,2,1,60,0,0
15420,-100,4,2,1,80,0,0
30420,-100,4,2,1,60,0,0
37334,-100,4,2,1,80,0,0
37920,-100,4,2,1,80,0,0
44951,-100,4,2,1,60,0,0
45420,-100,4,2,1,60,0,0
52920,-100,4,2,1,70,0,0
56670,-100,4,2,1,80,0,0
58545,-100,4,2,1,80,0,0
62295,-100,4,2,1,100,0,1
77177,-100,4,2,1,100,0,0
77295,-100,4,2,1,100,0,1
92295,-100,4,2,1,10,0,0

[Colours]
Combo1 : 25,80,170
Combo2 : 240,190,205
Combo3 : 175,215,230
Combo4 : 155,0,0

[HitObjects]
176,264,420,6,0,P|222:327|301:321,2,165,2|0|0,0:3|0:0|0:0,0:0:0:0:
112,187,2295,2,0,P|33:195|0:266,2,165,2|0|0,0:3|0:0|0:0,0:0:0:0:
209,169,4170,2,0,P|240:96|195:31,2,165,2|0|0,0:3|0:0|0:0,0:0:0:0:
268,247,6045,6,0,B|340:231|340:231|404:259|404:259|478:240,1,220,2|0,3:0|3:0,0:0:0:0:
496,144,7451,1,0,0:0:0:0:
420,80,7920,6,0,L|308:104,1,110,8|8,0:1|0:1,0:0:0:0:
340,200,8857,2,0,L|228:224,1,110,8|8,0:1|0:1,0:0:0:0:
160,156,9795,1,8,0:1:0:0:
73,204,10264,1,8,0:1:0:0:
92,300,10733,1,8,0:1:0:0:
190,311,11201,1,8,0:1:0:0:
232,223,11670,6,0,L|209:115,1,110,8|0,3:1|3:2,0:0:0:0:
308,96,12607,2,0,L|330:203,1,110,0|0,3:0|3:0,0:0:0:0:
360,300,13545,2,0,P|412:320|484:196,1,220,2|8,3:0|0:3,0:0:0:0:
340,76,15420,6,0,L|231:93,1,110,6|10,1:2|1:2,0:0:0:0:
268,188,16357,2,0,L|376:205,1,110,2|8,1:2|1:2,0:0:0:0:
476,220,17295,2,0,P|496:272|468:320,2,110,0|10|2,1:0|1:2|1:2,0:0:0:0:
416,144,18701,1,8,1:2:0:0:
320,124,19170,6,0,L|332:0,1,110,0|10,1:0|1:2,0:0:0:0:
232,0,20107,2,0,L|220:124,1,110,2|8,1:2|1:2,0:0:0:0:
204,208,21045,2,0,P|101:226|39:142,1,220,0|0,1:2|1:0,0:0:0:0:
56,96,22216,1,8,0:2:0:0:
60,100,22451,1,8,1:2:0:0:
123,24,22920,6,0,P|177:35|232:37,1,110,4|10,1:2|1:2,0:0:0:0:
300,112,23857,2,0,P|353:100|408:98,1,110,2|8,1:2|1:2,0:0:0:0:
500,140,24795,1,0,1:0:0:0:
458,231,25263,2,0,L|480:344,1,110,10|2,1:2|1:2,0:0:0:0:
392,384,26201,1,8,1:2:0:0:
328,308,26670,6,0,L|219:325,1,110,0|10,1:0|1:2,0:0:0:0:
200,228,27607,2,0,L|308:210,1,110,2|8,1:2|1:2,0:0:0:0:
408,196,28545,2,0,P|451:101|385:20,1,220,2|2,3:0|3:0,0:0:0:0:
288,8,29951,1,4,1:2:0:0:
232,88,30420,6,0,L|112:80,1,110,4|10,1:3|0:0,0:0:0:0:
32,120,31357,2,0,L|16:32,2,82.5,2|2|2,0:0|0:0|0:0,0:0:0:0:
60,160,32295,2,0,L|48:280,1,110,4|10,1:3|0:0,0:0:0:0:
100,352,33232,1,2,0:0:0:0:
182,301,33701,1,10,0:0:0:0:
233,383,34170,6,0,L|348:364,1,110,4|10,1:3|0:2,0:0:0:0:
392,280,35107,2,0,L|484:288,2,82.5,2|2|2,0:2|0:2|0:2,0:0:0:0:
352,247,36045,2,0,P|295:159|192:172,1,220,2|2,3:0|3:0,0:0:0:0:
120,232,37451,1,0,1:1:0:0:
28,200,37920,6,0,L|36:84,1,110,4|10,1:2|0:2,0:0:0:0:
112,27,38857,2,0,P|215:13|270:101,1,220,2|0,0:2|0:0,0:0:0:0:
292,200,40263,2,0,P|395:214|450:126,1,220,6|10,1:2|0:2,0:0:0:0:
464,28,41670,6,0,L|348:12,1,110,4|8,1:3|0:0,0:0:0:0:
352,112,42607,2,0,L|243:127,1,110,2|10,0:2|0:2,0:0:0:0:
172,196,43545,1,8,1:0:0:0:
215,284,44014,1,8,1:0:0:0:
313,269,44482,2,0,L|421:253,1,110,8|8,1:0|0:1,0:0:0:0:
447,155,45420,6,0,P|378:78|276:103,1,220,6|8,1:2|0:0,0:0:0:0:
256,200,46826,1,2,0:2:0:0:
236,296,47295,2,0,P|134:321|64:243,1,220,0|8,1:0|0:0,0:0:0:0:
116,160,48701,1,2,0:2:0:0:
192,96,49170,6,0,L|300:116,1,110,0|2,1:0|0:2,0:0:0:0:
288,216,50107,2,0,L|396:236,1,110,10|2,0:2|0:2,0:0:0:0:
492,247,51045,2,0,P|530:178|492:109,2,165,0|2|0,1:0|0:3|0:0,0:0:0:0:
408,296,52920,5,4,1:2:0:0:
364,208,53389,1,8,1:0:0:0:
276,252,53857,2,0,L|168:236,1,110,0|8,1:0|1:0,0:0:0:0:
123,147,54795,1,0,1:0:0:0:
211,103,55264,1,8,1:0:0:0:
167,15,55732,2,0,L|59:31,1,110,0|8,1:0|1:0,0:0:0:0:
23,123,56670,6,0,P|69:153|94:202,1,110,8|8,0:1|0:1,0:0:0:0:
184,160,57607,2,0,P|213:114|262:89,1,110,8|8,0:1|0:1,0:0:0:0:
352,128,58545,1,8,3:1:0:0:
256,192,58779,12,0,60420,3:0:0:0:
256,192,61826,5,8,3:1:0:0:
296,284,62295,6,0,L|416:260,1,110,4|8,1:2|1:2,0:0:0:0:
476,192,63232,1,2,1:2:0:0:
431,101,63700,1,10,1:2:0:0:
331,115,64170,2,0,L|211:91,1,110,0|8,1:0|1:2,0:0:0:0:
128,120,65107,2,0,L|120:56,2,55,2|2|10,1:2|0:2|1:2,0:0:0:0:
140,168,65810,6,0,P|61:159|12:221,1,165,2|10,0:2|1:2,0:0:0:0:
44,316,66982,1,2,1:2:0:0:
138,284,67450,1,10,1:2:0:0:
142,288,67685,2,0,L|313:313,1,165,2|8,0:2|1:2,0:0:0:0:
328,216,68857,2,0,L|382:223,1,55,2|10,1:2|0:2,0:0:0:0:
432,232,69326,1,10,1:2:0:0:
496,156,69795,6,0,P|500:102|467:59,1,110,4|8,1:2|1:2,0:0:0:0:
381,12,70732,1,2,1:2:0:0:
308,79,71200,1,10,1:2:0:0:
349,168,71670,2,0,P|306:201|252:197,1,110,2|8,1:2|1:2,0:0:0:0:
188,124,72607,2,0,P|145:91|91:95,1,110,2|10,1:2|1:2,0:0:0:0:
64,192,73545,6,0,L|86:317,2,110,0|8|0,1:0|1:2|1:0,0:0:0:0:
158,169,74951,1,10,1:2:0:0:
252,146,75420,1,2,0:2:0:0:
319,216,75889,1,2,0:2:0:0:
413,193,76358,1,2,0:2:0:0:
440,99,76826,1,14,1:2:0:0:
372,28,77295,6,0,L|264:50,1,110,4|10,1:2|1:2,0:0:0:0:
192,118,78232,2,0,P|164:82|172:26,2,82.5,2|2|2,1:2|0:2|0:2,0:0:0:0:
232,146,79170,2,0,L|220:258,1,110,0|10,1:0|1:2,0:0:0:0:
172,344,80107,2,0,P|124:352|80:324,2,82.5,2|2|2,1:2|0:2|0:2,0:0:0:0:
208,380,81045,6,0,L|316:364,1,110,0|10,1:0|1:2,0:0:0:0:
376,284,81982,2,0,P|408:308|416:368,2,82.5,2|2|2,1:2|0:2|0:2,0:0:0:0:
336,256,82920,1,0,1:2:0:0:
408,188,83388,1,2,1:2:0:0:
356,104,83857,2,0,L|240:112,1,110,2|2,1:2|1:2,0:0:0:0:
196,28,84795,6,0,P|142:37|105:77,1,110,6|10,1:2|1:2,0:0:0:0:
68,168,85732,2,0,L|-16:136,2,82.5,2|2|2,1:2|0:2|0:2,0:0:0:0:
96,208,86670,2,0,P|131:180|209:186,1,110,0|10,1:2|1:2,0:0:0:0:
284,224,87607,2,0,L|300:132,2,82.5,2|2|2,1:2|0:2|0:2,0:0:0:0:
279,271,88545,6,0,P|325:301|377:289,1,110,0|10,1:0|1:2,0:0:0:0:
468,252,89482,2,0,L|488:356,2,82.5,2|2|2,1:2|0:2|0:2,0:0:0:0:
432,216,90420,2,0,P|424:49|330:187,1,440,0|0,0:0|0:0,0:0:0:0:
