osu file format v14

[General]
AudioFilename: audio.mp3
AudioLeadIn: 0
PreviewTime: 202813
Countdown: 0
SampleSet: Soft
StackLeniency: 0.2
Mode: 0
LetterboxInBreaks: 0
WidescreenStoryboard: 0

[Editor]
DistanceSpacing: 1.1
BeatDivisor: 4
GridSize: 32
TimelineZoom: 1.8

[Metadata]
Title:Inochi ni Kirawarete Iru.
TitleUnicode:命に嫌われている。
Artist:ZhiMa Mochi
ArtistUnicode:芝麻Mochi
Creator:irotuk
Version:hate
Source:
Tags:
BeatmapID:1822994
BeatmapSetID:872331

[Difficulty]
HPDrainRate:5
CircleSize:4
OverallDifficulty:8
ApproachRate:9.3
SliderMultiplier:2
SliderTickRate:1

[Events]
//Background and Video events
0,0,"bg.jpg",0,0
//Break Periods
//Storyboard Layer 0 (Background)
//Storyboard Layer 1 (Fail)
//Storyboard Layer 2 (Pass)
//Storyboard Layer 3 (Foreground)
//Storyboard Sound Samples

[TimingPoints]
13,300,4,2,1,80,1,0
613,-166.666666666667,4,2,1,80,0,0
202813,-100,4,2,1,80,0,1
211813,-100,4,2,1,50,0,1
212413,-100,4,2,1,80,0,1
222013,-100,4,2,1,80,0,0

[HitObjects]
13,140,202813,5,2,0:0:0:0:
27,177,202963,1,0,0:0:0:0:
113,80,203113,5,8,0:0:0:0:
143,5,203263,1,0,0:0:0:0:
283,41,203413,5,2,0:0:0:0:
323,153,203563,1,0,0:0:0:0:
432,83,203713,5,8,0:0:0:0:
463,0,203863,1,0,0:0:0:0:
408,171,204013,2,0,B|420:246|420:246|407:291|407:291|420:375,2,200,2|8|2,0:0|0:0|0:0,0:0:0:0:
408,171,204763,5,0,0:0:0:0:
332,238,204913,2,0,B|270:216|270:216|224:239,1,100,8|0,0:0|0:0,0:0:0:0:
148,350,205213,2,0,P|228:322|192:201,1,200,2|8,0:0|0:0,0:0:0:0:
161,270,205663,1,0,0:0:0:0:
6,175,205813,2,0,B|102:143|102:143|154:191,1,150,2|0,0:0|0:0,0:0:0:0:
148,188,206113,2,0,P|127:119|169:77,1,100,8|0,0:0|0:0,0:0:0:0:
137,98,206413,5,2,0:0:0:0:
252,60,206563,1,0,0:0:0:0:
352,125,206713,1,8,0:0:0:0:
464,83,206863,1,0,0:0:0:0:
435,233,207013,5,2,0:0:0:0:
332,364,207163,1,0,0:0:0:0:
244,215,207313,1,8,0:0:0:0:
324,251,207463,1,0,0:0:0:0:
194,324,207613,2,0,B|103:356|89:267|3:301,2,200,2|8|2,0:0|0:0|0:0,0:0:0:0:
194,324,208363,5,0,0:0:0:0:
146,172,208513,1,8,0:0:0:0:
40,377,208663,1,0,0:0:0:0:
155,159,208813,2,0,B|122:131|122:131|158:262,1,150,2|0,0:0|0:0,0:0:0:0:
155,248,209113,2,0,P|216:176|305:207,1,200,8|2,0:0|0:0,0:0:0:0:
305,207,209563,5,0,0:0:0:0:
237,257,209713,2,0,B|256:283|256:283|238:380,1,100,8|0,0:0|0:0,0:0:0:0:
456,323,210013,5,2,0:0:0:0:
359,353,210163,1,0,0:0:0:0:
170,203,210313,5,8,0:0:0:0:
337,246,210463,1,0,0:0:0:0:
232,58,210613,5,2,0:0:0:0:
257,159,210763,1,0,0:0:0:0:
150,213,210913,5,8,0:0:0:0:
125,314,211063,1,0,0:0:0:0:
337,384,211213,5,2,0:0:0:0:
312,283,211363,1,0,0:0:0:0:
474,228,211513,5,8,0:0:0:0:
474,228,211813,5,4,3:0:0:0:
470,213,211888,1,4,3:0:0:0:
466,198,211963,1,4,3:0:0:0:
462,183,212038,1,4,3:0:0:0:
425,153,212113,5,4,3:0:0:0:
429,113,212188,1,4,3:0:0:0:
434,73,212263,1,4,3:0:0:0:
439,33,212338,1,4,3:0:0:0:
458,68,212413,5,2,0:0:0:0:
345,109,212563,1,0,0:0:0:0:
239,203,212713,5,8,0:0:0:0:
334,237,212863,1,0,0:0:0:0:
461,315,213013,5,2,0:0:0:0:
339,359,213163,1,0,0:0:0:0:
217,312,213313,1,8,0:0:0:0:
95,357,213463,1,0,0:0:0:0:
256,192,213613,2,0,B|220:176|204:147|204:147|246:226|192:283,2,200,2|8|2,0:0|0:0|0:0,0:0:0:0:
256,192,214363,5,0,0:0:0:0:
128,209,214513,1,8,0:0:0:0:
283,102,214663,1,0,0:0:0:0:
504,328,214813,5,2,0:0:0:0:
408,298,214963,1,0,0:0:0:0:
274,266,215113,5,8,0:0:0:0:
429,208,215263,1,0,0:0:0:0:
222,345,215413,5,2,0:0:0:0:
260,246,215563,1,0,0:0:0:0:
142,157,215713,5,8,0:0:0:0:
104,58,215863,1,0,0:0:0:0:
9,329,216013,6,0,P|56:245|150:258,2,200,2|8|2,0:0|0:0|0:0,0:0:0:0:
96,323,216763,5,0,0:0:0:0:
346,336,216913,2,0,L|366:226,1,100,8|0,0:0|0:0,0:0:0:0:
235,200,217213,5,2,0:0:0:0:
310,150,217363,1,2,0:0:0:0:
389,192,217513,2,0,L|376:262,2,50,8|0|0,0:0|0:0|0:0,0:0:0:0:
128,161,217813,5,2,0:0:0:0:
249,242,217963,1,2,0:0:0:0:
378,173,218113,2,0,L|362:91,2,50,8|0|0,0:0|0:0|0:0,0:0:0:0:
26,208,218413,5,2,0:0:0:0:
191,96,218563,1,2,0:0:0:0:
365,189,218713,2,0,L|353:267,2,50,8|0|0,0:0|0:0|0:0,0:0:0:0:
295,359,219013,5,2,0:0:0:0:
259,219,219163,1,0,0:0:0:0:
469,148,219313,5,8,0:0:0:0:
446,240,219463,1,2,0:0:0:0:
163,16,219613,2,0,L|49:35,1,100,8|0,0:0|0:0,0:0:0:0:
469,236,219913,5,8,0:0:0:0:
446,144,220063,1,2,0:0:0:0:
163,368,220213,2,0,L|49:349,1,100,8|0,0:0|0:0,0:0:0:0:
469,148,220513,5,8,0:0:0:0:
446,240,220663,1,2,0:0:0:0:
163,16,220813,2,0,L|49:35,1,100,8|0,0:0|0:0,0:0:0:0:
469,236,221113,5,8,0:0:0:0:
446,144,221263,1,2,0:0:0:0:
163,368,221413,2,0,L|49:349,1,100,8|0,0:0|0:0,0:0:0:0:
469,148,221713,5,8,0:0:0:0:
445,239,221863,1,2,0:0:0:0:
377,1,222013,1,12,0:0:0:0:
