osu file format v14

[General]
AudioFilename: audio.mp3
AudioLeadIn: 0
PreviewTime: 99469
Countdown: 0
SampleSet: Soft
StackLeniency: 0.2
Mode: 0
LetterboxInBreaks: 0
WidescreenStoryboard: 0

[Editor]
Bookmarks: 48755,74469,97326,100183,120183,145897,168755,191612,217326,263040,284469,308755,317326,320183,343040,359112,373040
DistanceSpacing: 3.1
BeatDivisor: 4
GridSize: 4
TimelineZoom: 1.5

[Metadata]
Title:Ceng Jing Wo Ye Xiang Guo Yi Liao Bai Liao
TitleUnicode:曾经我也想过一了百了
Artist:Zhi Ma Mochi
ArtistUnicode:芝麻Mochi
Creator:Bashe
Version:Since someone like you exists, I have more hope for the world.
Source:
Tags:The reason why I thought I'd die amazarashi Hirota Akita Yoshiaki Dewa nakashima mika boku ga shinou to omotta no wa
BeatmapID:2191881
BeatmapSetID:1048663

[Difficulty]
HPDrainRate:5
CircleSize:4
OverallDifficulty:8
ApproachRate:9
SliderMultiplier:0.999999999999999
SliderTickRate:1

[Events]
//Background and Video events
0,0,"cropped-1920-1080-1044126.jpg",0,0
//Break Periods
//Storyboard Layer 0 (Background)
//Storyboard Layer 1 (Fail)
//Storyboard Layer 2 (Pass)
//Storyboard Layer 3 (Foreground)
//Storyboard Layer 4 (Overlay)
//Storyboard Sound Samples

[TimingPoints]
6032,357.142857142857,4,2,1,70,1,0
7460,-200,4,2,1,70,0,0
8532,-66.6666666666667,4,2,1,70,0,0
11746,-100,4,2,1,70,0,0
13174,-200,4,2,1,70,0,0
14246,-66.6666666666667,4,2,1,70,0,0
17460,-66.6666666666667,4,2,1,70,0,0
18174,-100,4,2,1,70,0,0
18889,-200,4,2,1,70,0,0
19960,-66.6666666666667,4,2,1,70,0,0
23174,-100,4,2,1,70,0,0
24603,-200,4,2,1,70,0,0
25674,-66.6666666666667,4,2,1,70,0,0
26746,-200,4,2,1,70,0,0
31031,-333.333333333333,4,2,1,70,0,0
31746,-200,4,2,1,70,0,0
32817,-333.333333333333,4,2,1,70,0,0
34603,-200,4,2,1,70,0,0
36746,-333.333333333333,4,2,1,70,0,0
37460,-200,4,2,1,70,0,0
42460,-333.333333333333,4,2,1,70,0,0
43174,-200,4,2,1,70,0,0
45317,-333.333333333333,4,2,1,70,0,0
46031,-133.333333333333,4,2,1,70,0,0
47460,-1000,4,2,1,70,0,0
48889,-133.333333333333,4,2,1,70,0,0
51746,-83.3333333333333,4,2,1,70,0,0
52460,-333.333333333333,4,2,1,70,0,0
54603,-133.333333333333,4,2,1,70,0,0
55317,-333.333333333333,4,2,1,70,0,0
57460,-83.3333333333333,4,2,1,70,0,0
58174,-333.333333333333,4,2,1,70,0,0
58889,-133.333333333333,4,2,1,70,0,0
61031,-333.333333333333,4,2,1,70,0,0
61746,-1000,4,2,1,70,0,0
63174,-83.3333333333333,4,2,1,70,0,0
63889,-333.333333333333,4,2,1,70,0,0
64603,-200,4,2,1,70,0,0
66031,-133.333333333333,4,2,1,70,0,0
66389,-333.333333333333,4,2,1,70,0,0
67460,-1000,4,2,1,70,0,0
68889,-133.333333333333,4,2,1,70,0,0
69603,-333.333333333333,4,2,1,70,0,0
71746,-133.333333333333,4,2,1,70,0,0
72460,-333.333333333333,4,2,1,70,0,0
74603,-66.6666666666667,4,2,1,70,0,0
76389,-100,4,2,1,70,0,0
76746,-83.3333333333333,4,2,1,70,0,0
77460,-66.6666666666667,4,2,1,70,0,0
78531,-100,4,2,1,70,0,0
80317,-66.6666666666667,4,2,1,70,0,0
82460,-100,4,2,1,70,0,0
83174,-66.6666666666667,4,2,1,70,0,0
84246,-100,4,2,1,70,0,0
85317,-66.6666666666667,4,2,1,70,0,0
86031,-100,4,2,1,70,0,0
88889,-66.6666666666667,4,2,1,70,0,0
89603,-100,4,2,1,70,0,0
91746,-66.6666666666667,4,2,1,70,0,0
92460,-100,4,2,1,70,0,0
94603,-66.6666666666667,4,2,1,70,0,0
97460,-133.333333333333,4,2,1,70,0,0
97817,-55.5555555555556,4,2,1,70,0,0
98889,-55.5555555555556,4,2,1,100,0,0
100317,-55.5555555555556,4,2,2,100,0,1
100585,-55.5555555555556,4,2,1,100,0,1
101746,-66.6666666666667,4,2,1,100,0,1
102103,-100,4,2,1,100,0,1
102460,-66.6666666666667,4,2,1,100,0,1
103174,-55.5555555555556,4,2,1,100,0,1
106031,-50,4,2,1,100,0,1
111031,-40,4,2,1,100,0,1
112103,-50,4,2,1,100,0,1
119960,-100,4,2,1,100,0,1
120317,-133.333333333333,4,2,1,100,0,0
121389,-285.714285714284,4,2,1,100,0,0
122371,-285.714285714284,4,2,1,70,0,0
122460,-285.714285714284,4,2,1,100,0,0
122817,-66.6666666666667,4,2,1,100,0,0
123174,-100,4,2,1,70,0,1
133799,-100,4,2,1,50,0,1
133889,-100,4,2,1,70,0,1
145853,-100,4,2,1,30,0,0
146031,-133.333333333333,4,2,1,70,0,0
147460,-200,4,2,1,70,0,0
148174,-222.222222222221,4,2,1,70,0,0
148889,-133.333333333333,4,2,1,70,0,0
149603,-222.222222222221,4,2,1,70,0,0
151746,-133.333333333333,4,2,1,70,0,0
152817,-222.222222222221,4,2,1,70,0,0
154603,-133.333333333333,4,2,1,70,0,0
156031,-222.222222222221,4,2,1,70,0,0
157460,-133.333333333333,4,2,1,70,0,0
158889,-222.222222222221,4,2,1,70,0,0
160317,-133.333333333333,4,2,1,70,0,0
161389,-222.222222222221,4,2,1,70,0,0
163174,-133.333333333333,4,2,1,70,0,0
164603,-222.222222222221,4,2,1,70,0,0
166031,-133.333333333333,4,2,1,70,0,0
167460,-222.222222222221,4,2,1,70,0,0
168889,-117.647058823529,4,2,1,70,0,0
169603,-153.846153846153,4,2,1,70,0,0
169960,-181.818181818181,4,2,1,70,0,0
170317,-117.647058823529,4,2,1,70,0,0
170674,-181.818181818181,4,2,1,70,0,0
171031,-153.846153846153,4,2,1,70,0,0
171746,-117.647058823529,4,2,1,70,0,0
172460,-153.846153846153,4,2,1,70,0,0
172817,-181.818181818181,4,2,1,70,0,0
174603,-117.647058823529,4,2,1,70,0,0
175317,-153.846153846153,4,2,1,70,0,0
176031,-133.333333333333,4,2,1,70,0,0
176389,-181.818181818181,4,2,1,70,0,0
177460,-117.647058823529,4,2,1,70,0,0
178174,-181.818181818181,4,2,1,70,0,0
179246,-133.333333333333,4,2,1,70,0,0
180317,-117.647058823529,4,2,1,70,0,0
181031,-181.818181818181,4,2,1,70,0,0
181746,-133.333333333333,4,2,1,70,0,0
182103,-181.818181818181,4,2,1,70,0,0
183174,-117.647058823529,4,2,1,70,0,0
183889,-181.818181818181,4,2,1,70,0,0
184603,-133.333333333333,4,2,1,70,0,0
184960,-181.818181818181,4,2,1,70,0,0
186031,-117.647058823529,4,2,1,70,0,0
186746,-181.818181818181,4,2,1,70,0,0
187460,-133.333333333333,4,2,1,70,0,0
187817,-181.818181818181,4,2,1,70,0,0
188889,-117.647058823529,4,2,1,70,0,0
189246,-181.818181818181,4,2,1,70,0,0
189603,-105.263157894737,4,2,1,70,0,0
190674,-153.846153846154,4,2,1,70,0,0
191746,-100,4,2,1,70,0,0
193889,-66.6666666666667,4,2,1,70,0,0
195674,-100,4,2,1,70,0,0
196746,-66.6666666666667,4,2,1,70,0,0
197103,-100,4,2,1,70,0,0
197460,-66.6666666666667,4,2,1,70,0,0
198174,-100,4,2,1,70,0,0
198531,-66.6666666666667,4,2,1,70,0,0
199246,-100,4,2,1,70,0,0
199603,-66.6666666666667,4,2,1,70,0,0
199960,-100,4,2,1,70,0,0
200317,-66.6666666666667,4,2,1,70,0,0
202103,-100,4,2,1,70,0,0
202460,-66.6666666666667,4,2,1,70,0,0
203531,-100,4,2,1,70,0,0
206031,-66.6666666666667,4,2,1,70,0,0
206746,-100,4,2,1,70,0,0
208174,-66.6666666666667,4,2,1,70,0,0
208531,-100,4,2,1,70,0,0
208889,-66.6666666666667,4,2,1,70,0,0
209960,-100,4,2,1,70,0,0
211031,-66.6666666666667,4,2,1,70,0,0
211389,-100,4,2,1,70,0,0
211746,-66.6666666666667,4,2,1,70,0,0
214603,-133.333333333333,4,2,1,70,0,0
214960,-66.6666666666667,4,2,1,70,0,0
215317,-66.6666666666667,4,2,1,80,0,0
215417,-66.6666666666667,4,2,1,90,0,0
216389,-200,4,2,1,60,0,0
217460,-55.5555555555556,4,2,2,100,0,1
217728,-55.5555555555556,4,2,1,100,0,1
218889,-66.6666666666667,4,2,1,100,0,1
219246,-100,4,2,1,100,0,1
219603,-66.6666666666667,4,2,1,100,0,1
220317,-55.5555555555556,4,2,1,100,0,1
223174,-50,4,2,1,100,0,1
228174,-40,4,2,1,100,0,1
230317,-50,4,2,1,100,0,1
237460,-133.333333333333,4,2,1,100,0,0
238531,-285.714285714284,4,2,1,100,0,0
239514,-285.714285714284,4,2,1,70,0,0
239603,-285.714285714284,4,2,1,100,0,0
239960,-66.6666666666667,4,2,1,100,0,0
240317,-100,4,2,1,70,0,1
250942,-100,4,2,1,50,0,1
251031,-100,4,2,1,70,0,1
263174,-200,4,2,1,60,0,0
266031,-500,4,2,1,60,0,0
278174,-500,4,2,1,20,0,0
278889,-500,4,2,1,60,0,0
281031,-500,4,2,1,20,0,0
281389,-500,4,2,1,60,0,0
284603,-33.3333333333333,4,2,1,70,0,0
285674,-1000,4,2,1,50,0,0
286031,-40,4,2,2,100,0,1
286299,-40,4,2,1,100,0,1
302817,-66.6666666666667,4,2,1,100,0,1
303174,-40,4,2,1,100,0,1
306031,-133.333333333333,4,2,1,100,0,0
307103,-181.818181818181,4,2,1,100,0,0
308174,-181.818181818181,4,2,1,35,0,0
308889,-1000,4,2,1,50,0,0
316031,-95.2380952380951,4,2,1,50,0,0
317460,-48.780487804878,4,2,1,50,0,0
318531,-48.780487804878,4,2,1,30,0,0
318889,-48.780487804878,4,2,1,50,0,0
319246,-48.780487804878,4,2,1,60,0,0
319603,-48.780487804878,4,2,1,70,0,0
319960,-48.780487804878,4,2,1,80,0,0
320317,-66.6666666666667,4,2,1,80,0,0
330674,-100,4,2,1,80,0,0
331031,-66.6666666666667,4,2,1,80,0,0
337103,-133.333333333333,4,2,1,80,0,0
337460,-66.6666666666667,4,2,1,80,0,0
343174,-50,4,2,1,80,0,0
351389,-40,4,2,1,80,0,0
352460,-50,4,2,1,80,0,0
357103,-40,4,2,1,80,0,0
358174,-50,4,2,1,80,0,0
359246,-35.7142857142857,4,2,1,80,0,0
360317,-40,4,2,1,80,0,0
362817,-142.857142857143,4,2,2,80,0,0
363174,-142.857142857143,4,2,2,40,0,0
363889,-142.857142857143,4,2,2,20,0,0
373174,-142.857142857143,4,2,1,5,0,0

[Colours]
Combo1 : 203,152,152
Combo2 : 215,215,215

[HitObjects]
290,155,6032,6,0,L|291:207,1,50,2|0,0:0|0:0,0:0:0:0:
288,161,6746,2,0,L|278:108,1,50
335,191,7103,2,0,L|329:257,1,50
384,145,7460,2,0,P|334:160|288:142,1,99.9999999999999
171,74,8532,2,0,L|255:73,1,75.000002861023,2|0,0:0|0:0,0:0:0:0:
210,44,8889,5,0,0:0:0:0:
213,50,9603,1,0,0:0:0:0:
215,56,10317,1,0,0:0:0:0:
218,62,11032,1,0,0:0:0:0:
218,62,11389,1,0,0:0:0:0:
246,98,11746,6,0,L|247:30,1,50,2|0,0:0|0:0,0:0:0:0:
348,207,12460,2,0,L|363:266,1,50
294,210,12817,2,0,L|304:152,1,50
215,189,13174,2,0,L|309:232,1,99.9999999999999
184,304,14246,2,0,L|106:327,1,75.000002861023,2|0,0:0|0:0,0:0:0:0:
133,369,14603,5,0,0:0:0:0:
130,363,15317,1,0,0:0:0:0:
128,357,16031,1,0,0:0:0:0:
125,351,16746,1,0,0:0:0:0:
125,351,17103,1,0,0:0:0:0:
65,273,17460,6,0,L|53:194,1,75.000002861023,2|0,3:2|0:0,0:0:0:0:
147,283,18174,2,0,L|131:215,1,50
206,299,18531,2,0,L|186:361,1,50
286,265,18889,2,0,P|243:279|180:276,1,99.9999999999999
378,322,19960,2,0,L|447:286,1,75.000002861023,2|0,0:0|0:0,0:0:0:0:
451,333,20317,5,0,0:0:0:0:
448,327,21031,1,0,0:0:0:0:
446,321,21745,1,0,0:0:0:0:
443,315,22460,1,0,0:0:0:0:
443,315,22817,1,0,0:0:0:0:
330,230,23174,6,0,L|327:291,1,50,2|0,3:2|0:0,0:0:0:0:
444,185,23888,2,0,L|431:136,1,50
477,193,24245,2,0,L|468:242,1,50
440,129,24603,2,0,L|480:28,1,99.9999999999999
326,135,25674,2,0,L|299:216,1,75.000002861023,2|0,3:2|0:0,0:0:0:0:
227,142,26031,5,0,0:0:0:0:
226,134,26746,2,0,L|222:105,1,25,2|0,0:0|3:2,0:0:0:0:
232,130,27459,1,0,0:0:0:0:
235,124,28174,1,0,0:0:0:0:
235,124,28531,1,0,0:0:0:0:
153,91,28889,6,0,L|209:89,1,50,2|0,0:0|0:0,0:0:0:0:
94,47,29603,1,0,0:0:0:0:
94,47,29960,1,0,0:0:0:0:
216,126,30317,2,0,L|267:126,1,50,2|0,0:0|0:0,0:0:0:0:
155,180,31031,2,0,L|122:181,1,29.9999990844727
267,80,31746,2,0,L|328:78,1,50,2|0,0:0|0:0,0:0:0:0:
395,42,32460,1,0,0:0:0:0:
352,107,32817,2,0,P|341:138|362:224,1,119.999996337891,2|0,0:0|0:0,0:0:0:0:
283,338,34603,6,0,L|279:285,1,50,2|0,0:0|0:0,0:0:0:0:
197,359,35317,1,0,0:0:0:0:
197,359,35674,1,0,0:0:0:0:
88,298,36031,2,0,L|146:299,1,50,2|0,0:0|0:0,0:0:0:0:
48,353,36746,2,0,L|16:357,1,29.9999990844727
131,231,37460,2,0,P|135:255|132:280,2,50,2|0|0,0:0|0:0|0:0,0:0:0:0:
101,203,38531,1,0,0:0:0:0:
29,149,38889,1,0,0:0:0:0:
143,88,39246,1,0,0:0:0:0:
29,22,39603,2,0,P|39:52|35:104,1,74.9999999999999
146,43,40317,6,0,L|96:47,1,50,2|0,0:0|0:0,0:0:0:0:
172,99,41031,1,0,0:0:0:0:
172,99,41389,1,0,0:0:0:0:
303,21,41746,2,0,L|249:19,1,50,2|0,0:0|0:0,0:0:0:0:
171,113,42460,2,0,L|221:109,1,44.999998626709
339,208,43174,2,0,L|342:156,1,50
361,232,43889,1,0,0:0:0:0:
361,232,44246,1,0,0:0:0:0:
258,140,44603,2,0,L|317:136,1,50
436,56,45317,2,0,L|391:58,1,44.999998626709,2|0,0:0|0:0,0:0:0:0:
311,208,46031,6,0,L|316:295,1,75.000002861023,2|0,0:0|0:0,0:0:0:0:
265,201,46746,1,0,0:0:0:0:
265,201,47103,1,0,0:0:0:0:
351,303,47460,2,0,L|345:269,1,35,2|0,0:0|0:0,0:0:0:0:
489,357,48889,6,0,L|481:282,1,75.000002861023,2|0,0:0|0:0,0:0:0:0:
422,308,49603,1,0,0:0:0:0:
422,308,49960,1,0,0:0:0:0:
361,247,50317,1,0,0:0:0:0:
417,165,50674,1,0,0:0:0:0:
361,77,51031,1,0,0:0:0:0:
247,24,51389,1,0,0:0:0:0:
116,132,51746,6,0,B|164:106|214:99|241:153,1,119.999996337891,4|0,3:2|0:0,0:0:0:0:
255,217,52281,1,0,3:0:0:0:
158,113,52460,2,0,P|159:85|151:59,1,52.4999983978271,2|0,0:0|1:0,0:0:0:0:
196,155,53174,2,0,P|196:192|207:215,1,59.9999981689453
140,149,54246,1,0,0:0:0:0:
75,288,54603,6,0,P|80:251|78:200,1,75.000002861023,2|0,0:0|3:0,0:0:0:0:
116,290,55317,2,0,L|116:308,1,14.9999995422363,2|0,0:0|3:0,0:0:0:0:
148,243,55674,2,0,L|151:228,1,14.9999995422363
219,308,56031,2,0,L|240:361,1,52.4999983978271,2|0,0:0|1:0,0:0:0:0:
265,299,56746,1,0,0:0:0:0:
225,209,57103,1,0,0:0:0:0:
332,101,57460,6,0,B|267:94|300:182|328:199,1,119.999996337891,2|0,3:2|0:0,0:0:0:0:
378,243,57996,1,0,3:0:0:0:
335,137,58174,2,0,L|332:109,1,22.4999993133545,2|0,0:0|0:0,0:0:0:0:
392,166,58531,2,0,L|393:186,1,14.9999995422363
480,274,58889,2,0,P|459:277|392:271,1,75.000002861023
481,346,59603,1,0,0:0:0:0:
481,346,59960,1,0,0:0:0:0:
302,362,60317,6,0,P|332:351|361:308,1,75.000002861023,2|0,0:0|3:0,0:0:0:0:
310,256,61031,2,0,L|307:273,1,14.9999995422363,0|0,0:0|3:0,0:0:0:0:
260,223,61389,2,0,L|257:203,1,14.9999995422363,2|0,0:0|0:0,0:0:0:0:
195,294,61746,2,0,L|192:309,1,15
153,236,62460,1,0,0:0:0:0:
153,236,62817,1,0,0:0:0:0:
301,99,63174,6,0,B|253:113|214:112|187:52,1,119.999996337891,4|0,3:2|0:0,0:0:0:0:
151,4,63710,1,0,3:0:0:0:
79,90,63889,2,0,L|73:72,1,14.9999995422363,2|0,0:0|0:0,0:0:0:0:
107,97,64246,2,0,L|110:113,1,14.9999995422363
76,237,64603,2,0,L|57:184,1,50
70,115,65317,1,0,0:0:0:0:
51,23,65674,2,0,L|31:47,1,25
105,145,66031,6,0,L|116:232,1,75.000002861023,2|0,0:2|3:0,0:0:0:0:
44,347,66746,2,0,L|43:326,1,14.9999995422363,0|0,0:0|3:0,0:0:0:0:
109,356,67103,2,0,L|116:376,1,14.9999995422363,2|0,0:0|0:0,0:0:0:0:
158,281,67460,2,0,L|159:271,1,9.99999999999999
207,345,68174,1,0,0:0:0:0:
207,345,68531,1,0,0:0:0:0:
236,205,68889,6,0,P|240:237|226:284,1,75.000002861023,0|0,3:2|0:0,0:0:0:0:
148,287,69424,1,0,3:0:0:0:
97,160,69604,2,0,L|100:178,1,14.9999995422363,2|0,0:0|0:0,0:0:0:0:
151,112,69961,2,0,L|148:96,1,14.9999995422363
238,138,70317,2,0,L|238:174,2,29.9999990844727
301,48,71389,2,0,L|308:32,1,14.9999995422363
254,176,71746,6,0,L|265:263,1,75.000002861023,2|0,0:2|3:0,0:0:0:0:
379,310,72460,2,0,L|373:263,1,44.999998626709
299,329,73175,2,0,L|297:345,1,14.9999995422363,2|0,0:0|0:0,0:0:0:0:
214,295,73531,1,0,3:0:0:0:
170,178,73889,1,0,0:0:0:0:
200,148,74246,1,0,0:0:0:0:
391,31,74603,5,4,3:2:0:0:
391,31,74960,1,0,0:0:0:0:
391,31,75317,1,2,3:2:0:0:
449,180,75674,2,0,L|459:105,1,75.000002861023
391,193,76031,1,0,0:0:0:0:
456,274,76389,2,0,L|393:293,1,50
266,244,76746,2,0,L|337:226,1,59.9999981689453,0|0,3:0|0:0,0:0:0:0:
411,281,77103,1,0,0:0:0:0:
248,344,77460,6,0,L|228:266,1,75.000002861023,0|0,3:2|0:0,0:0:0:0:
278,324,77817,1,0,0:0:0:0:
278,324,78174,1,2,3:2:0:0:
248,269,78531,2,0,L|305:267,1,50
206,230,78889,1,0,0:0:0:0:
206,230,79246,1,0,0:0:0:0:
248,344,79603,2,0,L|262:278,1,50,0|0,3:0|0:0,0:0:0:0:
248,344,79960,1,0,0:0:0:0:
116,240,80317,6,0,L|103:318,1,75.000002861023,2|0,3:2|0:0,0:0:0:0:
48,201,80674,1,0,0:0:0:0:
49,202,81031,1,2,3:2:0:0:
136,104,81389,2,0,L|133:193,1,75.000002861023
83,46,81746,1,0,0:0:0:0:
83,46,82103,1,0,0:0:0:0:
83,46,82460,2,0,L|95:102,1,50,2|0,3:2|0:0,0:0:0:0:
132,115,82817,2,0,L|122:67,1,50
187,171,83174,6,0,L|190:249,1,75.000002861023,2|0,3:2|0:0,0:0:0:0:
246,107,83531,1,0,0:0:0:0:
245,108,83889,1,2,3:2:0:0:
245,108,84246,2,0,L|246:158,1,50
245,108,84603,1,0,0:0:0:0:
250,29,84960,2,0,L|251:98,1,50
326,220,85317,2,0,L|322:140,1,75.000002861023,2|0,3:2|0:0,0:0:0:0:
362,285,85674,1,0,0:0:0:0:
248,362,86031,6,0,L|318:371,1,50,4|0,0:0|0:0,0:0:0:0:
213,286,86389,2,0,L|203:343,1,50
143,220,86746,1,2,3:2:0:0:
82,329,87103,2,0,L|13:323,1,50
144,287,87460,2,0,L|134:344,1,50
206,218,87817,2,0,L|189:275,1,50
175,173,88174,1,2,3:2:0:0:
175,173,88531,1,0,0:0:0:0:
233,303,88889,6,0,L|224:210,1,75.000002861023,2|0,3:2|0:0,0:0:0:0:
292,359,89246,1,0,0:0:0:0:
292,359,89603,2,0,L|292:292,1,50,2|0,3:2|0:0,0:0:0:0:
209,354,89960,2,0,L|145:359,1,50
238,274,90317,1,0,0:0:0:0:
238,274,90674,1,0,0:0:0:0:
328,215,91031,2,0,L|261:193,1,50,2|0,3:2|0:0,0:0:0:0:
365,299,91389,2,0,L|366:242,1,50
418,95,91746,6,0,P|411:161|429:199,1,75.000002861023,4|0,3:2|0:0,0:0:0:0:
380,57,92103,1,0,0:0:0:0:
291,92,92460,2,0,L|337:43,1,50,2|0,3:2|0:0,0:0:0:0:
216,102,92817,2,0,L|215:165,1,50
158,45,93174,1,0,0:0:0:0:
158,45,93531,1,0,0:0:0:0:
72,80,93889,2,0,L|133:74,1,50,2|0,3:2|0:0,0:0:0:0:
20,25,94246,2,0,L|10:90,1,50
98,232,94603,6,0,P|83:196|92:148,1,75.000002861023,2|0,3:2|0:0,0:0:0:0:
44,296,94960,1,0,0:0:0:0:
165,356,95317,2,0,L|64:322,1,75.000002861023,2|0,3:2|0:0,0:0:0:0:
224,271,95674,2,0,L|225:352,1,75.000002861023
170,168,96031,2,0,L|243:223,1,75.000002861023,2|0,0:0|0:0,0:0:0:0:
132,64,96389,2,0,L|121:154,1,75.000002861023
267,74,96746,2,0,L|192:26,1,75.000002861023,2|0,3:2|0:0,0:0:0:0:
387,47,97103,2,0,L|446:117,1,75.000002861023,2|0,0:0|0:0,0:0:0:0:
374,227,97460,6,0,L|342:185,1,37.5000014305115,4|0,3:2|0:0,0:0:0:0:
200,121,97817,2,0,L|200:192,1,44.999998626709,2|0,0:0|0:0,0:0:0:0:
198,300,97996,1,0,0:0:0:0:
101,154,98174,2,0,L|93:47,1,89.999997253418,8|0,0:0|0:0,0:0:0:0:
28,191,98531,1,2,3:2:0:0:
122,332,98710,1,8,0:0:0:0:
144,333,98799,1,8,0:0:0:0:
191,290,98889,1,8,0:0:0:0:
193,159,99067,2,0,L|160:120,1,44.999998626709,8|0,3:0|0:0,0:0:0:0:
313,191,99246,1,4,3:0:0:0:
91,181,100317,6,0,P|51:117|33:39,1,134.999995880127,4|0,3:2|0:0,0:0:0:0:
49,268,100674,1,2,0:0:0:0:
320,347,101031,1,2,0:0:0:0:
293,353,101121,1,2,0:0:0:0:
267,345,101210,1,2,0:0:0:0:
419,297,101389,1,0,3:0:0:0:
228,42,101746,2,0,L|244:111,1,37.5000014305115,10|0,0:0|0:0,0:0:0:0:
188,74,101924,2,0,L|149:37,1,37.5000014305115,2|0,0:0|0:0,0:0:0:0:
173,221,102103,2,0,P|156:199|144:172,1,50
458,29,102460,2,0,P|389:37|317:22,1,112.500004291534,4|0,3:0|0:0,0:0:0:0:
230,176,102817,2,0,P|290:158|356:187,1,112.500004291534,2|0,0:0|0:0,0:0:0:0:
104,343,103174,6,0,P|50:316|66:217,1,134.999995880127,6|0,3:2|0:0,0:0:0:0:
144,118,103531,1,2,0:0:0:0:
342,251,103889,1,2,0:0:0:0:
344,224,103978,1,2,0:0:0:0:
340,197,104067,1,2,0:0:0:0:
185,344,104246,1,0,3:2:0:0:
36,9,104603,2,0,P|40:77|33:153,1,134.999995880127,10|0,0:0|0:0,0:0:0:0:
237,125,104960,2,0,P|292:110|298:26,1,134.999995880127,0|0,3:2|0:0,0:0:0:0:
422,194,105317,2,0,B|419:218|388:237|348:202|279:217,1,134.999995880127,4|0,3:0|0:0,0:0:0:0:
93,156,105674,2,0,P|158:148|257:165,1,134.999995880127,2|0,0:0|0:0,0:0:0:0:
471,345,106031,6,0,P|436:311|470:225,1,150,4|0,3:2|0:0,0:0:0:0:
317,353,106389,2,0,P|248:366|157:345,1,150,2|0,0:0|0:0,0:0:0:0:
296,175,106746,1,2,0:0:0:0:
321,159,106835,1,2,0:0:0:0:
330,130,106924,1,2,0:0:0:0:
477,273,107103,2,0,P|417:278|368:262,1,99.9999999999999,0|2,3:0|0:0,0:0:0:0:
20,61,107460,2,0,P|38:126|9:188,1,99.9999999999999,8|0,0:0|0:0,0:0:0:0:
131,363,107817,2,0,P|118:305|127:250,1,99.9999999999999,2|0,0:0|0:0,0:0:0:0:
274,42,108174,2,0,P|337:34|344:118,1,150,4|0,3:0|0:0,0:0:0:0:
267,227,108531,1,8,3:0:0:0:
469,83,108710,1,8,3:0:0:0:
291,368,108889,6,0,P|308:295|305:192,1,150,6|0,3:2|0:0,0:0:0:0:
142,368,109246,1,0,0:0:0:0:
324,252,109603,1,2,0:0:0:0:
289,257,109692,1,2,0:0:0:0:
254,250,109781,1,2,0:0:0:0:
461,172,109960,1,0,3:0:0:0:
124,353,110317,2,0,L|288:339,1,150,8|0,0:0|0:0,0:0:0:0:
149,147,110674,2,0,L|-15:161,1,150,0|0,3:0|0:0,0:0:0:0:
307,244,111031,2,0,P|362:199|329:147,1,125,4|0,3:0|0:0,0:0:0:0:
227,63,111389,2,0,L|325:33,1,62.4999999999999,2|0,0:0|0:0,0:0:0:0:
157,221,111567,1,8,0:0:0:0:
103,244,111656,1,8,0:0:0:0:
47,232,111746,6,0,P|25:316|140:332,1,187.5,4|0,3:2|0:0,0:0:0:0:
19,134,112103,1,2,0:0:0:0:
267,19,112460,1,2,0:0:0:0:
311,25,112549,1,2,0:0:0:0:
355,17,112639,1,2,0:0:0:0:
169,116,112817,1,0,3:2:0:0:
377,322,113174,2,0,P|382:346|383:376,1,50,10|0,0:0|0:0,0:0:0:0:
465,216,113353,2,0,P|464:191|456:168,1,50
188,90,113531,2,0,P|264:100|356:52,1,150,2|0,0:0|0:0,0:0:0:0:
117,176,113889,2,0,P|88:229|143:332,1,150,4|0,3:0|0:0,0:0:0:0:
222,126,114246,2,0,P|229:84|215:20,1,99.9999999999999,2|0,0:0|0:0,0:0:0:0:
286,318,114603,6,0,P|352:341|429:300,1,150,2|0,3:2|0:0,0:0:0:0:
139,352,114960,1,2,0:0:0:0:
258,219,115317,1,2,0:0:0:0:
262,169,115406,1,2,0:0:0:0:
257,118,115496,1,2,0:0:0:0:
81,308,115674,1,0,3:0:0:0:
489,70,116031,2,0,L|322:94,1,150,10|0,0:0|0:0,0:0:0:0:
409,253,116389,2,0,P|462:238|470:146,1,150,4|0,3:0|0:0,0:0:0:0:
174,122,116746,2,0,L|334:54,1,150,2|0,0:0|0:0,0:0:0:0:
128,46,117103,1,2,0:0:0:0:
324,273,117460,5,4,3:2:0:0:
87,287,117639,1,2,0:0:0:0:
129,334,117728,1,0,0:0:0:0:
188,348,117817,2,0,P|94:370|33:334,1,150,2|0,0:0|0:0,0:0:0:0:
129,38,118174,1,2,0:0:0:0:
182,24,118264,1,2,0:0:0:0:
236,32,118353,1,2,0:0:0:0:
295,264,118531,2,0,P|344:219|320:148,1,150,2|0,3:2|0:0,0:0:0:0:
64,10,118889,1,10,0:0:0:0:
291,174,119246,2,0,P|232:123|268:46,1,150,2|0,0:0|0:0,0:0:0:0:
239,268,119603,1,4,3:0:0:0:
62,194,119960,2,0,L|131:192,1,50,2|0,0:0|0:0,0:0:0:0:
280,216,120317,6,0,L|276:164,1,37.5000014305115,2|0,3:2|0:0,0:0:0:0:
327,275,120674,1,0,0:0:0:0:
196,319,121031,2,0,L|226:317,2,18.7500007152557,2|0|0,0:0|0:0|0:0,0:0:0:0:
42,250,121389,2,0,L|115:232,1,69.9999978637695,2|0,0:0|0:0,0:0:0:0:
284,96,122371,1,8,0:0:0:0:
220,19,122460,1,8,0:0:0:0:
119,232,122639,1,8,0:0:0:0:
354,334,122817,2,0,P|307:313|251:331,1,112.500004291534,4|0,3:0|0:0,0:0:0:0:
461,178,123174,6,0,P|486:133|453:32,1,150.000005722046,2|0,3:2|3:0,0:0:0:0:
478,297,123889,2,0,L|453:233,1,50,10|0,0:0|0:0,0:0:0:0:
222,228,124246,2,0,L|243:290,1,50,0|8,0:0|0:0,0:0:0:0:
182,187,124603,2,0,L|217:186,1,25
109,263,124781,1,8,0:0:0:0:
29,113,124960,2,0,L|22:50,1,50,2|0,3:2|0:0,0:0:0:0:
13,304,125317,2,0,L|29:354,1,50,10|0,0:0|0:0,0:0:0:0:
219,224,125674,2,0,L|198:156,1,50,0|0,0:0|3:0,0:0:0:0:
273,32,126031,6,0,L|302:97,1,50,2|8,0:0|0:0,0:0:0:0:
381,208,126389,2,0,L|410:151,1,50,0|0,3:0|0:0,0:0:0:0:
231,301,126746,2,0,L|198:356,1,50,10|0,0:0|0:0,0:0:0:0:
340,274,127103,2,0,L|284:256,1,50,0|8,0:0|0:0,0:0:0:0:
109,138,127460,1,2,0:0:0:0:
83,37,127639,1,10,0:0:0:0:
47,130,127817,1,2,3:2:0:0:
220,247,127996,1,0,0:0:0:0:
202,73,128174,2,0,L|179:141,1,50,10|0,0:0|0:0,0:0:0:0:
353,34,128531,1,2,0:0:0:0:
353,34,128710,1,0,0:0:0:0:
488,191,128889,6,0,P|443:166|342:199,1,150.000005722046,2|0,3:2|0:0,0:0:0:0:
244,360,129604,2,0,L|219:296,1,50,10|0,0:0|0:0,0:0:0:0:
105,259,129961,2,0,L|126:321,1,50,0|8,0:0|0:0,0:0:0:0:
222,146,130317,2,0,L|243:207,1,50,0|8,0:0|0:0,0:0:0:0:
243,146,130675,2,0,L|223:87,1,50,2|0,3:2|0:0,0:0:0:0:
41,14,131032,2,0,L|47:70,1,50,10|0,0:0|0:0,0:0:0:0:
136,241,131389,2,0,L|134:168,1,50,0|0,0:0|3:0,0:0:0:0:
242,309,131746,6,0,L|250:380,1,50,2|8,0:0|0:0,0:0:0:0:
127,219,132104,2,0,L|183:206,1,50,0|0,3:0|0:0,0:0:0:0:
49,356,132461,2,0,L|-9:355,1,50,10|0,0:0|0:0,0:0:0:0:
155,336,132818,2,0,L|99:318,1,50,0|8,0:0|0:0,0:0:0:0:
255,287,133175,1,2,0:0:0:0:
217,38,133354,1,10,0:0:0:0:
129,143,133531,2,0,L|99:87,1,50,0|0,3:0|0:0,0:0:0:0:
85,220,133799,1,8,0:0:0:0:
88,273,133889,1,8,0:0:0:0:
273,254,134067,1,8,3:0:0:0:
241,67,134246,1,4,3:0:0:0:
321,118,134425,1,0,3:0:0:0:
63,211,134603,6,0,P|108:186|209:219,1,150.000005722046,6|0,3:2|0:0,0:0:0:0:
327,333,135318,2,0,L|270:347,1,50,10|0,0:0|0:0,0:0:0:0:
457,366,135675,2,0,L|513:330,1,50,0|8,0:0|0:0,0:0:0:0:
356,290,136032,2,0,L|306:290,1,50,0|8,0:0|0:0,0:0:0:0:
462,148,136389,2,0,L|455:85,1,50,2|0,3:2|0:0,0:0:0:0:
455,318,136746,2,0,L|470:365,1,50,10|0,0:0|0:0,0:0:0:0:
322,246,137103,2,0,L|305:178,1,50,0|0,0:0|3:0,0:0:0:0:
180,119,137460,6,0,L|245:148,1,50,2|8,0:0|0:0,0:0:0:0:
305,250,137818,2,0,L|244:259,1,50,0|0,3:0|0:0,0:0:0:0:
427,207,138175,2,0,L|488:243,1,50,10|0,0:0|0:0,0:0:0:0:
371,124,138532,2,0,L|315:142,1,50,0|8,0:0|0:0,0:0:0:0:
153,194,138889,1,2,0:0:0:0:
84,19,139068,1,10,0:0:0:0:
29,112,139246,1,2,3:2:0:0:
252,167,139425,1,0,0:0:0:0:
181,354,139603,2,0,L|228:339,1,50,10|0,0:0|0:0,0:0:0:0:
422,297,139960,1,2,0:0:0:0:
380,367,140139,1,0,0:0:0:0:
230,181,140317,6,0,P|255:226|222:327,1,150.000005722046,2|0,3:2|0:0,0:0:0:0:
26,355,141031,2,0,L|44:308,1,50,10|0,0:0|0:0,0:0:0:0:
204,260,141390,2,0,L|151:264,1,50,0|8,0:0|0:0,0:0:0:0:
200,158,141746,2,0,L|264:141,1,50,0|8,0:0|0:0,0:0:0:0:
148,64,142104,2,0,L|134:123,1,50,2|0,3:2|0:0,0:0:0:0:
56,279,142461,2,0,L|62:223,1,50,10|0,0:0|0:0,0:0:0:0:
213,162,142818,2,0,L|272:168,1,50,0|0,0:0|3:0,0:0:0:0:
406,129,143175,6,0,L|357:107,1,50,2|8,0:0|0:0,0:0:0:0:
441,249,143531,2,0,L|497:262,1,50,0|0,3:0|0:0,0:0:0:0:
292,335,143890,2,0,L|234:336,1,50,10|0,0:0|0:0,0:0:0:0:
442,350,144247,2,0,L|489:365,1,50,0|8,0:0|0:0,0:0:0:0:
408,244,144604,1,2,0:0:0:0:
303,69,144781,1,10,0:0:0:0:
268,235,144960,2,0,L|286:211,1,25,0|0,3:0|0:0,0:0:0:0:
367,61,145228,1,8,0:0:0:0:
292,13,145318,1,8,0:0:0:0:
185,133,145496,1,8,3:0:0:0:
135,131,145675,1,4,3:0:0:0:
114,88,145854,1,4,3:0:0:0:
72,43,146031,6,0,L|152:62,1,75.000002861023,4|0,0:0|0:0,0:0:0:0:
27,101,146746,1,8,0:0:0:0:
47,126,147103,1,2,0:0:0:0:
41,84,147281,1,8,0:0:0:0:
93,19,147460,2,0,L|65:23,1,25,2|8,0:0|0:0,0:0:0:0:
112,41,147817,2,0,L|140:38,1,25,0|0,3:0|0:0,0:0:0:0:
81,136,148174,2,0,L|77:162,3,22.4999993133545,8|0|2|0,0:0|0:0|0:0|0:0,0:0:0:0:
170,94,148889,6,0,L|181:7,1,75.000002861023,2|0,0:0|0:0,0:0:0:0:
136,202,149603,1,8,0:0:0:0:
143,150,149960,1,2,0:0:0:0:
128,225,150139,1,8,0:0:0:0:
138,163,150317,2,0,L|163:176,1,22.4999993133545,2|8,0:0|0:0,0:0:0:0:
75,178,150674,2,0,L|78:202,1,22.4999993133545,0|0,3:0|0:0,0:0:0:0:
145,274,151031,2,0,L|143:244,3,22.4999993133545,8|0|2|0,0:0|0:0|0:0|0:0,0:0:0:0:
77,372,151746,6,0,L|158:368,1,75.000002861023,2|0,0:0|0:0,0:0:0:0:
256,298,152460,1,8,0:0:0:0:
245,287,152639,1,0,0:0:0:0:
266,221,152817,2,0,L|244:243,1,22.4999993133545,2|0,3:2|0:0,0:0:0:0:
325,204,153174,2,0,L|307:190,1,22.4999993133545,2|8,0:0|0:0,0:0:0:0:
323,222,153531,1,0,0:0:0:0:
301,327,153889,2,0,L|304:357,1,22.4999993133545,10|0,0:0|0:0,0:0:0:0:
276,318,154246,1,0,0:0:0:0:
204,222,154603,6,0,L|215:135,1,75.000002861023,2|0,0:0|0:0,0:0:0:0:
340,196,155317,1,8,0:0:0:0:
292,177,155674,1,2,0:0:0:0:
338,80,155853,1,8,0:0:0:0:
336,41,156031,2,0,L|361:54,1,22.4999993133545,2|8,0:0|0:0,0:0:0:0:
322,106,156388,2,0,L|325:130,1,22.4999993133545,0|0,3:0|0:0,0:0:0:0:
453,53,156745,2,0,L|451:23,1,22.4999993133545,8|0,0:0|0:0,0:0:0:0:
424,84,157103,2,0,L|438:108,1,22.4999993133545
484,230,157460,6,0,L|495:143,1,75.000002861023,2|0,0:0|0:0,0:0:0:0:
427,293,158174,1,8,0:0:0:0:
397,223,158531,1,2,0:0:0:0:
483,356,158710,1,8,0:0:0:0:
451,310,158889,2,0,L|476:323,1,22.4999993133545,2|8,0:0|0:0,0:0:0:0:
360,351,159245,2,0,L|382:358,1,22.4999993133545,0|0,3:0|0:0,0:0:0:0:
284,267,159603,2,0,L|283:241,3,22.4999993133545,8|0|2|0,0:0|0:0|0:0|0:0,0:0:0:0:
354,334,160317,6,0,L|356:386,1,37.5000014305115,2|8,0:0|0:0,0:0:0:0:
298,308,160674,1,0,0:0:0:0:
401,202,161032,1,8,0:0:0:0:
391,196,161210,1,0,0:0:0:0:
391,225,161389,2,0,L|370:214,1,22.4999993133545,2|8,0:0|0:0,0:0:0:0:
487,141,161746,2,0,L|511:157,1,22.4999993133545,2|0,3:2|0:0,0:0:0:0:
410,54,162103,2,0,L|401:26,1,22.4999993133545,2|0,0:0|0:0,0:0:0:0:
461,144,162460,1,8,0:0:0:0:
424,82,162817,1,0,0:0:0:0:
294,150,163174,6,0,L|368:159,1,75.000002861023,2|0,0:0|0:0,0:0:0:0:
244,84,163888,1,8,0:0:0:0:
217,110,164245,1,2,0:0:0:0:
89,23,164424,1,8,0:0:0:0:
104,23,164603,2,0,L|129:36,1,22.4999993133545,2|8,0:0|0:0,0:0:0:0:
36,93,164960,2,0,L|14:86,1,22.4999993133545,0|0,3:0|0:0,0:0:0:0:
149,189,165317,2,0,L|180:192,3,22.4999993133545,8|0|2|0,0:0|0:0|0:0|0:0,0:0:0:0:
54,327,166031,6,0,L|65:240,1,75.000002861023,2|0,0:0|0:0,0:0:0:0:
150,145,166745,1,8,0:0:0:0:
129,163,167102,1,2,0:0:0:0:
270,46,167281,1,8,0:0:0:0:
236,50,167460,2,0,L|261:63,1,22.4999993133545,2|8,0:0|0:0,0:0:0:0:
408,25,167817,2,0,L|386:18,1,22.4999993133545,2|0,3:2|0:0,0:0:0:0:
247,93,168174,1,8,0:0:0:0:
238,194,168353,1,8,3:0:0:0:
408,245,168531,1,4,3:0:0:0:
289,321,168710,1,4,3:0:0:0:
264,301,168799,1,8,3:0:0:0:
209,313,168889,6,0,P|249:305|301:310,1,85.0000016212463,4|0,0:0|0:0,0:0:0:0:
144,363,169603,2,0,L|176:347,1,32.4999985122681,10|0,0:0|0:0,0:0:0:0:
104,347,169960,2,0,L|71:359,1,27.5000008392334,2|8,0:0|0:0,0:0:0:0:
181,254,170317,2,0,L|210:214,1,42.5000008106231,2|8,0:0|0:0,0:0:0:0:
130,249,170674,2,0,L|131:295,1,41.2500012588501,0|0,3:0|0:0,0:0:0:0:
82,189,171031,1,8,0:0:0:0:
69,205,171389,1,2,0:0:0:0:
159,73,171746,6,0,L|250:61,1,85.0000016212463,2|0,0:0|0:0,0:0:0:0:
365,12,172460,2,0,L|335:26,1,32.4999985122681,10|0,0:0|0:0,0:0:0:0:
426,31,172817,2,0,L|451:21,1,27.5000008392334,2|8,0:0|0:0,0:0:0:0:
486,104,173174,2,0,L|518:97,1,27.5000008392334,2|8,0:0|0:0,0:0:0:0:
363,176,173531,2,0,L|311:186,1,41.2500012588501,0|0,3:0|0:0,0:0:0:0:
437,197,173888,1,8,0:0:0:0:
439,183,174246,1,2,0:0:0:0:
291,277,174603,6,0,L|317:183,1,85.0000016212463,2|0,0:0|0:0,0:0:0:0:
338,361,175317,2,0,L|319:326,1,32.4999985122681,8|0,0:0|0:0,0:0:0:0:
319,232,175674,1,2,0:0:0:0:
335,241,175853,1,8,0:0:0:0:
471,177,176031,2,0,L|441:178,1,18.7500007152557,2|0,0:0|0:0,0:0:0:0:
326,191,176210,1,8,0:0:0:0:
357,74,176389,2,0,L|372:120,1,41.2500012588501,0|0,3:0|0:0,0:0:0:0:
305,15,176746,1,8,0:0:0:0:
217,121,177103,2,0,L|205:138,1,13.7500004196167,2|0,0:0|0:0,0:0:0:0:
159,73,177460,6,0,L|210:55,1,42.5000008106231,2|8,0:0|0:0,0:0:0:0:
161,46,177817,1,2,0:0:0:0:
70,142,178174,2,0,L|43:152,1,27.5000008392334,10|0,0:0|0:0,0:0:0:0:
105,180,178531,2,0,L|130:170,1,27.5000008392334,2|8,0:0|0:0,0:0:0:0:
226,71,178889,2,0,L|199:76,1,27.5000008392334,0|8,0:0|0:0,0:0:0:0:
149,200,179246,2,0,L|172:250,1,56.2500021457672,2|0,3:2|0:0,0:0:0:0:
86,159,179602,1,8,0:0:0:0:
61,192,179960,1,2,0:0:0:0:
181,146,180317,6,0,P|226:151|273:143,1,85.0000016212463,2|0,0:0|0:0,0:0:0:0:
395,232,181031,2,0,L|399:262,1,27.5000008392334,8|0,0:0|0:0,0:0:0:0:
340,193,181389,2,0,L|351:161,1,27.5000008392334,2|8,0:0|0:0,0:0:0:0:
467,88,181746,2,0,L|426:104,1,37.5000014305115,2|8,0:0|0:0,0:0:0:0:
279,107,182103,2,0,L|325:97,1,41.2500012588501,0|0,3:0|0:0,0:0:0:0:
214,74,182459,1,8,0:0:0:0:
199,118,182817,1,2,0:0:0:0:
169,247,183174,6,0,L|213:237,1,42.5000008106231,2|8,0:0|0:0,0:0:0:0:
129,228,183531,1,0,0:0:0:0:
331,344,183889,2,0,L|301:356,1,27.5000008392334,10|0,0:0|0:0,0:0:0:0:
347,285,184245,2,0,L|372:275,1,27.5000008392334,2|8,0:0|0:0,0:0:0:0:
227,261,184603,2,0,L|189:271,1,37.5000014305115,2|8,0:0|0:0,0:0:0:0:
84,227,184960,2,0,L|124:221,1,41.2500012588501,0|0,3:0|0:0,0:0:0:0:
37,167,185316,1,8,0:0:0:0:
16,185,185674,1,2,0:0:0:0:
74,353,186031,6,0,P|82:313|77:261,1,85.0000016212463,2|0,0:0|0:0,0:0:0:0:
155,155,186746,2,0,L|129:166,1,27.5000008392334,10|0,0:0|0:0,0:0:0:0:
156,95,187102,2,0,L|181:85,1,27.5000008392334,2|8,0:0|0:0,0:0:0:0:
51,32,187460,2,0,L|10:14,1,37.5000014305115,2|8,0:0|0:0,0:0:0:0:
198,40,187817,2,0,L|239:71,1,41.2500012588501,0|0,3:0|0:0,0:0:0:0:
130,45,188173,1,8,0:0:0:0:
97,64,188531,1,2,0:0:0:0:
214,172,188889,6,0,L|258:162,1,42.5000008106231,2|8,0:0|0:0,0:0:0:0:
166,260,189246,2,0,L|143:290,1,27.5000008392334
309,351,189603,2,0,L|224:361,1,71.2499980974197,12|0,0:0|0:0,0:0:0:0:
291,372,189960,1,2,0:0:0:0:
272,212,190139,1,8,0:0:0:0:
252,231,190317,1,2,0:0:0:0:
200,72,190496,1,8,0:0:0:0:
112,176,190674,2,0,L|111:127,1,48.7499977684022,2|0,3:2|0:0,0:0:0:0:
79,219,191031,1,8,0:0:0:0:
150,126,191210,1,8,3:0:0:0:
163,283,191389,1,4,3:0:0:0:
64,334,191567,1,4,3:0:0:0:
33,327,191656,1,0,3:0:0:0:
7,278,191746,5,4,3:2:0:0:
7,278,192103,1,0,0:0:0:0:
7,278,192460,1,2,3:2:0:0:
90,146,192817,2,0,L|92:200,1,50
147,169,193174,1,0,0:0:0:0:
145,168,193531,1,0,0:0:0:0:
282,70,193889,2,0,L|207:70,1,75.000002861023,8|0,0:0|0:0,0:0:0:0:
242,12,194246,1,0,0:0:0:0:
107,109,194603,6,0,L|121:24,1,75.000002861023,0|0,3:2|0:0,0:0:0:0:
56,118,194960,1,0,0:0:0:0:
56,118,195317,1,2,3:2:0:0:
132,142,195674,2,0,L|82:142,1,50
186,98,196032,1,0,0:0:0:0:
186,98,196389,1,0,0:0:0:0:
329,170,196746,2,0,L|417:180,1,75.000002861023,8|0,0:0|0:0,0:0:0:0:
331,285,197103,2,0,L|271:287,1,50
442,353,197460,6,0,L|450:279,1,75.000002861023,2|0,3:2|0:0,0:0:0:0:
386,353,197817,1,0,0:0:0:0:
472,297,198174,2,0,L|420:302,1,50
255,206,198532,2,0,L|337:206,1,74.9999999999999
245,154,198889,1,0,0:0:0:0:
202,272,199246,2,0,L|203:339,1,50
361,201,199603,2,0,L|265:193,1,75.000002861023,10|0,0:2|0:0,0:0:0:0:
404,140,199960,2,0,L|470:138,1,50
318,243,200317,6,0,L|309:327,1,75.000002861023,2|0,3:2|0:0,0:0:0:0:
248,199,200674,1,0,0:0:0:0:
347,50,201031,2,0,L|362:132,1,75.000002861023,2|0,3:2|0:0,0:0:0:0:
394,29,201389,1,0,0:0:0:0:
394,29,201746,1,0,0:0:0:0:
474,198,202103,2,0,L|418:202,1,50,0|0,3:2|0:0,0:0:0:0:
224,153,202460,2,0,P|303:164|386:142,1,150.000005722046,10|0,0:2|0:0,0:0:0:0:
489,21,203174,6,0,L|484:102,1,75.000002861023,4|0,0:0|0:0,0:0:0:0:
367,209,203532,2,0,L|371:158,1,50
404,254,203889,1,2,3:2:0:0:
275,356,204246,2,0,L|328:347,1,50,2|0,0:0|0:0,0:0:0:0:
214,296,204603,2,0,L|155:286,1,50
14,348,204960,2,0,L|61:370,1,50
13,205,205317,1,10,0:2:0:0:
45,224,205674,1,0,0:0:0:0:
56,121,206032,6,0,L|45:42,1,75.000002861023,2|0,3:2|0:0,0:0:0:0:
99,136,206389,1,0,0:0:0:0:
38,275,206746,2,0,L|38:225,1,50,2|0,3:2|0:0,0:0:0:0:
123,329,207103,2,0,L|177:365,1,50
136,282,207460,1,0,0:0:0:0:
136,282,207817,1,0,0:0:0:0:
278,211,208174,2,0,L|196:189,1,75.000002861023,10|0,0:2|0:0,0:0:0:0:
324,184,208532,2,0,L|383:215,1,50
481,345,208889,6,0,L|402:325,1,74.9999999999999,4|0,3:2|0:0,0:0:0:0:
494,288,209246,1,0,0:0:0:0:
351,205,209603,2,0,L|427:170,1,75.000002861023,10|0,0:2|0:0,0:0:0:0:
275,162,209960,2,0,L|224:208,1,50
258,87,210317,1,0,0:0:0:0:
271,75,210674,1,0,0:0:0:0:
450,11,211031,2,0,L|375:20,1,75.000002861023,10|0,0:2|0:0,0:0:0:0:
287,109,211389,2,0,L|345:102,1,50
473,264,211746,6,0,P|469:305|467:348,1,75.000002861023,6|0,3:2|0:0,0:0:0:0:
425,233,212103,1,0,0:0:0:0:
390,102,212460,2,0,L|461:125,1,75.000002861023,10|0,0:2|0:0,0:0:0:0:
303,31,212817,2,0,L|304:112,1,75.000002861023
248,268,213174,2,0,L|188:222,1,75.000002861023,2|0,0:0|0:0,0:0:0:0:
66,128,213532,2,0,L|55:218,1,75.000002861023
208,370,213889,2,0,L|149:289,1,75.000002861023,10|0,0:2|0:0,0:0:0:0:
164,106,214246,2,0,L|223:176,1,75.000002861023,2|0,0:0|0:0,0:0:0:0:
55,68,214603,6,0,L|25:28,1,37.5000014305115,4|0,3:2|0:0,0:0:0:0:
56,196,214960,2,0,L|71:330,1,112.500004291534,2|0,0:0|0:0,0:0:0:0:
236,342,215317,2,0,L|218:284,1,37.5000014305115,8|0,0:0|0:0,0:0:0:0:
272,161,215496,2,0,L|299:214,1,37.5000014305115,2|0,0:0|0:0,0:0:0:0:
393,310,215674,1,2,3:2:0:0:
375,94,215853,1,8,0:0:0:0:
356,41,215942,1,8,0:0:0:0:
296,8,216031,2,0,L|256:6,1,37.5000014305115,8|0,0:0|0:0,0:0:0:0:
59,99,216210,2,0,L|119:107,1,37.5000014305115,8|0,3:0|0:0,0:0:0:0:
307,161,216389,2,0,L|257:177,1,50,10|0,3:2|0:0,0:0:0:0:
419,36,217460,6,0,P|441:117|410:199,1,134.999995880127,4|0,3:2|0:0,0:0:0:0:
494,42,217817,1,2,0:0:0:0:
285,103,218174,2,0,P|195:106|145:61,1,134.999995880127,2|0,0:0|0:0,0:0:0:0:
287,31,218531,1,0,3:0:0:0:
378,234,218710,1,2,0:0:0:0:
356,278,218799,1,2,0:0:0:0:
316,291,218889,2,0,L|282:265,1,37.5000014305115,8|0,0:0|0:0,0:0:0:0:
324,128,219067,2,0,L|359:165,1,37.5000014305115,2|0,0:0|0:0,0:0:0:0:
461,325,219246,2,0,L|395:331,1,50,2|0,0:0|0:0,0:0:0:0:
156,279,219603,2,0,P|217:291|268:274,1,112.500004291534,8|0,3:0|0:0,0:0:0:0:
460,155,219960,2,0,P|412:123|332:144,1,112.500004291534,2|0,0:0|0:0,0:0:0:0:
209,356,220317,6,0,P|184:334|223:236,1,134.999995880127,2|0,3:2|0:0,0:0:0:0:
89,338,220674,1,2,0:0:0:0:
316,187,221031,1,2,0:0:0:0:
356,177,221121,1,2,0:0:0:0:
400,185,221210,1,2,0:0:0:0:
326,30,221389,2,0,L|242:13,1,44.999998626709,2|0,3:2|0:0,0:0:0:0:
399,90,221567,2,0,L|467:110,1,44.999998626709,2|0,0:0|0:0,0:0:0:0:
299,255,221746,2,0,P|250:271|151:249,1,134.999995880127,8|0,0:0|0:0,0:0:0:0:
380,99,222103,2,0,B|426:81|460:102|425:200,1,134.999995880127,2|0,0:0|0:0,0:0:0:0:
167,321,222460,2,0,P|108:306|126:210,1,134.999995880127,8|0,3:0|0:0,0:0:0:0:
330,340,222817,2,0,L|385:343,1,44.999998626709,2|0,0:0|0:0,0:0:0:0:
276,238,222996,2,0,L|201:236,1,44.999998626709,2|0,0:0|0:0,0:0:0:0:
53,98,223174,6,0,B|32:67|40:31|81:3|131:32|159:29,1,150,4|0,3:2|0:0,0:0:0:0:
292,57,223532,1,2,0:0:0:0:
158,198,223889,2,0,P|58:209|8:164,1,150,2|0,0:0|0:0,0:0:0:0:
151,291,224246,1,0,3:0:0:0:
320,213,224424,2,0,L|253:210,1,50,2|0,0:0|0:0,0:0:0:0:
59,32,224603,2,0,P|147:70|268:12,1,200,10|0,0:0|0:0,0:0:0:0:
426,200,225318,2,0,P|427:299|390:341,1,150,8|0,3:0|0:0,0:0:0:0:
351,171,225674,2,0,L|349:102,1,50,2|0,0:0|0:0,0:0:0:0:
171,32,225853,2,0,L|172:114,1,50,2|0,0:0|0:0,0:0:0:0:
71,330,226032,6,0,P|88:267|69:150,1,150,2|0,3:2|0:0,0:0:0:0:
186,365,226389,1,2,0:0:0:0:
348,177,226746,1,2,0:0:0:0:
352,218,226836,1,2,0:0:0:0:
338,260,226925,1,2,0:0:0:0:
222,129,227104,2,0,P|217:76|225:-2,1,99.9999999999999,0|0,3:0|0:0,0:0:0:0:
451,280,227461,2,0,B|444:313|395:353|361:337|330:281,1,150,8|0,0:0|0:0,0:0:0:0:
175,110,227818,2,0,B|169:73|192:30|280:44|287:87,1,150,2|0,0:0|0:0,0:0:0:0:
214,322,228175,2,0,L|155:142,1,187.5,8|0,3:0|0:0,0:0:0:0:
370,81,228531,2,0,P|409:125|375:203,1,125,2|0,0:0|0:0,0:0:0:0:
116,176,228889,6,0,B|70:177|32:126|33:82|82:38,1,187.5,4|0,3:2|0:0,0:0:0:0:
26,284,229246,2,0,P|49:355|96:333,1,125
196,207,229603,1,2,0:0:0:0:
206,167,229693,1,2,0:0:0:0:
198,123,229782,1,2,0:0:0:0:
141,11,229961,2,0,L|15:25,1,125,0|0,3:0|0:0,0:0:0:0:
95,221,230318,2,0,P|95:298|32:396,1,150,8|0,0:0|0:0,0:0:0:0:
280,177,230675,2,0,P|244:121|301:69,1,150,2|0,0:0|0:0,0:0:0:0:
373,263,231031,2,0,P|336:308|245:266,1,150,8|0,3:0|0:0,0:0:0:0:
56,122,231389,2,0,P|101:103|146:121,1,99.9999999999999,2|0,0:0|0:0,0:0:0:0:
308,364,231746,6,0,P|331:298|290:221,1,150,2|0,3:2|0:0,0:0:0:0:
396,373,232103,1,2,0:0:0:0:
426,103,232460,1,2,0:0:0:0:
387,135,232549,1,2,0:0:0:0:
355,175,232639,1,2,0:0:0:0:
224,75,232817,2,0,L|207:18,1,50,2|0,0:0|0:0,0:0:0:0:
126,166,232996,2,0,L|153:240,1,50,2|0,0:0|0:0,0:0:0:0:
369,52,233174,2,0,L|196:41,1,150,10|0,0:0|0:0,0:0:0:0:
44,242,233532,2,0,B|42:313|142:285|106:158,1,150,4|0,3:0|0:0,0:0:0:0:
31,29,233889,2,0,P|106:59|190:14,1,150,2|0,0:0|0:0,0:0:0:0:
429,48,234246,2,0,L|309:61,1,99.9999999999999
79,231,234603,6,0,P|159:236|241:204,1,150,4|0,3:2|0:0,0:0:0:0:
323,35,234960,2,0,P|407:66|377:145,1,150,2|0,0:0|0:0,0:0:0:0:
294,223,235317,1,2,0:0:0:0:
315,273,235407,1,2,0:0:0:0:
367,288,235496,1,2,0:0:0:0:
151,191,235674,2,0,P|90:234|100:313,1,150,2|0,3:2|0:0,0:0:0:0:
51,81,236031,2,0,P|98:53|213:80,1,150,10|0,0:0|0:0,0:0:0:0:
344,273,236389,2,0,P|408:271|445:178,1,150
324,76,236746,2,0,L|457:62,1,99.9999999999999,8|0,3:0|0:0,0:0:0:0:
247,250,237103,2,0,L|198:252,1,50,2|0,0:0|0:0,0:0:0:0:
64,144,237281,2,0,L|133:124,1,50,2|0,0:0|0:0,0:0:0:0:
316,35,237460,6,0,L|269:31,1,37.5000014305115,2|0,3:2|0:0,0:0:0:0:
384,71,237816,1,0,0:0:0:0:
478,20,238174,2,0,L|508:18,2,18.7500007152557,2|0|0,0:0|0:0|0:0,0:0:0:0:
367,138,238531,2,0,L|385:211,1,69.9999978637695,2|0,0:0|0:0,0:0:0:0:
381,344,239514,1,8,0:0:0:0:
480,354,239603,1,8,0:0:0:0:
286,230,239782,1,8,0:0:0:0:
105,327,239960,2,0,P|156:345|207:323,1,112.500004291534,4|0,3:0|0:0,0:0:0:0:
153,183,240317,6,0,P|108:158|7:191,1,150.000005722046,2|0,3:2|3:0,0:0:0:0:
139,98,241032,2,0,P|176:92|210:76,1,74.9999999999999,10|0,0:0|0:0,0:0:0:0:
319,97,241389,2,0,L|271:113,1,50,0|8,0:0|0:0,0:0:0:0:
179,17,241746,1,2,3:2:0:0:
179,17,241835,1,0,0:0:0:0:
179,17,241924,1,8,0:0:0:0:
315,140,242103,2,0,P|305:99|327:63,1,74.9999999999999,2|0,3:2|0:0,0:0:0:0:
390,171,242460,2,0,L|406:221,1,50,10|0,0:0|0:0,0:0:0:0:
279,331,242817,2,0,P|276:286|261:246,1,74.9999999999999,0|0,0:0|3:0,0:0:0:0:
134,199,243174,6,0,L|163:264,1,50,2|8,0:0|0:0,0:0:0:0:
4,351,243532,2,0,L|33:294,1,50,0|0,3:0|0:0,0:0:0:0:
222,177,243889,2,0,L|189:232,1,50,10|0,0:0|0:0,0:0:0:0:
276,325,244246,2,0,L|311:267,1,50,0|8,0:0|0:0,0:0:0:0:
343,160,244603,1,2,0:0:0:0:
481,180,244782,1,10,0:0:0:0:
349,76,244960,1,2,3:2:0:0:
453,242,245139,1,0,0:0:0:0:
279,341,245317,2,0,L|229:344,1,50,10|0,0:0|0:0,0:0:0:0:
488,357,245674,1,2,0:0:0:0:
488,357,245853,1,0,0:0:0:0:
341,153,246032,6,0,P|366:198|333:299,1,150.000005722046,2|0,3:2|0:0,0:0:0:0:
442,144,246747,2,0,P|425:113|436:57,1,74.9999999999999,10|0,0:0|0:0,0:0:0:0:
355,16,247104,2,0,L|345:71,1,50,0|8,0:0|0:0,0:0:0:0:
130,162,247460,2,0,L|73:118,1,50,0|10,0:0|0:0,0:0:0:0:
137,15,247818,2,0,P|188:26|228:8,1,74.9999999999999,2|0,3:2|0:0,0:0:0:0:
277,55,248175,2,0,L|241:90,1,50,10|0,0:0|0:0,0:0:0:0:
403,58,248532,2,0,P|442:42|463:10,1,74.9999999999999,0|0,0:0|3:0,0:0:0:0:
391,234,248889,6,0,L|385:184,1,50,2|8,0:0|0:0,0:0:0:0:
436,345,249247,2,0,L|492:332,1,50,0|0,3:0|0:0,0:0:0:0:
286,244,249604,2,0,L|228:243,1,50,10|0,0:0|0:0,0:0:0:0:
105,99,249961,2,0,L|106:149,1,50,0|8,0:0|0:0,0:0:0:0:
120,302,250318,1,2,0:0:0:0:
258,141,250497,1,10,0:0:0:0:
103,79,250674,2,0,L|53:74,1,50,0|0,3:0|0:0,0:0:0:0:
168,7,250942,1,8,0:0:0:0:
230,15,251032,1,8,0:0:0:0:
316,209,251210,1,8,3:0:0:0:
434,111,251389,1,4,3:0:0:0:
340,101,251568,1,0,3:0:0:0:
174,146,251746,6,0,P|223:131|271:37,1,150.000005722046,6|0,3:2|0:0,0:0:0:0:
79,27,252461,2,0,P|51:53|60:92,1,74.9999999999999,10|0,0:0|0:0,0:0:0:0:
175,48,252818,2,0,L|187:-6,1,50,0|8,0:0|0:0,0:0:0:0:
224,199,253175,2,0,L|187:241,1,50,0|8,0:0|0:0,0:0:0:0:
43,341,253532,2,0,P|28:315|40:255,1,74.9999999999999,2|0,3:2|0:0,0:0:0:0:
125,342,253889,2,0,L|192:358,1,50,10|0,0:0|0:0,0:0:0:0:
316,229,254246,2,0,P|270:239|231:214,1,74.9999999999999,0|0,0:0|3:0,0:0:0:0:
190,153,254603,6,0,L|256:139,1,50,2|8,0:0|0:0,0:0:0:0:
43,121,254961,2,0,L|45:185,1,50,0|0,3:0|0:0,0:0:0:0:
108,354,255318,2,0,L|114:299,1,50,10|0,0:0|0:0,0:0:0:0:
226,190,255675,2,0,L|232:242,1,50,0|8,0:0|0:0,0:0:0:0:
351,232,256032,1,2,0:0:0:0:
498,75,256211,1,10,0:0:0:0:
273,87,256389,1,2,3:2:0:0:
413,45,256568,1,0,0:0:0:0:
368,255,256746,2,0,L|383:302,1,50,10|0,0:0|0:0,0:0:0:0:
258,183,257103,1,2,3:2:0:0:
306,83,257281,1,2,0:0:0:0:
412,109,257460,6,0,P|367:134|266:101,1,150.000005722046,2|0,3:2|0:0,0:0:0:0:
132,14,258174,2,0,P|115:50|117:84,1,74.9999999999999,10|0,0:0|0:0,0:0:0:0:
218,137,258531,2,0,L|169:152,1,50,0|8,0:0|0:0,0:0:0:0:
36,306,258889,2,0,L|43:358,1,50,0|8,0:0|0:0,0:0:0:0:
220,335,259247,2,0,P|249:308|304:308,1,74.9999999999999,2|0,3:2|0:0,0:0:0:0:
312,224,259604,2,0,L|256:218,1,50,10|0,0:0|0:0,0:0:0:0:
432,338,259961,2,0,P|471:321|481:293,1,74.9999999999999,0|0,0:0|3:0,0:0:0:0:
398,220,260318,6,0,L|450:206,1,50,2|8,0:0|0:0,0:0:0:0:
338,114,260674,2,0,L|284:147,1,50,0|0,3:0|0:0,0:0:0:0:
171,54,261031,2,0,L|173:4,1,50,10|0,0:0|0:0,0:0:0:0:
67,123,261389,2,0,L|64:178,1,50,0|8,0:0|0:0,0:0:0:0:
162,284,261747,1,2,0:0:0:0:
72,73,261924,1,10,0:0:0:0:
271,160,262103,2,0,L|231:173,1,25,0|0,3:0|0:0,0:0:0:0:
52,322,262371,1,0,0:0:0:0:
128,340,262461,1,8,0:0:0:0:
331,132,262639,1,8,3:0:0:0:
299,100,262818,1,4,3:0:0:0:
262,87,262997,1,4,3:0:0:0:
232,89,263174,5,2,0:0:0:0:
235,95,263888,1,0,0:0:0:0:
237,101,264602,1,0,0:0:0:0:
240,107,265317,1,0,0:0:0:0:
240,107,265674,1,0,0:0:0:0:
244,254,266031,6,0,L|236:245,1,9.99999999999999,2|0,0:0|0:0,0:0:0:0:
244,254,266745,1,0,0:0:0:0:
246,260,267459,1,0,0:0:0:0:
249,266,268174,1,0,0:0:0:0:
242,241,268531,1,0,0:0:0:0:
350,168,268889,6,0,L|342:159,1,9.99999999999999,2|0,0:0|0:0,0:0:0:0:
350,168,269603,1,0,0:0:0:0:
354,180,269960,1,0,0:0:0:0:
360,190,270317,1,0,0:0:0:0:
355,180,271032,1,0,0:0:0:0:
355,180,271389,1,0,0:0:0:0:
422,70,271746,6,0,L|414:61,1,9.99999999999999,2|0,0:0|0:0,0:0:0:0:
422,70,272460,1,0,0:0:0:0:
432,92,273174,1,0,0:0:0:0:
434,98,273531,1,0,0:0:0:0:
427,82,273889,1,0,0:0:0:0:
415,67,274246,1,0,0:0:0:0:
244,254,274603,6,0,L|236:245,1,9.99999999999999,2|0,3:2|0:0,0:0:0:0:
244,254,275317,1,0,0:0:0:0:
246,260,276031,1,0,0:0:0:0:
249,266,276746,1,0,0:0:0:0:
249,266,277103,1,0,0:0:0:0:
350,168,277461,6,0,L|342:159,1,9.99999999999999,2|0,0:0|0:0,0:0:0:0:
352,175,277817,1,0,3:0:0:0:
350,168,278175,1,10,0:0:0:0:
350,168,278353,1,0,3:0:0:0:
360,190,278889,1,0,0:0:0:0:
366,205,279246,1,0,0:0:0:0:
355,180,279604,1,0,0:0:0:0:
339,156,279961,1,0,0:0:0:0:
422,70,280317,6,0,L|414:61,1,9.99999999999999,2|0,3:2|0:0,0:0:0:0:
422,70,280853,1,0,3:0:0:0:
422,70,281031,1,8,0:0:0:0:
436,100,281389,1,0,0:0:0:0:
400,57,281746,1,2,0:0:0:0:
438,80,282103,1,0,0:0:0:0:
409,55,282460,1,0,0:0:0:0:
392,47,282639,1,0,0:0:0:0:
380,43,282817,1,0,0:0:0:0:
372,24,282996,1,0,0:0:0:0:
58,38,284603,6,0,B|121:103|53:164|57:250|101:283,1,225.000008583069,4|0,3:2|0:0,0:0:0:0:
148,65,284960,1,8,0:0:0:0:
127,341,285139,2,0,L|80:344,1,37.5000014305115,2|0,0:0|0:0,0:0:0:0:
159,361,285228,1,8,0:0:0:0:
200,359,285317,1,8,3:0:0:0:
48,173,285496,1,4,3:0:0:0:
400,152,285674,2,0,L|395:150,1,4.99999999999999,4|0,0:0|0:0,0:0:0:0:
91,119,286031,6,0,B|71:81|121:69|121:69|158:64|199:115|265:96,1,187.5,4|0,3:2|0:0,0:0:0:0:
61,7,286389,1,2,0:0:0:0:
192,270,286746,1,2,0:0:0:0:
191,313,286835,1,2,0:0:0:0:
194,356,286924,1,2,0:0:0:0:
76,237,287103,2,0,L|150:257,1,62.4999999999999,0|0,3:0|0:0,0:0:0:0:
331,196,287281,2,0,L|261:180,1,62.4999999999999,2|0,0:0|0:0,0:0:0:0:
395,357,287460,2,0,B|428:379|475:374|505:325|465:221,1,187.5,8|0,0:0|0:0,0:0:0:0:
271,120,287817,2,0,B|329:85|418:116|484:103,1,187.5,8|0,3:0|0:0,0:0:0:0:
218,251,288174,2,0,P|153:231|150:114,1,187.5,2|0,0:0|0:0,0:0:0:0:
286,283,288531,2,0,L|295:375,1,62.4999999999999,2|0,0:0|0:0,0:0:0:0:
100,273,288710,2,0,L|103:185,1,62.4999999999999,2|0,0:0|0:0,0:0:0:0:
329,70,288889,6,0,B|380:22|311:26|218:53|171:30,1,187.5,4|0,3:2|0:0,0:0:0:0:
403,110,289246,1,2,0:0:0:0:
141,294,289603,1,2,0:0:0:0:
99,279,289692,1,2,0:0:0:0:
64,251,289781,1,2,0:0:0:0:
350,357,289960,2,0,L|317:297,1,62.4999999999999,0|0,3:0|0:0,0:0:0:0:
121,188,290139,2,0,L|159:274,1,62.4999999999999,2|0,0:0|0:0,0:0:0:0:
313,54,290317,2,0,P|236:30|113:52,1,187.5,8|0,0:0|0:0,0:0:0:0:
309,207,290674,2,0,P|394:198|388:72,1,187.5,8|0,3:0|0:0,0:0:0:0:
145,213,291031,2,0,P|118:283|247:320,1,187.5,2|0,0:0|0:0,0:0:0:0:
41,214,291389,2,0,L|9:137,1,62.4999999999999,8|0,0:0|0:0,0:0:0:0:
295,22,291567,2,0,L|327:75,1,62.4999999999999,8|0,0:0|0:0,0:0:0:0:
141,353,291746,6,0,B|161:283|140:249|105:195|162:117,1,187.5,4|0,3:2|0:0,0:0:0:0:
84,348,292103,1,2,0:0:0:0:
255,143,292460,1,2,0:0:0:0:
218,119,292549,1,2,0:0:0:0:
173,117,292639,1,2,0:0:0:0:
323,48,292817,2,0,P|393:59|403:180,1,187.5,0|0,3:0|0:0,0:0:0:0:
144,354,293174,2,0,B|87:362|71:321|77:232|192:244,1,187.5,8|0,0:0|0:0,0:0:0:0:
454,309,293531,2,0,B|401:347|326:276|228:328,1,187.5,8|0,3:0|0:0,0:0:0:0:
139,145,293889,2,0,P|68:184|89:305,1,187.5,2|0,0:0|0:0,0:0:0:0:
278,357,294246,2,0,L|381:340,1,62.4999999999999,2|0,0:0|0:0,0:0:0:0:
131,160,294424,2,0,L|28:166,1,62.4999999999999,2|0,0:0|0:0,0:0:0:0:
418,21,294603,6,0,B|471:57|423:100|416:167|477:249,1,187.5,4|0,3:2|0:0,0:0:0:0:
478,5,294960,1,2,0:0:0:0:
340,276,295317,1,2,0:0:0:0:
344,319,295406,1,2,0:0:0:0:
353,361,295496,1,2,0:0:0:0:
194,212,295674,2,0,B|224:146|224:146|292:195|369:164,1,187.5,0|0,3:0|0:0,0:0:0:0:
38,360,296031,2,0,B|21:343|-2:304|-6:249|11:146,1,187.5,8|0,0:0|0:0,0:0:0:0:
209,15,296389,2,0,B|246:3|291:44|311:88|254:142|255:213,1,187.5,8|0,3:0|0:0,0:0:0:0:
249,367,296746,2,0,L|281:287,1,62.4999999999999,8|0,0:0|0:0,0:0:0:0:
360,96,296924,1,8,3:0:0:0:
148,290,297103,1,8,3:0:0:0:
110,247,297192,1,8,3:0:0:0:
106,191,297281,1,4,3:0:0:0:
128,139,297371,1,4,3:0:0:0:
140,48,297460,6,0,P|149:84|120:261,1,187.5,4|0,3:2|0:0,0:0:0:0:
31,44,297817,2,0,P|90:12|182:10,1,125,2|0,0:0|0:0,0:0:0:0:
423,115,298174,1,2,0:0:0:0:
368,129,298264,1,2,0:0:0:0:
312,120,298353,1,2,0:0:0:0:
429,284,298531,2,0,L|459:359,1,62.4999999999999,0|0,3:0|0:0,0:0:0:0:
304,199,298710,2,0,L|302:105,1,62.4999999999999,2|0,0:0|0:0,0:0:0:0:
60,294,298889,2,0,B|77:348|125:365|186:362|241:322,1,187.5,8|0,0:0|0:0,0:0:0:0:
376,142,299246,2,0,B|417:160|418:228|386:333,1,187.5,8|0,3:0|0:0,0:0:0:0:
134,156,299603,2,0,B|67:114|56:34|179:28|196:74,1,187.5,2|0,0:0|0:0,0:0:0:0:
183,271,299960,2,0,P|112:328|43:261,1,187.5,2|0,0:0|0:0,0:0:0:0:
243,71,300317,6,0,B|312:50|369:106|426:74,1,187.5,4|0,3:2|0:0,0:0:0:0:
319,12,300674,1,2,0:0:0:0:
114,278,301031,1,2,0:0:0:0:
126,333,301121,1,2,0:0:0:0:
176,357,301210,1,2,0:0:0:0:
81,188,301389,2,0,L|38:122,1,62.4999999999999,0|0,3:0|0:0,0:0:0:0:
216,36,301567,2,0,L|265:110,1,62.4999999999999,2|0,0:0|0:0,0:0:0:0:
431,328,301746,2,0,B|409:276|399:205|451:108,1,187.5,8|0,0:0|0:0,0:0:0:0:
264,9,302103,2,0,B|227:-2|162:54|147:104|184:167,1,187.5,8|0,3:0|0:0,0:0:0:0:
332,270,302460,2,0,P|435:257|412:185,1,187.5
130,82,302817,2,0,L|246:65,1,112.500004291534,10|0,0:0|0:0,0:0:0:0:
107,330,303174,6,0,B|36:319|34:241|53:167|66:117,1,187.5,4|0,3:2|0:0,0:0:0:0:
30,340,303531,1,2,0:0:0:0:
162,85,303889,1,2,0:0:0:0:
213,61,303978,1,2,0:0:0:0:
268,68,304067,1,2,0:0:0:0:
396,256,304246,2,0,B|405:198|365:146|365:146|359:104|401:58,1,187.5,2|0,3:2|0:0,0:0:0:0:
181,319,304603,2,0,B|125:382|34:335|48:266|89:243,1,187.5,10|0,0:0|0:0,0:0:0:0:
301,143,304960,2,0,B|359:122|417:136|452:206|406:257,1,187.5,8|0,3:0|0:0,0:0:0:0:
224,351,305317,2,0,B|243:277|218:246|217:147,1,187.5,2|0,0:0|0:0,0:0:0:0:
96,48,305674,2,0,L|80:137,1,62.4999999999999,8|0,3:2|0:0,0:0:0:0:
400,165,305853,2,0,L|395:73,1,62.4999999999999,10|0,0:0|0:0,0:0:0:0:
252,305,306031,6,0,L|268:353,1,37.5000014305115,6|0,0:0|0:0,0:0:0:0:
181,274,306389,1,0,0:0:0:0:
116,351,306746,1,2,0:0:0:0:
116,351,306835,1,2,0:0:0:0:
116,351,306924,1,2,0:0:0:0:
36,304,307103,2,0,L|70:294,1,27.5000008392334
272,101,307460,5,12,0:0:0:0:
174,25,307817,1,0,3:0:0:0:
28,33,308174,1,8,3:0:0:0:
82,84,308889,6,0,L|122:78,2,40,2|2|2,0:0|0:0|0:0,0:0:0:0:
251,93,312460,2,0,L|241:97,1,9.99999999999999
82,84,313174,2,0,L|122:76,1,40,2|0,0:0|0:0,0:0:0:0:
219,99,314960,2,0,L|229:101,2,9.99999999999999
161,33,316031,2,0,B|147:126|238:168|238:168|219:269|121:268|103:163,1,367.49998878479,2|0,0:0|0:0,0:0:0:0:
257,64,317460,6,0,L|402:36,1,102.500001564026,12|0,3:2|0:0,0:0:0:0:
194,34,317817,1,0,3:0:0:0:
146,48,318174,1,8,3:0:0:0:
96,201,318531,2,0,L|21:101,1,102.500001564026,8|0,0:0|0:0,0:0:0:0:
101,323,318889,2,0,L|211:359,1,102.500001564026,8|0,0:0|0:0,0:0:0:0:
483,249,319246,2,0,L|368:222,1,102.500001564026,8|0,0:0|0:0,0:0:0:0:
136,34,319603,2,0,L|270:16,1,102.500001564026,8|0,0:0|0:0,0:0:0:0:
237,348,319960,2,0,L|100:355,1,102.500001564026,8|0,0:0|0:0,0:0:0:0:
303,96,320317,6,0,P|420:67|459:150,1,225.000008583069,4|0,3:2|0:0,0:0:0:0:
255,19,321031,2,0,L|196:75,1,75.000002861023,10|0,0:0|0:0,0:0:0:0:
437,107,321389,2,0,L|495:45,1,75.000002861023,2|0,0:0|0:0,0:0:0:0:
365,101,321746,1,0,3:0:0:0:
377,253,321924,1,8,0:0:0:0:
232,70,322103,2,0,L|185:7,1,75.000002861023,2|0,0:0|0:0,0:0:0:0:
206,219,322460,1,8,0:0:0:0:
214,237,322639,1,0,0:0:0:0:
37,109,322817,2,0,B|85:73|112:128|197:96,1,150.000005722046,2|0,3:2|0:0,0:0:0:0:
416,25,323531,2,0,L|329:31,1,75.000002861023,2|0,0:0|0:0,0:0:0:0:
163,98,323889,1,8,0:0:0:0:
216,13,324067,1,0,0:0:0:0:
207,228,324246,2,0,L|214:310,1,75.000002861023,2|8,0:0|0:0,0:0:0:0:
67,202,324603,1,0,3:0:0:0:
39,30,324781,1,10,0:0:0:0:
50,216,324960,2,0,B|62:272|36:313|99:345,1,112.500004291534,0|0,3:0|0:0,0:0:0:0:
101,147,325317,2,0,L|95:58,1,75.000002861023,8|0,0:0|0:0,0:0:0:0:
202,231,325674,2,0,L|206:294,1,37.5000014305115,2|0,0:0|0:0,0:0:0:0:
257,194,325853,2,0,L|282:244,1,37.5000014305115,2|0,0:0|0:0,0:0:0:0:
471,363,326031,6,0,B|411:286|512:264|442:138,1,225.000008583069,4|0,3:2|0:0,0:0:0:0:
364,326,326746,2,0,L|281:372,1,75.000002861023,8|0,0:0|0:0,0:0:0:0:
92,333,327104,2,0,L|177:295,1,75.000002861023,2|0,0:0|0:0,0:0:0:0:
51,375,327461,1,0,3:0:0:0:
56,152,327639,1,8,0:0:0:0:
210,232,327818,2,0,L|163:300,1,75.000002861023,2|0,0:0|0:0,0:0:0:0:
390,328,328175,1,8,0:0:0:0:
379,285,328354,1,2,0:0:0:0:
261,76,328532,2,0,B|297:124|242:151|274:236,1,150.000005722046,2|0,3:2|0:0,0:0:0:0:
95,347,329246,2,0,L|171:361,1,75.000002861023,2|0,3:2|0:0,0:0:0:0:
380,223,329604,2,0,L|305:231,1,75.000002861023,10|0,0:0|0:0,0:0:0:0:
410,327,329961,1,2,0:0:0:0:
450,130,330139,1,8,0:0:0:0:
466,160,330318,1,0,3:0:0:0:
294,308,330496,1,10,0:0:0:0:
229,146,330675,2,0,B|230:72,1,74.9999999999999,2|0,3:2|0:0,0:0:0:0:
180,201,331031,2,0,L|195:254,1,37.5000014305115,8|0,0:0|0:0,0:0:0:0:
256,355,331210,1,8,3:0:0:0:
136,239,331389,1,8,3:0:0:0:
230,71,331567,1,4,3:0:0:0:
19,225,331746,6,0,L|150:28,1,225.000008583069,4|0,3:2|0:0,0:0:0:0:
19,126,332460,2,0,L|16:210,1,75.000002861023,8|0,0:0|0:0,0:0:0:0:
190,99,332818,2,0,L|173:1,1,75.000002861023,2|0,0:0|0:0,0:0:0:0:
265,138,333175,1,0,3:0:0:0:
52,43,333353,1,8,0:0:0:0:
165,187,333532,2,0,L|135:259,1,75.000002861023,2|0,0:0|0:0,0:0:0:0:
306,44,333889,1,8,0:0:0:0:
320,77,334068,1,2,0:0:0:0:
477,203,334246,2,0,B|444:243|383:248,1,75.000002861023,2|0,3:2|0:0,0:0:0:0:
238,234,334603,5,2,0:0:0:0:
181,153,334781,1,10,0:0:0:0:
49,341,334960,2,0,L|28:250,1,75.000002861023,2|0,3:2|0:0,0:0:0:0:
272,274,335317,2,0,L|299:352,1,75.000002861023,10|0,0:0|0:0,0:0:0:0:
325,207,335675,1,2,0:0:0:0:
483,56,335853,1,8,0:0:0:0:
460,23,336032,1,0,3:0:0:0:
469,220,336210,1,10,0:0:0:0:
239,121,336389,2,0,B|356:82,1,112.500004291534,2|0,3:2|0:0,0:0:0:0:
140,37,336746,2,0,P|85:71|94:142,1,112.500004291534,10|0,0:0|0:0,0:0:0:0:
247,278,337103,2,0,L|176:287,1,56.2500021457672,2|0,3:2|0:0,0:0:0:0:
1,82,337460,6,0,B|90:62|124:126|236:63,1,225.000008583069,4|0,3:2|0:0,0:0:0:0:
91,252,338175,2,0,L|8:206,1,75.000002861023,8|0,0:0|0:0,0:0:0:0:
302,208,338531,2,0,L|387:246,1,75.000002861023,2|0,0:0|0:0,0:0:0:0:
218,236,338890,1,0,3:0:0:0:
181,50,339068,1,8,0:0:0:0:
362,178,339247,2,0,L|279:181,1,75.000002861023,2|0,0:0|0:0,0:0:0:0:
490,30,339604,1,8,0:0:0:0:
465,24,339781,1,2,0:0:0:0:
458,327,339960,2,0,B|494:279|439:252|471:167,1,150.000005722046,4|0,3:2|0:0,0:0:0:0:
233,292,340674,2,0,L|229:375,1,75.000002861023,2|0,3:2|0:0,0:0:0:0:
110,142,341031,2,0,L|137:70,1,75.000002861023,10|0,0:0|0:0,0:0:0:0:
208,194,341390,1,2,0:0:0:0:
362,20,341568,1,8,0:0:0:0:
302,21,341747,1,0,3:0:0:0:
442,170,341925,1,10,0:0:0:0:
382,214,342103,1,0,3:2:0:0:
134,355,342281,1,8,0:0:0:0:
162,324,342371,1,8,0:0:0:0:
174,284,342460,2,0,L|181:230,1,37.5000014305115,8|0,0:0|0:0,0:0:0:0:
95,110,342639,2,0,L|102:147,1,37.5000014305115,8|0,3:0|0:0,0:0:0:0:
238,64,342817,2,0,L|231:6,1,37.5000014305115,4|0,3:0|0:0,0:0:0:0:
361,129,342996,2,0,L|359:167,1,37.5000014305115,12|0,3:0|0:0,0:0:0:0:
314,356,343174,6,0,B|300:291|339:238|257:139,1,200,4|2,3:2|0:0,0:0:0:0:
248,276,343710,1,0,3:2:0:0:
314,72,343889,1,8,0:0:0:0:
285,39,344067,1,2,0:0:0:0:
64,80,344246,2,0,L|263:10,1,200,2|2,3:2|0:0,0:0:0:0:
122,15,344781,1,8,0:0:0:0:
80,200,344960,2,0,L|96:329,1,99.9999999999999,2|0,0:0|0:0,0:0:0:0:
319,353,345317,2,0,L|404:342,1,50,8|0,0:0|0:0,0:0:0:0:
217,222,345496,2,0,L|151:236,1,50,2|0,0:0|0:0,0:0:0:0:
341,60,345674,2,0,B|411:55|441:85|411:138|445:215|265:59|100:145,1,400,4|0,0:0|0:0,0:0:0:0:
352,308,346746,2,0,L|474:318,1,99.9999999999999,8|0,0:0|0:0,0:0:0:0:
373,258,347103,1,2,0:0:0:0:
150,351,347281,1,8,0:0:0:0:
103,304,347371,1,8,0:0:0:0:
94,222,347460,1,8,0:0:0:0:
271,348,347639,1,8,3:0:0:0:
468,168,347817,2,0,B|414:160|354:195|279:168,1,150,4|0,3:2|0:0,0:0:0:0:
96,321,348174,2,0,P|40:284|77:195,1,150,10|0,0:0|0:0,0:0:0:0:
297,73,348531,2,0,P|213:94|142:51,1,150,2|0,3:2|0:0,0:0:0:0:
416,32,348889,6,0,B|465:78|468:114|432:243,1,200,4|0,3:2|0:0,0:0:0:0:
412,107,349424,1,0,3:2:0:0:
486,348,349603,1,8,0:0:0:0:
495,297,349781,1,2,0:0:0:0:
179,339,349960,2,0,P|276:351|397:296,1,200,2|2,3:2|0:0,0:0:0:0:
247,161,350495,1,8,0:0:0:0:
487,59,350674,2,0,P|488:121|434:166,1,99.9999999999999,2|0,0:0|0:0,0:0:0:0:
324,280,351031,2,0,L|275:286,1,50,8|0,0:0|0:0,0:0:0:0:
77,119,351210,2,0,L|125:108,1,50,2|0,0:0|0:0,0:0:0:0:
281,232,351389,2,0,B|395:268|306:348|389:367|446:368|504:343|491:227|470:182|265:325|212:329,1,499.999999999999,4|0,0:0|0:0,0:0:0:0:
41,124,352460,2,0,L|163:134,1,99.9999999999999,10|0,0:0|0:0,0:0:0:0:
78,66,352817,1,2,0:0:0:0:
333,62,352995,1,8,0:0:0:0:
81,18,353174,1,0,3:0:0:0:
256,252,353353,1,8,0:0:0:0:
393,33,353531,2,0,B|385:87|414:163,1,99.9999999999999,2|0,3:2|0:0,0:0:0:0:
454,36,353799,1,8,0:0:0:0:
454,36,353889,1,8,0:0:0:0:
210,22,354067,2,0,L|159:51,1,50,8|0,3:0|0:0,0:0:0:0:
195,275,354246,2,0,L|222:233,1,50,4|0,3:0|0:0,0:0:0:0:
476,187,354424,2,0,L|439:233,1,50,8|0,3:0|0:0,0:0:0:0:
247,348,354603,6,0,B|144:303|34:348,1,200,4|0,3:2|0:0,0:0:0:0:
181,369,355138,1,0,3:2:0:0:
25,179,355317,1,8,0:0:0:0:
35,121,355495,1,2,0:0:0:0:
149,331,355674,2,0,P|131:235|170:127,1,200,2|2,3:2|0:0,0:0:0:0:
59,334,356209,1,8,0:0:0:0:
229,147,356388,2,0,L|105:171,1,99.9999999999999,2|0,0:0|0:0,0:0:0:0:
324,292,356746,2,0,L|373:286,1,50,10|0,0:0|0:0,0:0:0:0:
470,95,356924,2,0,L|421:105,1,50,2|0,0:0|0:0,0:0:0:0:
181,263,357103,2,0,B|120:275|110:213|110:108|110:108|34:117|20:187|20:187|63:238|209:153,1,499.999999999999,4|0,0:0|0:0,0:0:0:0:
363,57,358174,2,0,L|240:30,1,99.9999999999999,10|0,0:0|0:0,0:0:0:0:
434,23,358531,1,2,3:2:0:0:
151,81,358710,1,8,0:0:0:0:
273,284,358889,2,0,L|224:219,1,50,2|0,3:2|0:0,0:0:0:0:
424,318,359067,2,0,L|484:368,1,50,10|0,0:0|0:0,0:0:0:0:
416,109,359246,2,0,B|415:70|377:33|333:131|184:45,1,209.999993591309,2|0,0:0|0:0,0:0:0:0:
68,291,359603,2,0,B|33:317|84:369|144:375|186:271|106:200,1,209.999993591309,10|0,0:0|0:0,0:0:0:0:
24,66,359960,2,0,B|93:28|131:48|186:83|257:52,1,209.999993591309,2|0,3:2|0:0,0:0:0:0:
479,237,360317,6,0,B|515:282|472:339|348:294|425:159,1,250,4|0,3:2|0:0,0:0:0:0:
395,311,360852,1,0,3:2:0:0:
261,133,361031,1,8,0:0:0:0:
239,168,361209,1,2,0:0:0:0:
461,117,361388,2,0,B|518:78|449:6|340:31|387:212,1,250,2|2,3:2|0:0,0:0:0:0:
449,344,361923,1,8,0:0:0:0:
334,200,362102,2,0,L|284:61,1,125,2|0,0:0|0:0,0:0:0:0:
75,27,362460,2,0,L|177:13,1,62.4999999999999,10|0,0:0|0:0,0:0:0:0:
443,108,362639,1,2,0:0:0:0:
443,108,362817,6,0,B|386:195|322:162|322:162|234:119|263:18|308:12|385:32|428:82|290:184|279:240|288:292|358:315,1,612.499981307983,4|0,0:0|0:0,0:0:0:0:
256,192,366031,12,0,373174,0:0:0:0:
