osu file format v14

[General]
AudioFilename: audio.mp3
AudioLeadIn: 0
PreviewTime: -1
Countdown: 1
SampleSet: None
StackLeniency: 0.7
Mode: 0
LetterboxInBreaks: 0
WidescreenStoryboard: 1

[Editor]
DistanceSpacing: 1
BeatDivisor: 4
GridSize: 4
TimelineZoom: 1

[Metadata]
Title:Tanhou ~Blooming~
TitleUnicode:綻放 ~Blooming~
Artist:Zhan Xun Wei
ArtistUnicode:詹勳偉
Creator:-N a n a k o-
Version:Troll
Source:太鼓の達人
Tags:classical taiko no tatsujin chai found music workshop cfmw arcade 15
BeatmapID:1960666
BeatmapSetID:938597

[Difficulty]
HPDrainRate:6
CircleSize:6
OverallDifficulty:6
ApproachRate:6
SliderMultiplier:1.9
SliderTickRate:1

[Events]
//Background and Video events
//Break Periods
//Storyboard Layer 0 (Background)
//Storyboard Layer 1 (Fail)
//Storyboard Layer 2 (Pass)
//Storyboard Layer 3 (Foreground)
//Storyboard Sound Samples

[TimingPoints]
2400,348.837209302326,4,2,0,50,1,0
2400,-200,4,2,0,50,0,0
13562,-100,4,2,0,50,0,0
34841,-133.333333333333,4,2,0,50,0,0
35888,-200,4,2,0,50,0,0
41905,-200,4,2,0,5,0,0
41993,-200,4,2,0,50,0,0
42429,-200,4,2,0,5,0,0
42516,-200,4,2,0,50,0,0
43301,-200,4,2,0,5,0,0
43388,-200,4,2,0,50,0,0
43824,-200,4,2,0,5,0,0
43911,-200,4,2,0,50,0,0
44260,-133.333333333333,4,2,0,50,0,0
47051,-100,4,2,0,50,0,0
74958,-133.333333333333,4,2,0,50,0,0
83330,-200,4,2,0,50,0,0
102865,-200,4,3,0,50,0,0
103213,-181.818181818182,4,3,0,50,0,0
103562,-166.666666666667,4,3,0,50,0,0
103911,-153.846153846154,4,3,0,50,0,0
104260,-142.857142857143,4,3,0,50,0,0
104609,-133.333333333333,4,3,0,50,0,0
104958,-125,4,3,0,50,0,0
105132,-117.647058823529,4,3,0,50,0,0
105306,-111.111111111111,4,3,0,50,0,0
105481,-105.263157894737,4,3,0,50,0,0
105655,-100,4,2,0,50,0,0
116818,-133.333333333333,4,2,0,50,0,0

[HitObjects]
432,344,2400,6,0,P|448:296|424:252,2,95
284,380,3446,1,0,0:0:0:0:
208,372,3620,1,0,0:0:0:0:
132,364,3795,2,0,L|28:352,1,95
148,248,4493,2,0,L|252:260,1,95
372,180,5190,5,0,0:0:0:0:
276,60,5539,1,0,0:0:0:0:
146,138,5888,1,0,0:0:0:0:
242,258,6237,1,0,0:0:0:0:
372,180,6586,2,0,P|384:136|368:88,1,95
239,168,7283,2,0,P|227:212|243:260,1,95
380,328,7981,6,0,B|424:340|424:340|480:312,2,95
228,304,9027,1,0,0:0:0:0:
152,300,9202,1,0,0:0:0:0:
84,328,9376,2,0,P|96:276|80:236,1,95
28,88,10074,2,0,P|16:140|32:180,1,95
184,180,10772,6,0,L|280:164,2,95
92,60,11818,1,0,0:0:0:0:
36,200,12167,6,0,L|28:256,1,47.5
100,280,12516,2,0,L|116:328,1,47.5
184,356,12865,1,0,0:0:0:0:
268,368,13039,1,0,0:0:0:0:
360,344,13213,1,0,0:0:0:0:
440,276,13388,1,0,0:0:0:0:
466,165,13563,5,0,0:0:0:0:
400,80,13737,1,0,0:0:0:0:
404,188,13911,1,0,0:0:0:0:
464,98,14086,1,0,0:0:0:0:
363,135,14260,1,0,0:0:0:0:
300,112,14434,1,0,0:0:0:0:
237,88,14609,1,0,0:0:0:0:
82,181,14958,5,0,0:0:0:0:
24,272,15132,1,0,0:0:0:0:
124,233,15306,1,0,0:0:0:0:
20,205,15481,1,0,0:0:0:0:
88,289,15655,1,0,0:0:0:0:
140,332,15830,1,0,0:0:0:0:
192,372,16004,1,0,0:0:0:0:
366,217,16353,6,0,P|382:161|342:125,1,95
286,221,16702,2,0,P|270:277|310:313,1,95
348,336,17051,1,0,0:0:0:0:
424,320,17225,1,0,0:0:0:0:
484,256,17400,1,0,0:0:0:0:
500,164,17574,1,0,0:0:0:0:
492,60,17748,6,0,L|380:40,1,95
292,144,18097,2,0,L|404:164,1,95
248,32,18446,2,0,L|136:12,1,95
48,116,18795,2,0,L|160:136,1,95
196,312,19144,6,0,P|208:260|180:208,1,95
72,316,19493,1,0,0:0:0:0:
72,316,19667,1,0,0:0:0:0:
184,376,19841,2,0,L|300:360,2,95
28,204,20539,6,0,P|20:156|48:112,1,95
144,40,20888,1,0,0:0:0:0:
144,40,21062,1,0,0:0:0:0:
236,136,21237,2,0,L|356:160,2,95
176,264,21934,6,0,P|180:332|228:356,1,95
296,376,22283,1,0,0:0:0:0:
296,376,22458,1,0,0:0:0:0:
360,304,22632,2,0,P|356:236|308:212,1,95
236,136,22981,2,0,P|240:204|288:228,1,95
339,220,23330,1,0,0:0:0:0:
412,192,23504,1,0,0:0:0:0:
456,116,23679,1,0,0:0:0:0:
452,24,23853,1,0,0:0:0:0:
380,112,24027,5,0,0:0:0:0:
272,148,24202,1,0,0:0:0:0:
160,124,24376,1,0,0:0:0:0:
84,40,24551,1,0,0:0:0:0:
160,124,24725,6,0,P|176:176|164:216,1,95
48,328,25074,2,0,P|32:276|44:236,1,95
165,213,25423,1,0,0:0:0:0:
169,217,25772,1,0,0:0:0:0:
173,221,26120,6,0,L|285:241,1,95
389,145,26469,2,0,L|277:125,1,95
205,297,26818,1,0,0:0:0:0:
209,305,27167,1,0,0:0:0:0:
213,313,27516,6,0,P|249:361|321:361,1,95
413,341,27865,2,0,P|377:293|305:293,1,95
213,313,28213,1,0,0:0:0:0:
260,240,28388,1,0,0:0:0:0:
272,156,28562,1,0,0:0:0:0:
244,76,28737,1,0,0:0:0:0:
164,44,28911,2,0,L|108:36,7,47.5
184,68,29609,5,0,0:0:0:0:
331,43,29783,1,0,0:0:0:0:
164,44,29958,1,0,0:0:0:0:
351,67,30132,1,0,0:0:0:0:
252,180,30306,6,0,P|228:136|256:100,1,95
252,252,30655,2,0,P|276:296|248:332,1,95
156,224,31004,1,0,0:0:0:0:
348,208,31353,1,0,0:0:0:0:
144,220,31702,6,0,L|40:196,1,95
144,308,32051,2,0,L|248:284,1,95
355,207,32400,1,0,0:0:0:0:
267,363,32748,1,0,0:0:0:0:
364,204,33097,6,0,P|380:156|364:108,1,95
264,64,33446,2,0,P|248:116|264:160,1,95
368,114,33795,1,0,0:0:0:0:
380,104,33969,1,0,0:0:0:0:
440,20,34144,1,0,0:0:0:0:
452,32,34318,1,0,0:0:0:0:
492,128,34493,1,0,0:0:0:0:
492,128,34841,2,0,P|508:192|464:252,2,142.500005435944
412,68,35888,6,0,P|360:52|308:84,2,95
416,152,36934,2,0,L|392:356,1,190
312,372,37981,1,0,0:0:0:0:
228,368,38330,1,0,0:0:0:0:
148,340,38679,6,0,P|92:344|64:372,2,95
228,368,39725,2,0,P|272:296|228:184,1,190
160,180,40772,1,0,0:0:0:0:
76,200,41120,1,0,0:0:0:0:
20,264,41469,6,0,P|36:180|16:144,1,118.75
104,32,41993,2,0,P|88:116|108:152,1,118.75
160,180,42516,1,0,0:0:0:0:
296,136,42865,6,0,L|420:160,1,118.75
504,100,43388,2,0,L|380:76,1,118.75
320,64,43911,1,0,0:0:0:0:
256,216,44260,6,0,P|248:260|268:296,1,71.2500027179719
320,320,44609,1,0,0:0:0:0:
320,320,44783,1,0,0:0:0:0:
356,260,44958,2,0,P|364:216|344:180,1,71.2500027179719
300,148,45307,1,0,0:0:0:0:
300,148,45481,1,0,0:0:0:0:
228,148,45655,6,0,L|144:132,1,71.2500027179719
104,44,46004,2,0,L|188:60,1,71.2500027179719
228,148,46353,1,0,0:0:0:0:
104,44,46702,1,0,0:0:0:0:
180,240,47051,6,0,P|188:280|148:328,1,95
56,344,47400,1,0,0:0:0:0:
8,204,47574,1,0,0:0:0:0:
8,204,47661,1,0,0:0:0:0:
8,204,47748,1,0,0:0:0:0:
180,240,47923,1,0,0:0:0:0:
336,184,48097,1,0,0:0:0:0:
508,220,48272,1,0,0:0:0:0:
508,92,48446,6,0,P|508:44|464:8,1,95
392,120,48795,1,0,0:0:0:0:
508,220,48969,1,0,0:0:0:0:
508,220,49056,1,0,0:0:0:0:
508,220,49143,1,0,0:0:0:0:
336,256,49318,1,0,0:0:0:0:
180,200,49492,1,0,0:0:0:0:
8,236,49667,1,0,0:0:0:0:
