osu file format v14

[General]
AudioFilename: 01+-+Zetsubou+Restaurant.mp3
AudioLeadIn: 0
PreviewTime: 833
Countdown: 0
SampleSet: Soft
StackLeniency: 1
Mode: 0
LetterboxInBreaks: 0
WidescreenStoryboard: 1

[Editor]
Bookmarks: 68226,89026,95426,101826,108226,114626,151426,164226,177026,182833,184633,189826,205826
DistanceSpacing: 1
BeatDivisor: 4
GridSize: 4
TimelineZoom: 2

[Metadata]
Title:Zetsubou Restaurant
TitleUnicode:絶望レストラン
Artist:Zetsubou Shoujotachi
ArtistUnicode:絶望少女達
Creator:Okoratu
Version:Intermediate
Source:懺・さよなら絶望先生
Tags:Anime Japanese Zetubou Ending Zan Sayonara Zetsubou Sensei Tanii Asuka Sanada Asami Gotou Yuuko Matsuki Miyu Okorin 谷井あすか 小森霧 真田アサミ 常月まとい 後藤邑子 小節あびる 松来未祐 藤吉晴美 komori kiri tsunetsuki matoi kobushi abiru fujiyoshi harumi
BeatmapID:1629268
BeatmapSetID:450762

[Difficulty]
HPDrainRate:5
CircleSize:3.5
OverallDifficulty:5
ApproachRate:6.8
SliderMultiplier:1.4
SliderTickRate:2

[Events]
//Background and Video events
0,0,"wh5.png",0,0
//Break Periods
2,89232,94458
2,151633,163304
2,205633,216104
//Storyboard Layer 0 (Background)
//Storyboard Layer 1 (Fail)
//Storyboard Layer 2 (Pass)
//Storyboard Layer 3 (Foreground)
//Storyboard Layer 4 (Overlay)
//Storyboard Sound Samples

[TimingPoints]
1033,400,4,2,3,60,1,0
1033,-125,4,2,3,60,0,0
4233,-100,4,2,3,60,0,0
4633,-100,4,2,3,60,0,0
4833,-100,4,2,3,60,0,0
6233,-100,4,2,3,60,0,0
6433,-100,4,2,3,60,0,0
7833,-100,4,2,3,60,0,0
8033,-100,4,2,3,60,0,0
9433,-100,4,2,3,60,0,0
9633,-100,4,2,3,60,0,0
11033,-100,4,2,3,60,0,0
11233,-100,4,2,3,60,0,0
13233,-100,4,2,3,80,0,0
13833,-100,4,2,3,60,0,0
17033,-100,4,2,3,80,0,0
18533,-100,4,2,3,80,0,0
18633,-100,4,2,3,80,0,0
22233,-100,4,2,3,80,0,0
28033,-100,4,2,3,80,0,0
28233,-100,4,2,3,80,0,0
33033,-100,4,2,3,80,0,0
35833,-100,4,2,3,80,0,0
35933,-100,4,2,3,50,0,0
36233,-100,4,2,3,80,0,0
38833,-100,4,2,3,80,0,0
39233,-100,4,2,3,80,0,0
42033,-100,4,2,3,80,0,0
42633,-100,4,2,3,80,0,0
45233,-100,4,2,3,80,0,0
45633,-100,4,2,3,80,0,0
52633,-200,4,2,3,30,0,0
52833,-200,4,2,5,15,0,0
53033,-200,4,2,3,5,0,0
53183,-200,4,2,3,80,0,0
53233,-142.857142857143,4,2,3,80,0,0
53433,-117.647058823529,4,2,3,80,0,0
53633,-100,4,2,3,80,0,0
53833,-83.3333333333333,4,2,3,80,0,1
54033,-83.3333333333333,4,2,3,80,0,1
55633,-83.3333333333333,4,2,4,80,0,1
55833,-83.3333333333333,4,2,3,80,0,1
57133,-83.3333333333333,4,2,4,80,0,1
57333,-83.3333333333333,4,2,3,80,0,1
58733,-83.3333333333333,4,2,4,80,0,1
58933,-83.3333333333333,4,2,3,80,0,1
59533,-83.3333333333333,4,2,4,80,0,1
59733,-83.3333333333333,4,2,3,80,0,1
66633,-83.3333333333333,4,2,3,80,0,1
66833,-83.3333333333333,4,2,3,80,0,1
68433,-83.3333333333333,4,2,4,80,0,1
68633,-83.3333333333333,4,2,3,80,0,1
69133,-83.3333333333333,4,2,4,80,0,1
69333,-83.3333333333333,4,2,3,80,0,1
71533,-83.3333333333333,4,2,4,80,0,1
71733,-83.3333333333333,4,2,3,80,0,1
76333,-83.3333333333333,4,2,4,80,0,1
76533,-83.3333333333333,4,2,3,80,0,1
76733,-83.3333333333333,4,2,4,80,0,1
76933,-83.3333333333333,4,2,3,80,0,1
77833,-100,4,2,3,80,0,0
79033,-100,4,2,3,80,0,0
82633,-133.333333333333,4,2,3,80,0,0
83033,-133.333333333333,4,2,3,50,0,0
83733,-133.333333333333,4,2,3,80,0,0
86733,-133.333333333333,4,2,3,30,0,0
87133,-133.333333333333,4,2,3,80,0,0
88433,-133.333333333333,4,2,3,80,0,0
89033,-133.333333333333,4,2,3,80,0,0
95433,-100,4,2,3,80,0,0
107933,-100,4,2,3,50,0,0
108233,-100,4,2,3,80,0,0
113133,-100,4,2,3,50,0,0
113333,-100,4,2,3,80,0,0
124633,-200,4,2,3,30,0,0
124833,-200,4,2,5,15,0,0
125033,-200,4,2,3,5,0,0
125233,-142.857142857143,4,2,3,80,0,0
125433,-117.647058823529,4,2,3,80,0,0
125633,-100,4,2,3,80,0,0
125833,-83.3333333333333,4,2,3,80,0,1
128333,-83.3333333333333,4,2,4,80,0,1
128533,-83.3333333333333,4,2,3,80,0,1
129133,-83.3333333333333,4,2,4,80,0,1
129333,-83.3333333333333,4,2,3,80,0,1
130733,-83.3333333333333,4,2,4,80,0,1
130933,-83.3333333333333,4,2,3,80,0,1
141133,-83.3333333333333,4,2,4,80,0,1
141333,-83.3333333333333,4,2,3,80,0,1
148333,-83.3333333333333,4,2,4,80,0,1
148533,-83.3333333333333,4,2,3,80,0,1
148733,-83.3333333333333,4,2,4,80,0,1
148933,-83.3333333333333,4,2,3,80,0,1
149133,-83.3333333333333,4,2,4,80,0,1
149333,-83.3333333333333,4,2,3,80,0,1
149833,-100,4,2,3,80,0,0
177033,-90.9090909090909,4,2,3,80,0,0
179233,-111.111111111111,4,2,3,80,0,0
180233,-90.9090909090908,4,2,3,80,0,0
182433,-111.111111111111,4,2,3,80,0,0
183433,-90.9090909090909,4,2,3,80,0,0
185633,-111.111111111111,4,2,3,80,0,0
186633,-90.9090909090909,4,2,3,80,0,0
188833,-111.111111111111,4,2,3,80,0,0
189833,-83.3333333333333,4,2,3,80,0,0
203033,-83.3333333333333,4,2,3,30,0,0
204133,-83.3333333333333,4,2,3,50,0,0
204633,-100,4,2,3,50,0,0
205883,400,4,2,3,50,1,0
205883,-142.857142857143,4,2,3,50,0,0
214833,400,4,2,3,80,1,0
214833,-142.857142857143,4,2,3,80,0,0
215433,400,4,2,3,80,1,0
215433,-142.857142857143,4,2,3,80,0,0
217033,-100,4,2,3,80,0,0
218633,-83.3333333333333,4,2,3,80,0,1
218733,-83.3333333333333,4,2,4,80,0,1
218933,-83.3333333333333,4,2,3,80,0,1
220333,-83.3333333333333,4,2,4,80,0,1
220533,-83.3333333333333,4,2,3,80,0,1
221133,-83.3333333333333,4,2,4,80,0,1
221333,-83.3333333333333,4,2,3,80,0,1
223533,-83.3333333333333,4,2,4,80,0,1
223733,-83.3333333333333,4,2,3,80,0,1
228333,-83.3333333333333,4,2,4,80,0,1
228533,-83.3333333333333,4,2,3,80,0,1
228733,-83.3333333333333,4,2,4,80,0,1
228933,-83.3333333333333,4,2,3,80,0,1
229133,-83.3333333333333,4,2,4,80,0,1
229333,-83.3333333333333,4,2,3,80,0,1
229533,-83.3333333333333,4,2,4,80,0,1
229733,-83.3333333333333,4,2,3,80,0,1
229833,-100,4,2,3,80,0,0
234433,-133.333333333333,4,2,3,80,0,0
234633,-133.333333333333,4,2,3,20,0,0
235733,-133.333333333333,4,2,3,80,0,0
235833,-200,4,2,3,80,0,0
236733,-200,4,2,3,40,0,0
237233,-133.333333333333,4,2,3,30,0,0
237533,-133.333333333333,4,2,3,80,0,0
240333,-133.333333333333,4,2,3,30,0,0
240733,-133.333333333333,4,2,3,80,0,0
243533,-133.333333333333,4,2,3,30,0,0
243933,-133.333333333333,4,2,3,80,0,0
246533,-133.333333333333,4,2,3,40,0,0
247383,-133.333333333333,4,2,3,80,0,0
249033,-100,4,2,3,80,0,0
250133,-100,4,2,3,25,0,0
252233,-100,4,2,3,20,0,0
252933,-100,4,2,3,12,0,0
253483,-100,4,2,3,5,0,0

[Colours]
Combo1 : 225,230,60
Combo2 : 251,186,155
Combo3 : 73,207,190
Combo4 : 231,86,112

[HitObjects]
156,72,1033,5,0,0:0:0:0:
156,72,1233,2,0,P|180:116|172:188,1,112,2|0,0:0|0:0,0:0:0:0:
132,256,1833,2,0,L|204:252,1,56
268,216,2233,2,0,L|272:288,1,56
348,312,2633,6,0,L|360:184,3,112,2|0|2|0,0:0|0:0|0:0|0:0,0:0:0:0:
192,108,4233,6,0,P|236:108|264:24,1,140,2|0,0:0|0:0,0:0:0:0:
152,40,4833,2,0,L|164:196,1,140
176,264,5433,1,0,0:0:0:0:
308,176,5833,6,0,P|356:160|404:292,2,210,2|0|0,0:0|0:0|0:0,0:0:0:0:
116,328,7433,6,0,P|68:344|36:340,1,70,2|0,0:0|0:0,0:0:0:0:
68,256,7833,1,0,0:0:0:0:
68,256,8033,2,0,L|76:92,1,140,2|0,0:0|0:0,0:0:0:0:
84,24,8633,1,0,0:0:0:0:
212,132,9033,6,0,B|260:160|260:160|428:144,2,210,2|0|2,0:0|0:0|0:0,0:0:0:0:
336,52,10633,5,2,0:0:0:0:
424,24,10833,1,0,0:0:0:0:
492,100,11033,1,2,0:0:0:0:
464,196,11233,2,0,L|300:172,1,140,0|2,0:0|0:0,0:0:0:0:
80,312,12233,5,8,0:3:0:0:
80,312,13233,2,0,L|88:228,1,70,2|2,0:0|0:0,0:0:0:0:
100,152,13633,1,0,0:0:0:0:
188,188,13833,5,0,3:3:0:0:
324,60,14233,1,8,0:3:0:0:
260,280,14633,1,0,3:3:0:0:
472,156,15033,2,0,L|392:168,1,70,8|0,3:0|3:0,0:0:0:0:
308,140,15433,2,0,L|320:232,1,70,0|0,3:0|3:0,0:0:0:0:
408,288,15833,2,0,P|352:228|176:308,1,280,0|2,3:0|0:0,0:0:0:0:
48,360,17033,6,0,L|60:216,1,140,6|0,0:0|0:0,0:0:0:0:
152,48,17833,1,0,0:0:0:0:
200,136,18033,2,0,P|232:156|344:108,1,140,2|0,0:3|0:0,0:0:0:0:
340,36,18633,5,2,0:0:0:0:
340,36,18833,1,2,0:0:0:0:
364,256,19233,1,2,0:3:0:0:
152,292,19633,2,0,P|184:260|192:212,1,70,2|2,0:3|0:0,0:0:0:0:
96,128,20033,1,10,0:2:0:0:
48,216,20233,6,0,L|68:388,1,140,2|2,0:0|0:0,0:0:0:0:
188,164,21033,2,0,L|168:4,1,140
256,292,21833,5,8,0:3:0:0:
332,232,22033,1,2,0:3:0:0:
376,316,22233,1,8,0:0:0:0:
408,180,22433,2,0,L|240:184,1,140,4|2,0:0|0:3,0:0:0:0:
148,136,23033,2,0,P|188:176|172:248,1,105,10|0,0:2|0:0,0:0:0:0:
184,252,23433,6,0,L|32:232,1,140
152,56,24233,2,0,L|304:76,1,140,0|2,0:0|0:0,0:0:0:0:
440,232,25033,5,2,0:0:0:0:
440,232,25233,1,2,0:3:0:0:
192,184,25633,1,2,0:3:0:0:
408,44,26033,2,0,P|424:84|412:132,1,70,2|2,0:3|0:0,0:0:0:0:
336,200,26433,1,8,0:0:0:0:
332,96,26633,6,0,L|176:88,1,140,2|0,0:0|0:0,0:0:0:0:
16,200,27433,1,2,0:0:0:0:
160,352,27833,1,2,0:3:0:0:
80,80,28233,5,8,0:3:0:0:
184,64,28433,2,0,L|280:56,1,70,2|8,0:0|1:2,0:0:0:0:
240,176,28833,2,0,P|276:200|380:176,1,140,4|2,0:0|0:3,0:0:0:0:
420,100,29433,2,0,L|296:108,1,105,2|0,0:3|0:0,0:0:0:0:
296,108,29833,6,0,P|292:56|200:44,1,140,4|0,0:0|1:0,0:0:0:0:
140,88,30433,1,4,1:2:0:0:
236,328,30833,5,0,1:0:0:0:
272,240,31033,1,2,1:2:0:0:
336,320,31233,2,0,P|368:336|464:308,1,140,14|2,1:2|1:2,0:0:0:0:
472,192,31833,1,0,1:0:0:0:
376,116,32033,6,0,L|392:260,1,140,4|2,1:2|0:0,0:0:0:0:
288,184,32633,1,8,0:0:0:0:
72,340,33033,5,0,3:0:0:0:
20,120,33433,1,0,3:0:0:0:
208,28,33833,6,0,L|218:181,1,140,0|0,3:0|0:3,0:0:0:0:
226,262,34433,1,8,3:0:0:0:
416,104,34833,5,0,3:2:0:0:
412,212,35033,1,0,3:2:0:0:
408,316,35233,1,6,3:2:0:0:
272,88,35633,5,0,3:0:0:0:
272,88,35833,1,0,0:0:0:0:
152,236,36233,6,0,P|108:280|20:280,1,140,2|2,0:0|3:0,0:0:0:0:
24,116,37033,2,0,L|176:128,1,140,2|8,0:0|3:0,0:0:0:0:
352,104,37833,2,0,P|328:132|320:184,1,70,2|0,0:0|0:0,0:0:0:0:
420,172,38233,1,8,0:3:0:0:
420,172,38433,2,2,L|400:12,1,140,8|2,0:3|3:0,0:3:0:0:
492,16,39033,1,2,3:2:0:0:
480,240,39433,6,0,P|420:216|340:256,1,140,2|2,0:0|0:3,0:0:0:0:
204,228,40233,2,0,L|220:376,1,140,2|8,0:0|0:3,0:0:0:0:
280,180,41033,2,0,L|288:96,1,70,2|2,0:0|0:0,0:0:0:0:
236,28,41433,1,8,0:3:0:0:
236,28,41633,2,2,P|196:64|84:64,1,140,2|2,0:0|3:2,0:3:0:0:
12,32,42233,1,8,3:0:0:0:
24,124,42433,1,2,0:0:0:0:
36,220,42633,6,0,L|48:388,1,140,4|2,0:0|0:3,0:0:0:0:
244,340,43433,1,2,0:0:0:0:
172,156,43833,2,0,L|248:164,1,70,2|0,0:3|0:0,0:0:0:0:
340,176,44233,5,2,3:2:0:0:
312,264,44433,1,2,0:0:0:0:
484,128,44833,1,2,0:0:0:0:
272,44,45233,1,2,3:2:0:0:
184,80,45433,1,8,3:0:0:0:
96,24,45633,1,2,0:0:0:0:
36,112,45833,1,4,1:2:0:0:
280,368,46433,5,0,1:2:0:0:
280,368,46633,1,4,1:2:0:0:
476,93,47233,5,0,1:2:0:0:
476,93,47433,1,4,1:2:0:0:
120,140,48033,5,0,1:2:0:0:
120,140,48233,2,0,P|168:116|248:168,1,140,4|0,1:2|1:2,0:0:0:0:
324,232,48833,2,0,L|308:68,1,140,0|2,1:2|3:0,0:0:0:0:
252,24,49433,6,0,P|320:56|392:32,1,140,0|2,3:0|3:0,0:0:0:0:
316,268,50233,1,10,3:0:0:0:
256,192,50433,1,2,0:0:0:0:
200,268,50633,1,0,0:0:0:0:
256,192,50733,12,8,52233,3:0:0:0:
40,164,53833,5,4,1:2:0:0:
116,104,54033,2,2,B|140:140|140:140|128:280,2,167.999994873047,10|10|10,0:0|0:0|0:0,0:0:0:0:
57,28,55033,1,2,1:2:0:0:
223,80,55433,6,0,P|279:100|391:72,1,167.999994873047,2|0,1:0|1:0,0:0:0:0:
448,24,56033,2,2,P|420:64|456:200,1,167.999994873047,10|10,0:0|0:0,0:3:0:0:
500,264,56633,1,0,1:0:0:0:
288,172,57033,6,0,L|308:352,1,167.999994873047,2|10,1:0|1:3,0:0:0:0:
212,376,57633,1,10,0:0:0:0:
272,40,58033,1,10,0:0:0:0:
180,24,58233,1,0,1:0:0:0:
168,120,58433,1,10,0:0:0:0:
256,144,58633,6,0,B|356:124|356:124|420:148|420:148|524:128,2,251.999992309571,2|8|0,1:0|0:0|1:0,0:0:0:0:
72,312,60433,6,0,L|192:324,1,83.9999974365235,10|0,0:0|1:0,0:0:0:0:
256,360,60833,1,10,0:0:0:0:
264,144,61233,6,0,P|252:188|268:252,1,83.9999974365235,8|0,0:0|1:0,0:0:0:0:
336,292,61633,1,10,0:0:0:0:
488,96,62033,6,0,L|392:112,1,83.9999974365235,8|2,0:0|1:2,0:0:0:0:
344,180,62433,1,10,0:0:0:0:
80,56,62833,5,8,0:0:0:0:
96,140,63033,1,2,1:2:0:0:
112,228,63233,2,0,L|212:220,1,83.9999974365235,10|0,0:0|1:0,0:0:0:0:
281,206,63633,5,10,0:0:0:0:
447,12,64033,2,2,L|439:188,2,167.999994873047,10|8|8,0:0|0:0|0:0,0:3:0:0:
356,32,65033,6,0,P|312:68|176:52,1,167.999994873047,0|0,1:0|1:0,0:0:0:0:
104,76,65633,2,0,P|164:96|160:208,1,167.999994873047,4|0,0:0|1:0,0:0:0:0:
108,256,66233,1,8,0:0:0:0:
28,32,66633,6,0,L|212:20,1,167.999994873047,6|2,1:2|1:2,0:0:0:0:
288,60,67233,2,0,B|232:96|232:96|252:208,1,167.999994873047,10|10,0:0|0:0,0:0:0:0:
260,280,67833,1,2,1:2:0:0:
426,349,68233,6,0,B|410:269|410:269|434:237|434:237|410:85,2,251.999992309571,2|10|2,1:0|0:0|1:0,0:0:0:0:
267,181,69833,5,2,1:2:0:0:
216,244,70033,1,10,0:0:0:0:
143,200,70233,1,0,1:0:0:0:
104,272,70433,2,2,P|60:300|12:200,1,167.999994873047,10|10,0:0|0:0,0:3:0:0:
32,144,71033,2,0,L|24:44,1,83.9999974365235,0|10,1:0|0:0,0:0:0:0:
136,24,71433,6,0,B|156:112|92:104|128:200,1,167.999994873047,2|2,1:2|1:3,0:0:0:0:
192,236,72033,1,8,0:0:0:0:
248,172,72233,1,2,1:2:0:0:
392,336,72633,1,2,1:0:0:0:
484,36,73233,6,0,L|496:136,1,83.9999974365235,10|0,0:0|1:0,0:0:0:0:
416,152,73633,1,10,0:0:0:0:
272,68,74033,6,0,P|228:60|180:80,1,83.9999974365235,10|0,0:0|1:0,0:0:0:0:
116,128,74433,1,10,0:0:0:0:
184,332,74833,6,0,L|188:240,1,83.9999974365235,8|2,0:0|1:2,0:0:0:0:
248,184,75233,1,10,0:0:0:0:
440,320,75633,5,10,0:0:0:0:
424,228,75833,1,0,1:0:0:0:
344,284,76033,1,10,0:0:0:0:
328,196,76233,2,0,B|264:240|144:216|196:180|84:128|0:184,1,335.999989746094,2|2,1:2|1:2,0:0:0:0:
76,268,77233,2,0,L|92:4,1,251.999992309571,2|6,3:3|1:2,0:0:0:0:
120,356,78433,5,2,3:0:0:0:
312,172,79033,2,0,L|436:164,1,105,8|2,0:0|2:3,0:0:0:0:
452,188,79433,6,0,P|460:120|340:76,1,210,4|4,0:0|0:0,0:0:0:0:
128,232,80433,5,2,1:3:0:0:
184,152,80633,1,2,1:3:0:0:
216,272,80833,2,0,P|256:308|352:292,1,140,4|2,1:2|1:2,0:0:0:0:
420,248,81433,1,0,1:0:0:0:
340,184,81633,2,0,B|316:148|316:148|332:36,1,140,4|0,0:0|3:0,0:3:0:0:
408,8,82233,1,8,1:2:0:0:
180,44,82633,5,6,1:0:0:0:
288,356,84233,1,6,0:2:0:0:
264,268,84433,1,6,0:1:0:0:
396,80,84833,2,2,B|416:164|364:144|392:252,1,157.500006008148,6|2,1:0|0:0,0:3:0:0:
256,92,85833,5,6,0:1:0:0:
40,116,87433,1,4,0:0:0:0:
128,68,87633,1,6,0:1:0:0:
232,252,88033,2,2,B|88:232|88:232|136:360,1,262.500010013581,6|2,0:1|0:0,0:3:0:0:
88,76,95433,6,0,L|96:244,1,140,4|2,0:0|0:0,0:0:0:0:
256,316,96233,2,0,L|248:144,1,140,2|2,0:3|0:0,0:0:0:0:
440,56,97033,5,2,0:0:0:0:
480,268,97433,1,2,0:0:0:0:
248,88,97833,1,2,0:0:0:0:
184,284,98233,1,2,0:0:0:0:
164,192,98433,1,8,0:0:0:0:
256,224,98633,6,0,P|320:240|420:244,1,140,2|2,0:0|0:0,0:0:0:0:
280,68,99433,2,0,P|216:84|116:88,1,140,2|2,0:0|0:0,0:0:0:0:
44,312,100233,5,2,1:2:0:0:
120,260,100433,1,2,1:3:0:0:
148,356,100633,1,0,1:0:0:0:
224,268,100833,2,0,B|252:256|304:268|288:280|328:296|376:272,1,140,6|2,0:2|0:3,0:0:0:0:
324,180,101433,2,0,P|308:144|344:80,1,105,8|2,0:0|0:3,0:0:0:0:
348,56,101833,6,0,L|180:64,1,140,4|8,1:2|0:2,0:0:0:0:
112,64,102433,1,4,1:2:0:0:
172,312,102833,5,2,1:2:0:0:
152,224,103033,1,0,1:0:0:0:
256,160,103233,2,0,L|248:328,1,140,6|2,0:0|1:2,0:0:0:0:
332,351,103833,5,0,1:0:0:0:
412,282,104033,2,0,P|436:226|392:146,1,140,6|2,1:2|0:0,0:0:0:0:
336,98,104633,1,8,1:2:0:0:
144,56,105033,5,2,1:3:0:0:
336,212,105433,1,0,3:0:0:0:
95,281,105833,2,0,L|105:130,1,140,8|0,3:0|3:0,0:0:0:0:
144,56,106433,1,0,3:0:0:0:
210,324,106833,5,0,3:0:0:0:
244,232,107033,1,0,3:0:0:0:
323,291,107233,1,6,3:2:0:0:
396,104,107633,5,2,3:2:0:0:
396,104,107833,1,2,3:2:0:0:
244,232,108233,6,0,P|216:252|100:248,1,140,2|2,0:0|3:3,0:0:0:0:
152,48,109033,2,0,P|180:92|160:184,1,140,2|8,0:0|0:3,0:0:0:0:
60,348,109833,2,0,P|68:316|128:296,1,70,2|0,0:0|0:0,0:0:0:0:
88,200,110233,1,2,3:3:0:0:
88,200,110433,2,0,L|256:208,1,140,2|2,2:2|3:2,0:0:0:0:
296,272,111033,1,8,3:3:0:0:
448,72,111433,6,0,P|392:48|316:72,1,140,2|2,0:0|3:0,0:0:0:0:
396,272,112233,2,0,B|360:216|412:208|376:116,1,140,2|2,0:3|3:3,0:0:0:0:
236,72,113033,2,0,P|276:100|284:140,1,70,2|2,0:0|0:1,0:0:0:0:
288,228,113433,1,2,3:0:0:0:
288,228,113633,2,0,L|132:216,1,140,0|2,0:0|3:2,0:0:0:0:
56,264,114233,1,8,3:0:0:0:
32,176,114433,1,2,0:3:0:0:
80,84,114633,6,0,B|152:104|144:56|240:84,1,140,4|0,0:0|0:0,0:0:0:0:
420,168,115433,1,2,0:3:0:0:
292,324,115833,2,0,L|208:304,1,70,2|0,3:0|0:0,0:0:0:0:
112,256,116233,5,2,0:0:0:0:
128,344,116433,1,2,0:0:0:0:
280,100,116833,1,2,0:0:0:0:
8,40,117233,1,2,3:2:0:0:
72,96,117433,1,8,3:0:0:0:
16,184,117633,1,2,0:0:0:0:
152,168,117833,1,4,1:2:0:0:
417,334,118433,5,0,1:0:0:0:
417,334,118633,1,4,1:2:0:0:
390,37,119233,5,0,1:0:0:0:
390,37,119433,1,4,1:2:0:0:
224,252,120033,5,0,1:2:0:0:
224,252,120233,2,0,P|176:232|100:272,1,140,4|2,1:2|1:2,0:0:0:0:
40,336,120833,2,0,L|52:164,1,140,0|2,1:0|0:3,0:0:0:0:
20,120,121433,6,0,P|80:144|156:100,1,140,2|2,1:2|3:0,0:0:0:0:
448,112,122233,1,0,3:2:0:0:
376,184,122433,1,2,0:3:0:0:
444,264,122633,1,2,1:2:0:0:
256,192,122733,12,4,124233,3:2:0:0:
244,224,125833,5,0,1:0:0:0:
160,164,126033,2,0,P|200:208|180:316,2,167.999994873047,10|10|8,0:0|0:0|0:0,0:0:0:0:
80,112,127033,2,0,L|76:16,1,83.9999974365235,2|8,1:2|0:0,0:0:0:0:
172,64,127433,6,0,L|276:72,1,83.9999974365235,2|8,1:0|0:0,0:0:0:0:
300,144,127833,2,0,L|404:152,1,83.9999974365235,2|8,1:2|0:0,0:0:0:0:
440,48,128233,2,0,B|476:156|476:156|448:224,1,167.999994873047,0|2,1:0|1:2,0:0:0:0:
348,368,129033,6,0,P|336:320|232:320,1,167.999994873047,2|0,1:2|1:0,0:0:0:0:
148,348,129633,2,0,P|95:286|117:209,1,167.999994873047,10|8,0:0|0:0,0:0:0:0:
164,132,130233,1,0,1:0:0:0:
236,180,130433,1,10,0:0:0:0:
284,104,130633,6,0,B|368:84|368:84|328:284,1,251.999992309571,2|8,1:2|0:0,0:0:0:0:
312,328,131433,1,0,1:0:0:0:
56,196,131833,2,0,L|228:180,1,167.999994873047,0|4,1:0|1:2,0:0:0:0:
316,136,132433,6,0,P|304:176|312:232,1,83.9999974365235,10|0,0:0|1:0,0:0:0:0:
376,280,132833,1,10,0:0:0:0:
388,60,133233,6,0,P|340:32|288:40,1,83.9999974365235,10|2,0:0|1:1,0:0:0:0:
220,48,133633,1,8,0:0:0:0:
120,208,134033,6,0,P|136:156|120:104,1,83.9999974365235,8|2,0:0|1:2,0:0:0:0:
84,48,134433,1,10,0:0:0:0:
236,320,134833,6,0,P|180:288|140:288,1,83.9999974365235,10|2,0:0|1:2,0:0:0:0:
80,324,135233,1,8,0:0:0:0:
264,200,135633,6,0,L|444:216,1,167.999994873047,8|10,0:0|0:0,0:0:0:0:
408,116,136233,2,0,P|360:108|312:136,1,83.9999974365235,2|8,1:2|0:0,0:0:0:0:
232,28,136633,2,0,P|232:84|252:120,1,83.9999974365235,2|10,1:0|0:0,0:0:0:0:
276,212,137033,6,0,B|220:144|220:144|60:200,2,251.999992309571,4|4|8,1:0|0:0|0:0,0:0:0:0:
468,344,138633,5,6,1:0:0:0:
392,300,138833,1,10,0:0:0:0:
360,376,139033,1,0,1:0:0:0:
304,312,139233,2,8,P|252:284|144:324,1,167.999994873047,10|8,0:0|0:0,0:0:0:0:
56,332,139833,2,0,L|64:216,1,83.9999974365235,0|10,1:0|0:0,0:0:0:0:
96,164,140233,6,0,P|144:168|184:196,1,83.9999974365235,2|8,1:2|0:0,0:0:0:0:
188,84,140633,2,0,P|224:104|256:164,1,83.9999974365235,0|10,1:0|0:0,0:0:0:0:
296,220,141033,2,0,L|308:36,1,167.999994873047,0|2,1:0|1:2,0:0:0:0:
16,60,141833,5,0,1:0:0:0:
76,128,142033,1,10,0:0:0:0:
116,40,142233,1,0,1:0:0:0:
176,112,142433,2,0,B|184:196|184:196|176:208|176:208|184:288,1,167.999994873047,10|10,0:0|0:0,0:0:0:0:
204,368,143033,2,0,L|308:352,1,83.9999974365235,2|8,1:2|0:0,0:0:0:0:
360,284,143433,6,0,L|340:184,1,83.9999974365235,2|8,1:0|0:0,0:0:0:0:
440,208,143833,2,0,L|420:104,1,83.9999974365235,0|8,1:0|0:0,0:0:0:0:
432,40,144233,1,0,1:0:0:0:
240,200,144633,2,0,P|176:220|72:184,1,167.999994873047,0|4,1:0|1:2,0:0:0:0:
40,108,145233,6,0,B|56:72|56:72|40:8,1,83.9999974365235,8|0,0:0|1:0,0:0:0:0:
144,16,145633,1,10,0:0:0:0:
200,280,146033,6,0,B|164:264|164:264|100:280,1,83.9999974365235,10|2,0:0|1:0,0:0:0:0:
81,191,146433,1,8,0:0:0:0:
312,104,146833,6,0,B|348:120|348:120|412:104,1,83.9999974365235,8|2,0:0|1:3,0:0:0:0:
431,193,147233,1,10,0:0:0:0:
164,36,147633,5,2,1:0:0:0:
224,100,147833,1,2,1:2:0:0:
172,168,148033,1,8,0:0:0:0:
248,220,148233,2,0,B|240:308|148:360|68:336|44:244|44:244|72:200|112:132|108:84|88:20|24:0|-12:60|-12:60|24:92|8:128,1,671.999979492188,2|2,1:0|1:2,0:0:0:0:
328,52,150433,6,0,L|340:208,1,140,2|0,0:0|1:0,0:0:0:0:
376,280,151033,1,8,0:0:0:0:
125,190,151433,1,4,0:0:0:0:
100,64,164233,6,0,B|140:176|52:164|100:288,2,210,4|0|8,0:0|3:0|0:0,0:0:0:0:
260,40,165833,6,2,L|240:196,1,140,0|8,1:0|0:0,0:3:0:0:
304,256,166433,2,0,P|260:220|192:268,1,140,2|0,0:0|1:0,0:3:0:0:
184,352,167033,1,8,0:0:0:0:
368,180,167433,6,0,P|352:120|204:136,2,210,0|0|10,1:0|1:0|0:0,0:0:0:0:
408,328,169033,6,0,B|352:292|352:292|256:316,1,140,0|10,1:0|0:0,0:0:0:0:
212,368,169633,2,0,L|220:224,1,140,0|0,1:0|1:0,0:0:0:0:
176,148,170233,2,0,P|148:164|92:164,2,70,8|0|0,0:0|0:0|1:0,0:0:0:0:
360,12,171033,5,10,0:0:0:0:
360,12,171233,2,0,L|376:248,1,210,2|8,1:2|0:0,0:0:0:0:
288,364,172233,2,0,P|292:320|192:284,1,140,2|8,1:0|0:0,0:0:0:0:
160,344,172833,2,0,P|128:360|36:304,1,140,2|0,1:2|1:0,0:0:0:0:
24,228,173433,1,8,0:0:0:0:
148,56,173833,6,0,L|152:136,2,70,0|2|8,1:0|0:0|0:0,0:0:0:0:
232,24,174433,2,2,B|264:72|252:136|236:116|204:172|236:236,1,210,0|8,1:0|0:0,0:3:0:0:
392,328,175433,6,0,B|368:264|368:264|412:188|412:188|388:116,2,210,4|4|8,0:0|0:0|0:0,0:0:0:0:
72,108,177033,6,0,B|104:72|104:72|216:108,1,154.000004699707,12|8,0:0|0:0,0:0:0:0:
204,279,177833,2,0,B|104:312|104:312|72:276,1,154.000004699707,8|8,0:0|0:0,0:0:0:0:
296,144,178633,5,8,0:0:0:0:
288,320,179033,1,8,0:0:0:0:
391,92,179433,1,8,0:0:0:0:
383,268,179833,1,8,0:0:0:0:
149,142,180233,6,0,P|153:68|216:28,1,154.000004699707,10|8,0:0|0:0,0:0:0:0:
149,241,181033,2,0,P|153:315|216:356,1,154.000004699707,8|8,0:0|0:0,0:0:0:0:
452,184,181833,5,10,0:0:0:0:
292,280,182233,1,8,0:0:0:0:
328,120,182633,1,8,0:0:0:0:
416,332,183033,1,8,0:0:0:0:
196,256,183433,6,0,P|144:252|48:312,1,154.000004699707,8|8,3:2|0:0,0:0:0:0:
57,84,184233,2,0,P|120:126|196:128,1,154.000004699707,10|8,0:0|0:0,0:0:0:0:
430,56,185033,5,10,0:0:0:0:
284,132,185433,1,10,0:0:0:0:
430,328,185833,1,8,0:0:0:0:
284,252,186233,1,8,0:0:0:0:
68,60,186633,6,0,B|128:52|128:52|192:140,1,154.000004699707,10|8,0:0|0:0,0:0:0:0:
68,324,187433,2,0,B|128:332|128:332|192:244,1,154.000004699707,8|8,0:0|0:0,0:0:0:0:
344,168,188233,6,0,P|300:216|332:312,1,154.000004699707,10|0,0:0|1:0,0:0:0:0:
388,244,188833,2,0,L|364:48,1,188.999994232178,4|10,0:0|0:0,0:0:0:0:
396,332,189833,6,0,P|352:296|256:332,1,167.999994873047,12|8,0:2|0:0,0:0:0:0:
116,332,190633,2,0,P|160:296|256:332,1,167.999994873047,8|8,0:0|0:0,0:0:0:0:
436,80,191433,5,12,0:0:0:0:
308,148,191833,1,8,0:0:0:0:
176,32,192233,1,10,0:0:0:0:
48,100,192633,1,8,3:0:0:0:
168,232,193033,6,0,P|192:280|120:356,1,167.999994873047,12|8,0:0|0:0,0:0:0:0:
344,232,193833,2,0,P|320:280|392:356,1,167.999994873047,8|8,0:0|0:0,0:0:0:0:
416,56,194633,5,12,0:0:0:0:
320,160,195033,1,8,0:0:0:0:
96,56,195433,1,10,0:0:0:0:
192,160,195833,1,8,3:0:0:0:
336,304,196233,6,0,P|428:284|424:192,1,167.999994873047,14|8,0:0|0:0,0:0:0:0:
176,304,197033,2,0,P|84:284|88:192,1,167.999994873047,8|8,0:0|0:0,0:0:0:0:
256,96,197833,5,12,0:0:0:0:
404,152,198233,1,8,0:0:0:0:
256,16,198633,1,10,0:0:0:0:
108,152,199033,1,8,3:0:0:0:
256,296,199433,5,12,0:0:0:0:
256,296,199633,2,0,P|268:256|384:256,1,167.999994873047,2|2,0:0|0:0,0:0:0:0:
306,43,200433,2,0,L|217:48,1,83.9999974365235,2|8,0:1|0:0,0:0:0:0:
157,105,200833,1,6,0:0:0:0:
256,192,200933,12,0,202533,0:0:0:0:
200,148,203233,6,0,L|212:240,2,83.9999974365235,2|0|0,0:0|0:0|0:0,0:0:0:0:
243,79,203833,2,0,L|335:87,1,83.9999974365235
393,130,204233,1,2,0:0:0:0:
316,348,204633,6,0,L|304:192,2,140
260,336,217033,6,0,B|252:279|252:279|280:224|280:224|267:123,2,210,4|4|0,0:0|0:0|0:0,0:3:0:0:
184,112,218633,6,0,P|144:80|48:148,1,167.999994873047,6|0,1:2|1:0,0:0:0:0:
24,212,219233,2,0,B|68:228|68:228|56:356,1,167.999994873047,10|8,0:0|1:2,0:0:0:0:
136,379,219833,1,2,1:2:0:0:
312,352,220233,6,0,P|276:316|356:160,2,251.999992309571,2|10|2,1:0|0:0|1:2,0:0:0:0:
507,69,221833,5,2,1:0:0:0:
450,138,222033,1,10,0:0:0:0:
380,75,222233,1,0,1:0:0:0:
348,162,222433,2,0,L|171:180,1,167.999994873047,10|8,0:0|0:0,0:0:0:0:
84,157,223033,2,0,P|101:209|88:267,1,83.9999974365235,0|8,1:0|0:0,0:0:0:0:
43,341,223433,6,0,B|48:303|132:299|123:342|199:335,1,167.999994873047,2|0,1:2|1:0,0:0:0:0:
275,314,224033,1,10,0:0:0:0:
238,236,224233,1,2,1:0:0:0:
426,120,224633,1,2,1:2:0:0:
88,34,225233,6,0,B|112:77|112:77|105:135,1,83.9999974365235,10|0,0:0|1:0,0:0:0:0:
65,193,225633,1,10,0:0:0:0:
279,73,226033,6,0,B|325:57|325:57|376:70,1,83.9999974365235,10|0,0:0|1:0,0:0:0:0:
438,103,226433,1,10,0:0:0:0:
351,342,226833,6,0,L|343:243,1,83.9999974365235,10|2,0:2|1:2,0:0:0:0:
299,183,227233,1,10,0:0:0:0:
56,346,227633,5,8,0:0:0:0:
99,277,227833,1,2,1:2:0:0:
161,346,228033,1,10,0:2:0:0:
198,255,228233,2,0,B|231:158|130:151|88:-16|295:-58|360:81|324:151|282:188|144:190|104:169|104:169|93:195|42:234|-13:201,1,671.999979492188,2|4,1:0|0:0,0:0:0:0:
276,345,230433,5,2,0:0:0:0:
411,65,231033,2,0,L|280:79,1,105,8|2,3:2|0:3,0:0:0:0:
270,62,231433,6,0,B|295:117|295:117|287:216,1,140,4|2,0:0|1:3,0:0:0:0:
274,295,232033,1,4,0:0:0:0:
85,119,232433,1,2,1:3:0:0:
137,191,232633,1,8,0:0:0:0:
88,262,232833,1,4,0:0:0:0:
31,31,233233,6,0,L|129:23,1,70,2|2,3:3|3:0,0:0:0:0:
179,72,233633,1,4,1:2:0:0:
257,301,234033,5,0,1:0:0:0:
205,208,234233,1,8,0:0:0:0:
312,212,234433,1,2,0:0:0:0:
256,192,234533,12,4,236233,3:2:0:0:
68,134,237833,5,4,1:2:0:0:
84,230,238033,1,4,0:0:0:0:
234,62,238433,2,2,B|256:145|191:124|221:235,1,157.500006008148,4|8,0:0|0:0,0:3:0:0:
412,321,239433,1,4,0:0:0:0:
444,134,241033,5,6,1:0:0:0:
428,230,241233,1,2,1:0:0:0:
278,62,241633,2,2,B|256:145|321:124|291:235,1,157.500006008148,12|8,1:2|0:0,0:3:0:0:
100,321,242633,1,6,1:2:0:0:
191,107,244233,5,4,1:2:0:0:
151,202,244433,1,6,1:0:0:0:
19,33,244833,2,2,L|188:24,1,157.500006008148,6|8,1:0|0:0,0:3:0:0:
292,213,245833,1,6,0:0:0:0:
292,213,246833,2,0,P|290:178|353:146,1,105.000004005432,0|0,1:0|1:0,0:0:0:0:
396,204,247433,6,0,L|393:263,1,52.5000020027161,4|6,1:2|1:0,0:0:0:0:
489,310,247833,1,10,1:2:0:0:
489,310,248033,2,2,L|474:135,1,157.500006008148,6|10,1:0|1:3,0:3:0:0:
208,85,249033,6,0,P|269:97|295:174,1,140,4|8,1:2|0:0,0:0:0:0:
160,151,249633,2,0,L|178:-13,1,140,4|0,0:0|0:0,0:0:0:0:
256,192,250133,12,0,253833,0:0:0:0:
