osu file format v14

[General]
AudioFilename: 01+-+Zetsubou+Restaurant.mp3
AudioLeadIn: 0
PreviewTime: 833
Countdown: 0
SampleSet: Soft
StackLeniency: 1
Mode: 0
LetterboxInBreaks: 0
WidescreenStoryboard: 1

[Editor]
Bookmarks: 68226,89026,95426,101826,108226,114626,151426,164226,177026,182833,184633,189826,205826
DistanceSpacing: 1
BeatDivisor: 12
GridSize: 4
TimelineZoom: 2

[Metadata]
Title:Zetsubou Restaurant
TitleUnicode:絶望レストラン
Artist:Zetsubou Shoujotachi
ArtistUnicode:絶望少女達
Creator:Okoratu
Version:Insane
Source:懺・さよなら絶望先生
Tags:Anime Japanese Zetubou Ending Zan Sayonara Zetsubou Sensei Tanii Asuka Sanada Asami Gotou Yuuko Matsuki Miyu Okorin 谷井あすか 小森霧 真田アサミ 常月まとい 後藤邑子 小節あびる 松来未祐 藤吉晴美 komori kiri tsunetsuki matoi kobushi abiru fujiyoshi harumi
BeatmapID:1368355
BeatmapSetID:450762

[Difficulty]
HPDrainRate:7
CircleSize:4
OverallDifficulty:8
ApproachRate:9
SliderMultiplier:1.9
SliderTickRate:2

[Events]
//Background and Video events
0,0,"wh2.png",0,0
//Break Periods
2,89233,94433
2,151632,163633
//Storyboard Layer 0 (Background)
//Storyboard Layer 1 (Fail)
//Storyboard Layer 2 (Pass)
//Storyboard Layer 3 (Foreground)
//Storyboard Layer 4 (Overlay)
//Storyboard Sound Samples

[TimingPoints]
1033,400,4,2,3,60,1,0
1033,-125,4,2,3,60,0,0
4233,-100,4,2,3,60,0,0
4633,-100,4,2,3,60,0,0
4833,-100,4,2,3,60,0,0
6233,-100,4,2,3,60,0,0
6433,-100,4,2,3,60,0,0
7833,-100,4,2,3,60,0,0
8033,-100,4,2,3,60,0,0
9433,-100,4,2,3,60,0,0
9633,-100,4,2,3,60,0,0
11033,-100,4,2,3,60,0,0
11233,-100,4,2,3,60,0,0
13233,-100,4,2,3,80,0,0
13833,-100,4,2,3,60,0,0
17033,-100,4,2,3,80,0,0
18533,-100,4,2,3,80,0,0
18633,-100,4,2,3,80,0,0
22233,-100,4,2,3,80,0,0
28033,-100,4,2,3,80,0,0
28233,-100,4,2,3,80,0,0
33033,-100,4,2,3,80,0,0
35833,-100,4,2,3,80,0,0
35933,-100,4,2,3,50,0,0
36233,-100,4,2,3,80,0,0
38833,-100,4,2,3,80,0,0
39233,-100,4,2,3,80,0,0
42033,-100,4,2,3,80,0,0
42633,-100,4,2,3,80,0,0
45233,-100,4,2,3,80,0,0
45633,-100,4,2,3,80,0,0
52633,-200,4,2,3,30,0,0
52833,-200,4,2,5,15,0,0
53033,-200,4,2,3,5,0,0
53183,-200,4,2,3,80,0,0
53233,-142.857142857143,4,2,3,80,0,0
53433,-117.647058823529,4,2,3,80,0,0
53633,-100,4,2,3,80,0,0
53833,-83.3333333333333,4,2,3,80,0,1
54033,-83.3333333333333,4,2,3,80,0,1
55833,-83.3333333333333,4,2,3,80,0,1
57233,-83.3333333333333,4,2,4,80,0,1
57333,-83.3333333333333,4,2,3,80,0,1
66633,-83.3333333333333,4,2,3,80,0,1
66833,-83.3333333333333,4,2,4,80,0,1
66933,-83.3333333333333,4,2,3,80,0,1
68633,-83.3333333333333,4,2,3,80,0,1
77833,-100,4,2,3,80,0,0
79033,-100,4,2,3,80,0,0
82633,-133.333333333333,4,2,3,80,0,0
83033,-133.333333333333,4,2,3,50,0,0
83733,-133.333333333333,4,2,3,80,0,0
86733,-133.333333333333,4,2,3,30,0,0
87133,-133.333333333333,4,2,3,80,0,0
88433,-133.333333333333,4,2,3,80,0,0
89033,-133.333333333333,4,2,3,80,0,0
95433,-100,4,2,3,80,0,0
107933,-100,4,2,3,50,0,0
108233,-100,4,2,3,80,0,0
113133,-100,4,2,3,50,0,0
113333,-100,4,2,3,80,0,0
124633,-200,4,2,3,30,0,0
124833,-200,4,2,5,15,0,0
125033,-200,4,2,3,5,0,0
125233,-142.857142857143,4,2,3,80,0,0
125433,-117.647058823529,4,2,3,80,0,0
125633,-100,4,2,3,80,0,0
125833,-83.3333333333333,4,2,3,80,0,1
135933,-83.3333333333333,4,2,3,80,0,1
149833,-100,4,2,3,80,0,0
177033,-90.9090909090909,4,2,3,80,0,0
179233,-111.111111111111,4,2,3,80,0,0
180233,-90.9090909090908,4,2,3,80,0,0
182433,-111.111111111111,4,2,3,80,0,0
183433,-90.9090909090909,4,2,3,80,0,0
185633,-111.111111111111,4,2,3,80,0,0
186633,-90.9090909090909,4,2,3,80,0,0
188833,-111.111111111111,4,2,3,80,0,0
189833,-83.3333333333333,4,2,3,80,0,0
200233,-83.3333333333333,4,2,4,80,0,0
200333,-83.3333333333333,4,2,3,80,0,0
203033,-83.3333333333333,4,2,3,30,0,0
204133,-83.3333333333333,4,2,3,50,0,0
204633,-100,4,2,3,50,0,0
205883,400,4,2,3,50,1,0
205883,-142.857142857143,4,2,3,50,0,0
214833,400,4,2,3,80,1,0
214833,-142.857142857143,4,2,3,80,0,0
215433,400,4,2,3,80,1,0
215433,-142.857142857143,4,2,3,80,0,0
217033,-100,4,2,3,80,0,0
218633,-83.3333333333333,4,2,3,80,0,1
229833,-100,4,2,3,80,0,0
234433,-133.333333333333,4,2,3,80,0,0
234633,-133.333333333333,4,2,3,20,0,0
235733,-133.333333333333,4,2,3,80,0,0
235833,-200,4,2,3,80,0,0
236733,-200,4,2,3,40,0,0
237233,-133.333333333333,4,2,3,30,0,0
237533,-133.333333333333,4,2,3,80,0,0
240333,-133.333333333333,4,2,3,30,0,0
240733,-133.333333333333,4,2,3,80,0,0
243533,-133.333333333333,4,2,3,30,0,0
243933,-133.333333333333,4,2,3,80,0,0
246533,-133.333333333333,4,2,3,40,0,0
247383,-133.333333333333,4,2,3,80,0,0
249033,-100,4,2,3,80,0,0
250133,-100,4,2,3,25,0,0
252233,-100,4,2,3,20,0,0
252933,-100,4,2,3,12,0,0
253483,-100,4,2,3,5,0,0

[Colours]
Combo1 : 253,162,94
Combo2 : 250,154,10
Combo3 : 236,81,15
Combo4 : 220,225,30

[HitObjects]
96,104,1033,5,0,0:0:0:0:
96,104,1233,2,0,B|137:104|155:115|155:115|180:91|180:91|207:103|242:97,1,152,2|0,0:0|0:0,0:0:0:0:
235,97,1733,1,0,0:0:0:0:
235,97,1833,1,0,0:0:0:0:
209,211,2033,1,0,0:0:0:0:
327,260,2233,1,0,0:0:0:0:
353,146,2433,1,0,0:0:0:0:
242,301,2633,5,2,0:0:0:0:
309,49,3033,1,0,0:0:0:0:
242,301,3433,1,2,0:0:0:0:
309,49,3833,1,0,0:0:0:0:
162,250,4233,6,0,P|106:273|35:162,1,190,2|0,0:0|0:0,0:0:0:0:
121,151,4833,2,0,L|311:165,1,190
330,81,5433,2,0,B|301:114|301:114|314:183,1,95
443,282,5833,6,0,B|401:189|502:204|444:72,1,190,2|0,0:0|0:0,0:0:0:0:
443,282,6433,2,0,P|411:331|291:298,1,190
341,146,7033,1,0,0:0:0:0:
341,146,7433,5,2,0:0:0:0:
262,199,7633,1,0,0:0:0:0:
183,129,7833,1,0,0:0:0:0:
174,257,8033,2,0,B|89:297|89:297|-25:251,1,190,2|0,0:0|0:0,0:0:0:0:
84,119,8633,2,0,L|88:227,1,95
0,74,9033,6,0,B|85:34|85:34|199:80,1,190,2|0,0:0|0:0,0:0:0:0:
269,160,9633,1,0,0:0:0:0:
269,160,9833,2,0,L|146:178,1,95
348,59,10233,2,0,L|248:46,1,95,2|0,0:0|0:0,0:0:0:0:
346,197,10633,5,2,0:0:0:0:
421,122,10833,1,0,0:0:0:0:
409,288,11033,1,2,0:0:0:0:
278,122,11233,1,0,0:0:0:0:
278,122,11633,1,2,0:0:0:0:
421,122,11833,1,0,0:0:0:0:
292,288,12033,2,0,L|262:305,3,31.6666666666667,8|8|8|8,0:3|0:3|0:3|0:3,0:0:0:0:
105,76,13233,5,2,0:0:0:0:
87,202,13433,2,0,L|77:248,2,31.6666666666667,2|0|0,0:0|0:0|0:0,0:0:0:0:
180,159,13633,2,0,L|170:113,2,31.6666666666667
171,255,13833,5,0,3:3:0:0:
344,82,14233,1,8,0:3:0:0:
317,325,14633,1,0,3:3:0:0:
344,82,15033,5,8,3:0:0:0:
286,206,15233,1,0,3:0:0:0:
268,15,15433,1,0,3:0:0:0:
210,139,15633,1,0,3:0:0:0:
343,5,15833,1,0,3:0:0:0:
229,223,16033,5,0,0:0:0:0:
202,57,16233,1,0,0:0:0:0:
202,57,16333,1,2,0:0:0:0:
337,164,16533,1,0,0:0:0:0:
337,164,16633,1,2,0:0:0:0:
142,149,16833,1,0,0:0:0:0:
347,62,17033,6,0,L|471:73,1,95,6|2,0:0|0:3,0:0:0:0:
242,155,17433,2,0,L|366:166,1,95,0|2,0:0|0:3,0:0:0:0:
145,34,17833,2,0,L|158:157,1,95,0|2,0:0|0:3,0:0:0:0:
33,252,18233,2,2,L|52:68,1,142.5,2|0,0:0|0:0,0:0:0:0:
47,110,18633,5,2,0:0:0:0:
112,298,18833,1,2,0:0:0:0:
112,298,19233,2,0,L|125:197,1,95,2|0,0:3|0:0,0:0:0:0:
292,143,19633,1,2,0:3:0:0:
213,229,19833,1,2,0:0:0:0:
303,14,20033,1,10,0:2:0:0:
303,14,20133,1,0,0:0:0:0:
303,14,20233,6,0,P|348:36|411:25,1,95,2|2,0:0|0:3,0:0:0:0:
202,105,20633,2,0,P|157:127|94:116,1,95,2|2,0:0|0:3,0:0:0:0:
377,170,21033,2,0,P|422:148|485:159,1,95,0|2,0:0|0:3,0:0:0:0:
281,120,21433,1,0,0:0:0:0:
323,321,21633,2,0,L|330:359,2,31.6666666666667,10|0|0,0:3|3:0|3:0,0:0:0:0:
313,282,21833,5,8,0:3:0:0:
135,151,22033,2,0,B|156:195|156:195|144:264,1,95,2|8,0:3|0:0,0:0:0:0:
20,44,22433,2,0,L|216:36,1,190,4|2,0:0|0:3,0:0:0:0:
337,183,23033,1,10,0:2:0:0:
300,152,23133,1,0,0:0:0:0:
300,104,23233,1,2,0:0:0:0:
332,69,23333,1,0,0:0:0:0:
379,72,23433,6,0,L|368:186,1,95,0|2,0:0|0:3,0:0:0:0:
192,205,23833,2,0,L|181:319,1,95,0|2,0:0|0:3,0:0:0:0:
452,148,24233,2,0,L|441:262,1,95,0|2,0:0|0:3,0:0:0:0:
214,105,24633,2,0,B|156:80|156:80|101:94,1,95,2|0,0:0|0:0,0:0:0:0:
125,87,24933,1,0,0:0:0:0:
125,87,25033,5,2,0:0:0:0:
324,32,25233,1,2,0:3:0:0:
324,32,25633,2,0,L|314:142,1,95,2|0,0:3|0:0,0:0:0:0:
288,296,26033,1,2,0:3:0:0:
210,200,26233,1,2,0:0:0:0:
32,344,26433,1,8,0:0:0:0:
210,200,26633,6,0,B|157:192|157:192|101:204,1,95,2|2,0:0|0:3,0:0:0:0:
166,22,27033,2,0,B|178:66|178:66|167:126,1,95,0|2,0:0|0:3,0:0:0:0:
23,237,27433,1,2,0:0:0:0:
60,79,27633,1,2,0:3:0:0:
103,285,27833,1,2,0:3:0:0:
58,65,28033,2,0,L|51:24,2,31.6666666666667,2|2|2,0:3|3:3|3:3,0:0:0:0:
100,11,28233,5,8,0:3:0:0:
204,177,28433,2,0,B|162:189|162:189|93:172,1,95,2|8,0:0|1:2,0:0:0:0:
314,29,28833,2,0,L|322:235,1,190,4|2,0:0|0:3,0:0:0:0:
213,358,29433,1,2,0:3:0:0:
238,317,29533,1,0,0:0:0:0:
283,302,29633,1,2,0:0:0:0:
330,317,29733,1,0,0:0:0:0:
363,350,29833,6,0,P|474:358|474:358,1,95,4|2,0:0|0:0,0:0:0:0:
499,332,30133,2,0,L|483:253,1,47.5,0|0,0:0|1:0,0:0:0:0:
356,17,30433,2,0,B|338:67|357:122|388:88|395:157|365:221,1,190,4|0,1:2|1:0,0:0:0:0:
447,47,31033,1,2,1:2:0:0:
276,153,31233,6,0,B|218:182|218:182|233:113|194:44,1,190,14|2,1:2|1:2,0:0:0:0:
308,232,31833,1,0,1:0:0:0:
116,129,32033,2,0,B|77:128|53:100|53:100|-1:164|49:215,1,190,4|2,1:2|0:0,0:0:0:0:
113,47,32633,1,8,0:0:0:0:
132,217,32833,1,2,0:0:0:0:
113,47,33033,5,0,3:0:0:0:
254,259,33433,1,0,3:0:0:0:
399,47,33833,1,0,3:0:0:0:
256,100,34233,5,0,3:0:0:0:
254,259,34433,1,8,3:0:0:0:
254,259,34833,5,0,3:2:0:0:
256,100,35033,1,0,3:2:0:0:
124,312,35233,1,6,3:2:0:0:
124,312,35633,5,0,3:0:0:0:
256,100,35833,1,0,0:0:0:0:
256,100,36233,6,0,B|216:124|216:124|141:94,1,95,2|0,0:0|0:0,0:0:0:0:
39,74,36633,2,0,B|63:114|63:114|33:189,1,95,2|0,3:0|0:0,0:0:0:0:
16,288,37033,2,0,L|84:252,1,47.5,2|0,0:0|0:0,0:0:0:0:
116,196,37233,2,0,L|136:260,1,47.5
92,348,37433,1,8,3:0:0:0:
92,348,37633,1,2,0:0:0:0:
196,276,37833,6,0,B|236:252|236:252|311:282,1,95,2|0,0:0|0:0,0:0:0:0:
376,116,38233,1,8,0:3:0:0:
372,340,38433,2,2,L|360:168,1,142.5,8|0,0:3|0:0,0:3:0:0:
362,197,38833,2,0,L|440:212,1,47.5,2|0,3:0|0:0,0:0:0:0:
288,124,39033,1,2,3:2:0:0:
288,124,39233,1,0,3:0:0:0:
416,32,39433,6,0,B|460:24|460:24|516:48,1,95,2|0,0:0|0:0,0:0:0:0:
288,124,39833,2,0,B|332:132|332:132|388:108,1,95,2|0,0:3|0:0,0:0:0:0:
152,12,40233,2,0,B|171:58|171:58|163:102,1,95,2|0,0:0|0:0,0:0:0:0:
84,252,40633,2,0,B|64:205|64:205|72:161,1,95,8|0,0:3|0:0,0:0:0:0:
264,56,41033,5,2,0:0:0:0:
224,232,41233,1,2,0:0:0:0:
264,56,41433,1,8,0:3:0:0:
164,144,41633,2,2,L|320:140,1,142.5,2|0,0:0|0:0,0:3:0:0:
328,168,42033,2,0,L|320:204,2,31.6666666666667,2|2|2,3:2|3:0|3:0,0:0:0:0:
340,136,42233,1,8,3:0:0:0:
264,56,42433,1,2,0:0:0:0:
392,256,42633,6,0,P|440:268|488:244,1,95,4|0,0:0|0:0,0:0:0:0:
252,192,43033,2,0,P|204:180|156:204,1,95,2|0,0:3|0:0,0:0:0:0:
328,84,43433,2,0,P|348:116|336:188,1,95,2|0,0:0|0:0,0:0:0:0:
284,348,43833,2,0,P|279:301|301:260,1,95,2|0,0:3|0:0,0:0:0:0:
301,260,44133,1,0,3:0:0:0:
300,260,44233,6,0,L|416:272,1,95,2|2,3:2|0:0,0:0:0:0:
256,132,44633,1,0,3:0:0:0:
160,224,44833,2,0,L|48:240,1,95,2|0,0:0|0:0,0:0:0:0:
256,132,45233,2,0,L|248:88,2,31.6666666666667,2|2|2,3:2|3:0|3:0,0:0:0:0:
264,168,45433,1,8,3:0:0:0:
376,104,45633,1,2,0:0:0:0:
428,328,45833,5,4,1:2:0:0:
428,328,46433,5,0,1:2:0:0:
376,104,46633,1,4,1:2:0:0:
376,104,47233,5,0,1:2:0:0:
324,328,47433,1,4,1:2:0:0:
152,144,48033,5,0,1:2:0:0:
256,268,48233,1,4,1:2:0:0:
256,180,48433,1,0,0:0:0:0:
152,304,48633,1,0,1:2:0:0:
256,92,48833,1,0,1:2:0:0:
256,268,49033,1,4,0:0:0:0:
340,176,49233,5,2,3:0:0:0:
180,200,49433,1,0,3:0:0:0:
368,64,49633,1,2,0:0:0:0:
356,268,49833,1,2,3:0:0:0:
356,268,49933,2,0,L|348:380,1,95,0|0,3:0|3:0,0:0:0:0:
349,362,50233,2,0,P|285:330|245:342,1,95,10|2,3:0|0:0,0:0:0:0:
64,280,50633,5,0,0:0:0:0:
120,160,50833,1,2,0:0:0:0:
232,268,51033,1,0,1:0:0:0:
304,104,51233,1,2,0:0:0:0:
304,104,51333,1,0,0:0:0:0:
304,104,51433,1,0,0:0:0:0:
424,280,51633,1,0,1:0:0:0:
472,60,51833,1,4,0:0:0:0:
360,192,52033,1,0,3:0:0:0:
120,80,52233,1,8,3:0:0:0:
120,80,52633,6,2,P|172:72|212:136,1,130.625,2|0,0:0|0:0,0:3:0:0:
212,130,53233,2,0,L|208:204,2,66.4999979705811,2|2|2,0:0|0:0|0:0,0:0:0:0:
468,212,53833,5,4,1:2:0:0:
348,352,54033,2,2,P|396:288|340:176,1,170.999994781494,10|0,0:0|0:0,0:0:0:0:
416,156,54433,2,0,L|288:164,1,113.999996520996,10|0,0:0|0:0,0:0:0:0:
33,221,54833,1,10,0:0:0:0:
189,137,55033,1,0,1:0:0:0:
57,93,55233,1,10,0:0:0:0:
144,260,55433,6,0,P|164:300|144:384,1,113.999996520996,2|8,1:0|0:0,0:0:0:0:
16,172,55833,2,0,L|148:180,1,113.999996520996,0|10,1:0|0:0,0:0:0:0:
344,300,56233,1,0,1:0:0:0:
244,268,56433,1,10,0:0:0:0:
416,212,56633,1,0,1:0:0:0:
292,96,56833,1,10,0:0:0:0:
340,296,57033,6,0,B|284:276|240:288|264:308|216:316|164:300,1,170.999994781494,2|0,1:0|0:0,0:0:0:0:
151,289,57433,1,10,1:3:0:0:
200,112,57633,2,0,L|208:244,1,113.999996520996,10|0,0:0|1:0,0:0:0:0:
348,308,58033,1,10,0:0:0:0:
288,176,58233,1,0,1:0:0:0:
452,232,58433,1,10,0:0:0:0:
320,60,58633,6,0,L|208:80,1,113.999996520996,2|8,1:0|0:0,0:0:0:0:
348,236,59033,2,0,L|316:360,1,113.999996520996,2|8,1:2|0:0,0:0:0:0:
96,176,59433,1,0,1:0:0:0:
232,236,59633,1,8,0:0:0:0:
232,236,59733,1,0,1:0:0:0:
232,236,59833,1,0,1:0:0:0:
76,316,60033,1,8,0:0:0:0:
76,316,60133,1,0,1:0:0:0:
76,316,60233,1,4,1:2:0:0:
40,72,60433,5,10,0:0:0:0:
52,224,60633,1,0,1:0:0:0:
156,68,60833,2,0,P|208:40|284:108,1,170.999994781494,10|0,0:0|0:0,0:3:0:0:
269,118,61233,5,8,0:0:0:0:
416,48,61433,1,0,1:0:0:0:
348,228,61633,2,0,L|164:208,1,170.999994781494,10|0,0:0|0:0,0:0:0:0:
192,223,62033,5,8,0:0:0:0:
8,176,62233,1,2,1:2:0:0:
104,120,62433,2,0,B|128:124|140:144|140:144|108:168|104:200|104:200|112:232|96:280,1,170.999994781494,10|0,0:0|0:0,0:0:0:0:
112,300,62833,5,8,0:0:0:0:
48,68,63033,2,0,P|84:48|136:56,1,56.9999982604981,2|0,1:2|0:0,0:0:0:0:
200,20,63233,2,0,P|213:58|196:108,1,56.9999982604981,10|0,0:0|0:0,0:0:0:0:
208,156,63433,1,0,1:0:0:0:
208,156,63633,5,10,0:0:0:0:
344,68,63833,1,0,1:0:0:0:
292,268,64033,2,2,P|336:308|440:240,1,170.999994781494,10|0,0:0|0:0,0:3:0:0:
416,258,64433,5,8,0:0:0:0:
228,92,64633,1,0,1:0:0:0:
344,148,64833,1,8,0:0:0:0:
108,264,65033,5,0,1:0:0:0:
152,124,65233,1,0,3:0:0:0:
152,124,65333,1,0,3:0:0:0:
152,124,65433,2,0,L|88:136,1,56.9999982604981,0|0,1:0|1:0,0:0:0:0:
24,80,65633,2,0,B|56:184|56:184|12:344,1,227.999993041992,4|0,0:0|1:0,0:0:0:0:
232,112,66233,2,0,P|196:52|92:64,1,170.999994781494,8|0,0:0|0:0,0:0:0:0:
152,124,66633,6,0,L|344:108,1,170.999994781494,6|0,1:2|0:0,0:0:0:0:
368,104,67033,1,2,1:2:0:0:
328,264,67233,2,0,L|196:248,1,113.999996520996,10|0,0:0|1:0,0:0:0:0:
432,224,67633,1,10,0:0:0:0:
472,328,67833,1,0,1:0:0:0:
368,368,68033,1,10,0:0:0:0:
328,264,68233,6,0,L|352:124,1,113.999996520996,2|8,1:0|0:0,0:0:0:0:
144,24,68633,2,0,L|163:136,1,113.999996520996,0|10,1:0|0:0,0:0:0:0:
256,64,69033,1,0,1:0:0:0:
256,200,69233,1,8,0:0:0:0:
256,36,69433,1,2,1:0:0:0:
256,224,69633,1,10,0:2:0:0:
100,176,69833,5,2,1:2:0:0:
292,132,70033,1,10,0:0:0:0:
148,24,70233,1,0,1:0:0:0:
152,264,70433,2,2,P|104:288|28:272,1,113.999996520996,10|0,0:0|1:0,0:3:0:0:
296,136,70833,1,10,0:0:0:0:
320,316,71033,1,0,1:0:0:0:
464,206,71233,1,10,0:0:0:0:
440,26,71433,5,2,1:2:0:0:
388,148,71633,1,8,0:0:0:0:
180,36,71833,1,2,1:3:0:0:
260,200,72033,1,8,0:0:0:0:
332,8,72233,2,0,L|308:144,1,113.999996520996,2|8,1:2|0:0,0:0:0:0:
160,344,72633,1,2,1:0:0:0:
108,324,72733,1,0,0:0:0:0:
92,268,72833,1,8,0:0:0:0:
120,216,72933,1,0,1:0:0:0:
176,204,73033,1,4,1:2:0:0:
244,288,73233,5,10,0:0:0:0:
168,108,73433,1,0,1:0:0:0:
256,296,73633,2,0,B|304:320|352:300|332:288|356:260|436:284,1,170.999994781494,10|0,0:0|0:0,0:0:0:0:
448,260,74033,1,10,0:0:0:0:
296,192,74233,1,0,1:0:0:0:
140,356,74433,6,0,L|164:180,1,170.999994781494,10|0,0:0|0:0,0:0:0:0:
204,176,74833,1,8,0:0:0:0:
44,196,75033,1,2,1:2:0:0:
200,64,75233,6,2,B|288:80|260:16|376:40,1,170.999994781494,10|0,0:0|0:0,0:3:0:0:
400,60,75633,1,10,0:0:0:0:
320,184,75833,1,0,1:0:0:0:
476,336,76033,1,10,0:0:0:0:
488,160,76233,6,0,P|440:176|396:248,1,113.999996520996,2|8,1:2|0:0,0:0:0:0:
228,240,76633,2,0,P|232:324|272:372,1,113.999996520996,0|8,1:0|0:2,1:0:0:0:
228,68,77033,1,2,1:2:0:0:
152,184,77233,1,2,3:3:0:0:
152,184,77333,1,2,3:3:0:0:
152,184,77433,2,0,L|160:112,1,56.9999982604981,8|0,1:2|1:0,0:0:0:0:
48,36,77633,2,0,L|52:116,1,56.9999982604981,8|0,0:0|1:0,0:0:0:0:
56,208,77833,5,6,1:2:0:0:
56,208,78033,2,0,B|132:200|132:200|160:176|160:176|252:168,2,190,2|2|0,0:0|3:0|1:0,0:0:0:0:
264,96,79033,1,8,0:0:0:0:
308,116,79133,1,2,0:0:0:0:
324,160,79233,1,2,0:0:0:0:
312,208,79333,1,2,2:3:0:0:
276,240,79433,6,0,L|280:352,1,95,4|2,0:0|0:0,0:0:0:0:
316,364,79733,1,0,0:0:0:0:
316,364,79833,2,0,L|368:356,1,47.5,8|0,0:0|0:0,0:0:0:0:
172,304,80033,1,4,0:0:0:0:
172,304,80433,5,2,1:3:0:0:
348,280,80633,1,2,1:3:0:0:
236,72,80833,1,4,1:2:0:0:
236,72,81233,5,2,1:2:0:0:
256,260,81433,1,0,1:0:0:0:
420,48,81633,1,4,0:0:0:0:
420,48,82033,5,0,3:0:0:0:
376,260,82233,2,0,L|364:104,1,142.5,8|0,1:2|0:0,0:0:0:0:
291,233,82633,1,6,1:0:0:0:
291,233,84033,1,2,3:0:0:0:
176,104,84233,5,6,0:2:0:0:
280,304,84433,2,0,L|296:208,1,71.2500027179719,6|0,0:1|0:0,0:0:0:0:
100,52,84833,2,2,L|108:228,1,142.500005435944,6|2,1:0|0:3,0:3:0:0:
324,52,85433,2,2,P|268:48|228:84,1,106.875004076958,2|0,0:0|0:0,0:3:0:0:
296,124,85833,1,6,0:1:0:0:
296,124,86833,2,0,L|288:176,2,35.625001358986,0|2|2,1:0|1:3|1:3,0:0:0:0:
312,32,87233,1,2,0:0:0:0:
236,248,87433,5,4,0:0:0:0:
468,72,87633,2,0,L|376:80,1,71.2500027179719,6|0,0:1|0:0,0:0:0:0:
80,148,88033,2,2,L|248:160,1,142.500005435944,6|0,0:1|0:0,0:3:0:0:
112,328,88633,1,2,0:3:0:0:
88,300,88733,1,0,0:0:0:0:
92,264,88833,1,0,0:0:0:0:
120,240,88933,1,0,0:0:0:0:
156,244,89033,5,2,0:0:0:0:
472,200,95033,5,8,0:0:0:0:
472,200,95433,6,0,P|464:144|416:120,1,95,4|2,0:0|0:3,0:0:0:0:
376,40,95833,2,0,L|268:52,1,95,2|0,0:0|0:0,0:0:0:0:
260,156,96233,2,0,L|368:144,1,95,2|2,0:3|0:3,0:0:0:0:
124,44,96633,2,0,P|158:74|160:120,1,95,2|2,0:0|0:3,0:0:0:0:
100,356,97033,6,0,B|96:320|96:320|132:248,1,95,2|2,0:0|0:3,0:0:0:0:
160,120,97433,2,0,B|156:156|156:156|192:228,1,95,2|2,0:0|0:3,0:0:0:0:
260,364,97833,2,0,B|256:328|256:328|292:256,1,95,2|2,0:0|0:3,0:0:0:0:
344,136,98233,2,0,B|340:172|340:172|376:244,1,95,2|8,0:0|0:0,0:0:0:0:
157,149,98633,6,0,L|53:165,1,95,2|2,0:0|0:3,0:0:0:0:
159,119,99033,2,0,L|253:105,1,95,2|2,0:0|0:3,0:0:0:0:
349,61,99433,2,0,L|245:77,1,95,2|2,0:0|0:3,0:0:0:0:
351,31,99833,2,0,L|445:17,1,95,2|8,0:0|0:0,0:0:0:0:
80,80,100233,5,2,1:2:0:0:
184,208,100433,1,2,1:3:0:0:
224,40,100633,1,0,1:0:0:0:
100,172,100833,2,0,B|172:108|172:108|280:168,1,190,6|2,0:2|0:3,0:0:0:0:
376,356,101433,1,8,0:0:0:0:
332,336,101533,1,2,0:0:0:0:
320,292,101633,1,2,0:3:0:0:
344,252,101733,1,2,0:3:0:0:
392,248,101833,6,0,L|404:128,1,95,4|2,1:2|0:2,0:0:0:0:
412,44,102233,1,8,0:2:0:0:
268,200,102433,6,0,B|200:216|200:216|128:160,1,142.5,4|0,1:2|0:0,0:0:0:0:
140,152,102833,2,0,L|156:32,1,95,2|0,1:2|1:0,0:0:0:0:
20,316,103233,6,0,P|36:268|140:276,1,142.5,6|0,0:0|0:0,0:0:0:0:
128,268,103633,2,0,L|120:320,2,47.5,2|0|0,1:2|0:0|1:0,0:0:0:0:
328,184,104033,1,6,1:2:0:0:
328,184,104433,5,2,0:0:0:0:
416,304,104633,1,8,0:0:0:0:
452,160,104833,1,2,0:0:0:0:
368,36,105033,5,2,1:3:0:0:
416,304,105433,1,0,3:0:0:0:
368,36,105833,1,10,3:0:0:0:
416,304,106233,5,0,3:0:0:0:
256,116,106433,1,0,3:0:0:0:
256,116,106833,5,0,3:0:0:0:
96,304,107033,1,0,3:0:0:0:
144,36,107233,2,0,P|176:84|132:184,1,142.5,6|0,3:2|0:0,0:0:0:0:
140,180,107633,1,2,3:2:0:0:
264,44,107833,1,2,3:2:0:0:
264,44,108233,6,0,B|304:28|304:28|372:52,1,95,2|0,0:0|0:0,0:0:0:0:
508,128,108633,2,0,B|468:144|468:144|400:120,1,95,2|0,3:3|0:0,0:0:0:0:
308,160,109033,2,0,L|316:216,1,47.5,2|0,0:0|0:0,0:0:0:0:
396,220,109233,2,0,L|388:284,1,47.5,0|0,0:0|0:3,0:0:0:0:
320,328,109433,1,8,0:3:0:0:
320,328,109633,1,0,0:0:0:0:
216,212,109833,6,0,L|112:220,2,95,2|0|2,0:0|0:0|3:3,0:0:0:0:
46,1,110433,2,0,B|82:29|82:29|62:153,1,142.5,2|0,2:2|0:0,0:0:0:0:
90,157,110833,2,0,L|126:153,2,31.6666666666667,2|0|0,3:2|3:3|3:3,0:0:0:0:
54,165,111033,1,8,3:3:0:0:
214,112,111233,1,2,0:3:0:0:
208,284,111433,6,0,P|260:284|296:240,1,95,2|2,0:0|0:0,0:0:0:0:
411,67,111833,1,2,3:0:0:0:
424,200,112033,2,0,L|432:304,1,95,2|2,0:0|0:3,0:0:0:0:
317,138,112433,1,0,0:0:0:0:
500,193,112633,1,2,3:3:0:0:
338,228,112833,1,0,0:0:0:0:
488,100,113033,6,0,L|364:104,1,95,2|2,0:0|0:1,0:0:0:0:
196,48,113433,1,2,3:0:0:0:
272,200,113633,2,0,B|264:160|264:160|288:132|288:132|284:28,1,142.5
300,40,114033,2,0,L|340:44,2,31.6666666666667,2|2|2,3:2|3:0|3:0,0:0:0:0:
272,36,114233,1,8,3:0:0:0:
360,176,114433,1,2,0:3:0:0:
200,92,114633,6,0,P|144:80|96:108,1,95,4|2,0:0|0:0,0:0:0:0:
129,229,115033,2,0,P|185:241|233:213,1,95,0|2,0:0|2:2,0:0:0:0:
356,72,115433,2,0,P|372:116|364:172,1,95,2|2,0:3|0:0,0:0:0:0:
237,325,115833,2,0,P|221:281|229:225,1,95,2|0,3:0|0:0,0:0:0:0:
225,233,116133,1,0,0:0:0:0:
225,233,116233,6,0,L|337:245,1,95,2|2,0:0|0:0,0:0:0:0:
152,84,116633,1,2,3:3:0:0:
128,244,116833,2,0,L|114:338,1,95,2|2,0:0|3:3,0:0:0:0:
244,120,117233,2,0,L|252:156,2,31.6666666666667,2|0|0,3:2|3:0|3:0,0:0:0:0:
252,72,117433,1,8,3:0:0:0:
220,220,117633,1,2,0:0:0:0:
392,76,117833,5,4,1:2:0:0:
392,76,118433,5,0,1:0:0:0:
124,80,118633,1,4,1:2:0:0:
124,80,119233,5,0,1:0:0:0:
392,76,119433,1,4,1:2:0:0:
256,320,120033,5,0,1:2:0:0:
256,128,120233,1,4,1:2:0:0:
340,232,120433,1,2,0:0:0:0:
124,80,120633,1,2,1:2:0:0:
388,80,120833,1,0,1:0:0:0:
256,128,121033,1,4,1:2:0:0:
256,36,121233,5,2,0:3:0:0:
184,144,121433,1,2,1:2:0:0:
8,32,121633,1,0,0:0:0:0:
44,224,121833,1,2,3:0:0:0:
44,224,121933,2,0,L|56:324,1,95,2|2,0:3|3:0,0:0:0:0:
55,318,122233,2,0,P|119:287|167:311,1,95,0|2,3:2|0:3,0:0:0:0:
312,344,122633,5,2,1:2:0:0:
200,216,122833,1,2,0:0:0:0:
392,236,123033,1,0,1:0:0:0:
224,80,123233,1,0,3:3:0:0:
224,80,123333,1,0,0:0:0:0:
224,80,123433,1,10,1:3:0:0:
464,84,123633,1,0,0:0:0:0:
296,184,123833,2,0,L|304:120,1,47.5,10|0,1:2|0:0,0:0:0:0:
368,28,124033,2,0,L|376:88,1,47.5,2|0,3:2|0:0,0:0:0:0:
388,224,124233,1,4,3:2:0:0:
388,224,124633,6,2,P|356:192|280:228,1,130.625,2|0,0:0|0:0,0:3:0:0:
283,218,125233,2,0,L|288:296,2,66.4999979705811,2|2|2,0:0|0:0|0:0,0:0:0:0:
112,80,125833,6,0,P|20:116|-8:104,1,113.999996520996,0|10,1:0|0:0,0:0:0:0:
256,24,126233,1,0,1:0:0:0:
164,192,126433,2,0,P|140:260|156:316,1,113.999996520996,10|0,0:0|1:0,0:0:0:0:
396,212,126833,1,8,0:0:0:0:
252,264,127033,1,2,1:2:0:0:
416,196,127233,1,8,0:0:0:0:
232,280,127433,6,0,L|112:312,1,113.999996520996,2|8,1:0|0:0,0:0:0:0:
284,68,127833,2,0,L|304:196,1,113.999996520996,2|8,1:2|0:0,0:0:0:0:
44,76,128233,1,0,1:0:0:0:
208,168,128433,1,8,0:0:0:0:
152,40,128633,1,2,1:2:0:0:
96,208,128833,1,10,0:0:0:0:
252,80,129033,6,0,L|392:96,1,113.999996520996,2|8,1:2|0:0,0:0:0:0:
372,348,129433,1,0,1:0:0:0:
376,196,129633,2,0,P|336:176|264:204,1,113.999996520996,10|2,0:0|1:0,0:0:0:0:
148,352,130033,1,8,0:0:0:0:
304,284,130233,1,0,1:0:0:0:
156,156,130433,1,10,0:0:0:0:
148,340,130633,6,0,L|12:348,1,113.999996520996,2|8,1:2|0:0,0:0:0:0:
269,149,131033,2,0,L|133:157,1,113.999996520996,0|8,1:0|0:0,0:0:0:0:
304,284,131433,1,0,1:0:0:0:
352,120,131633,1,0,1:0:0:0:
352,120,131733,1,0,1:0:0:0:
352,120,131833,2,0,L|360:188,1,56.9999982604981,0|0,1:0|1:0,0:0:0:0:
256,212,132033,1,0,1:0:0:0:
256,212,132133,1,0,0:0:0:0:
256,212,132233,6,0,B|276:164|276:164|260:100,1,113.999996520996,4|10,1:2|0:0,0:0:0:0:
40,56,132633,1,0,1:0:0:0:
84,240,132833,2,0,L|108:372,1,113.999996520996,10|0,0:0|1:0,0:0:0:0:
144,104,133233,1,10,0:0:0:0:
24,152,133433,1,2,1:1:0:0:
184,24,133633,1,8,0:0:0:0:
172,240,133833,6,0,B|208:280|208:280|268:272,1,113.999996520996,2|8,1:2|0:0,0:0:0:0:
448,120,134233,1,2,1:2:0:0:
376,260,134433,2,0,B|345:304|345:304|366:360,1,113.999996520996,10|0,0:0|1:0,0:0:0:0:
480,228,134833,1,10,0:0:0:0:
320,160,135033,1,2,1:2:0:0:
168,336,135233,1,8,0:0:0:0:
184,200,135433,5,2,1:2:0:0:
28,348,135633,2,0,P|79:251|48:212,1,170.999994781494,8|0,0:0|0:0,0:0:0:0:
50,213,136033,1,10,0:0:0:0:
212,268,136233,1,2,1:2:0:0:
152,148,136433,1,8,0:0:0:0:
200,296,136633,1,2,1:0:0:0:
160,116,136833,1,10,0:0:0:0:
288,320,137033,6,0,L|472:340,1,170.999994781494,4|0,1:0|1:3,0:0:0:0:
468,312,137433,2,0,L|480:388,1,56.9999982604981,0|0,1:0|0:0,0:0:0:0:
296,208,137633,2,0,L|112:228,1,170.999994781494,4|0,0:0|0:0,0:0:0:0:
116,200,138033,1,0,1:0:0:0:
240,312,138233,1,8,0:0:0:0:
260,96,138433,1,0,1:0:0:0:
260,96,138533,1,0,1:0:0:0:
260,96,138633,5,6,1:0:0:0:
296,208,138833,1,10,0:0:0:0:
140,96,139033,1,0,1:0:0:0:
332,32,139233,2,8,L|456:44,1,113.999996520996,10|0,0:0|1:0,0:0:0:0:
204,20,139633,1,8,0:0:0:0:
376,136,139833,1,0,1:0:0:0:
140,96,140033,1,10,0:0:0:0:
308,240,140233,6,0,L|296:116,1,113.999996520996,2|8,1:2|0:0,0:0:0:0:
52,252,140633,2,0,P|124:324|120:356,1,113.999996520996,0|10,1:0|0:0,0:0:0:0:
56,96,141033,1,0,1:0:0:0:
176,172,141233,1,8,0:0:0:0:
344,48,141433,1,2,1:2:0:0:
168,72,141633,1,10,0:0:0:0:
360,24,141833,5,0,1:0:0:0:
144,88,142033,1,10,0:0:0:0:
292,204,142233,1,0,1:0:0:0:
244,16,142433,2,0,L|236:148,1,113.999996520996,10|0,0:0|1:0,0:0:0:0:
224,328,142833,1,10,0:0:0:0:
444,272,143033,1,2,1:2:0:0:
344,348,143233,1,8,0:0:0:0:
380,108,143433,5,2,1:0:0:0:
364,260,143633,1,8,0:0:0:0:
240,28,143833,1,0,1:0:0:0:
292,176,144033,1,8,0:0:0:0:
484,20,144233,1,0,1:0:0:0:
372,140,144433,1,0,1:0:0:0:
384,124,144533,1,0,0:0:0:0:
380,108,144633,2,0,L|372:40,1,56.9999982604981,0|0,1:0|1:0,0:0:0:0:
292,176,144833,1,0,1:0:0:0:
304,192,144933,1,0,0:0:0:0:
300,208,145033,6,0,L|160:212,1,113.999996520996,4|8,1:2|0:0,0:0:0:0:
32,104,145433,1,0,1:0:0:0:
128,280,145633,2,0,P|160:248|104:120,1,170.999994781494,10|0,0:0|0:0,0:0:0:0:
112,144,146033,5,10,0:0:0:0:
232,288,146233,1,2,1:0:0:0:
36,220,146433,2,0,L|48:352,1,113.999996520996,8|2,0:0|1:2,0:0:0:0:
136,52,146833,5,8,0:0:0:0:
144,208,147033,1,2,1:3:0:0:
340,88,147233,2,0,P|396:64|476:132,1,170.999994781494,10|0,0:0|0:0,0:0:0:0:
460,144,147633,5,2,1:0:0:0:
260,88,147833,1,2,1:2:0:0:
344,248,148033,1,8,0:0:0:0:
248,68,148233,6,0,L|116:84,1,113.999996520996,2|8,1:0|0:0,0:0:0:0:
340,272,148633,2,0,L|480:296,1,113.999996520996,2|8,1:2|0:0,0:0:0:0:
184,176,149033,1,10,1:3:0:0:
76,320,149233,1,8,1:2:0:0:
116,276,149333,1,0,1:0:0:0:
88,224,149433,1,0,1:0:0:0:
36,200,149533,1,0,1:0:0:0:
20,144,149633,1,8,1:2:0:0:
40,92,149733,1,0,1:2:0:0:
88,64,149833,6,0,L|200:76,1,95,2|0,1:2|0:0,0:0:0:0:
182,74,150433,2,0,B|158:130|158:130|178:270,1,190,2|0,0:0|1:0,0:0:0:0:
280,384,151033,2,0,L|296:164,1,190,8|4,0:0|0:0,0:0:0:0:
80,140,164233,6,0,P|104:88|232:96,1,190,4|8,0:0|0:0,0:0:0:0:
276,160,164766,1,2,0:0:0:0:
276,160,164833,2,0,B|260:200|260:200|268:276,1,95,0|0,3:0|0:0,0:0:0:0:
164,144,165233,1,0,1:0:0:0:
64,232,165433,2,0,L|-16:220,2,63.3333333333333,8|2|2,0:0|0:0|3:0,0:0:0:0:
72,56,165833,6,2,P|121:84|116:224,1,190,0|8,1:0|0:0,0:3:0:0:
48,152,166433,2,0,L|256:136,1,190,2|0,0:0|1:0,0:3:0:0:
392,20,167033,2,0,B|355:35|355:35|324:104,1,95,8|0,0:0|0:0,0:0:0:0:
448,156,167433,5,0,1:0:0:0:
448,156,167833,2,0,L|360:140,1,63.3333333333333,2|2,0:0|0:0,0:0:0:0:
360,124,168033,2,0,L|376:224,1,95,0|0,1:0|0:0,0:0:0:0:
320,48,168433,1,0,1:0:0:0:
248,148,168633,2,0,P|216:172|168:176,1,63.3333333333333,10|0,0:0|0:0,0:0:0:0:
172,172,168833,2,0,L|184:88,1,63.3333333333333,2|0,0:0|0:0,0:0:0:0:
196,68,169033,6,0,B|132:84|132:84|88:56|88:56|8:84,1,190,0|10,1:0|0:0,0:0:0:0:
304,32,169633,2,0,L|288:224,1,190,0|0,1:0|1:0,0:0:0:0:
144,324,170233,2,0,P|152:280|216:264,1,95,8|0,0:0|0:0,0:0:0:0:
312,336,170633,5,0,1:0:0:0:
312,336,171033,1,10,0:0:0:0:
376,260,171233,2,0,L|176:272,1,190,2|0,1:2|1:0,0:0:0:0:
184,116,171833,2,0,B|212:148|212:148|204:204,1,95,8|0,0:0|0:0,0:0:0:0:
92,328,172233,6,0,L|84:120,1,190,2|8,1:0|0:0,0:0:0:0:
272,28,172833,1,2,1:2:0:0:
264,152,173033,2,0,P|248:200|156:200,2,142.5,0|2|2,0:0|0:0|0:0,0:0:0:0:
416,92,173833,6,0,B|380:64|380:64|328:72,2,95,0|2|8,1:0|0:0|0:0,0:0:0:0:
224,32,174433,2,0,L|240:80,1,47.5,0|0,1:0|0:0,0:3:0:0:
141,127,174633,2,0,L|136:80,1,47.5
60,164,174833,2,0,L|40:236,1,47.5,2|0,1:2|0:0,0:0:0:0:
204,224,175033,2,0,L|216:296,1,47.5,8|0,0:0|0:0,0:0:0:0:
76,328,175233,2,0,L|88:252,1,47.5
200,216,175433,6,0,L|352:224,1,142.5,4|0,0:0|1:0,0:0:0:0:
368,228,175833,2,0,P|348:268|352:308,1,47.5,0|0,1:0|1:0,0:0:0:0:
452,132,176033,2,0,B|388:96|388:96|312:128,1,142.5,4|0,0:0|0:0,0:0:0:0:
304,140,176433,1,0,1:0:0:0:
196,16,176633,1,8,0:0:0:0:
196,16,177033,6,0,B|216:48|216:48|208:116,1,104.500003189087,12|0,0:0|0:0,0:0:0:0:
92,244,177433,2,0,B|84:178|84:178|104:146,1,104.500003189087,8|2,0:0|3:1,0:0:0:0:
184,344,177833,2,0,B|204:312|204:312|196:244,1,104.500003189087,8|0,0:0|0:0,0:0:0:0:
16,36,178233,2,0,B|8:103|8:103|28:135,1,104.500003189087,8|2,0:0|0:3,0:0:0:0:
256,188,178633,5,8,0:0:0:0:
256,188,178833,1,2,0:0:0:0:
328,296,179033,1,8,0:0:0:0:
416,128,179233,2,0,P|444:100|512:92,1,85.4999973907472,2|8,0:1|0:0,0:0:0:0:
332,164,179633,2,0,P|300:120|244:108,1,85.4999973907472,2|8,0:0|0:0,0:0:0:0:
80,256,180033,1,2,0:3:0:0:
76,16,180233,6,0,B|64:60|64:60|87:113,1,104.500003189087,10|2,0:0|0:0,0:0:0:0:
203,243,180634,2,0,B|215:287|215:287|191:340,1,104.500003189087,8|0,0:0|0:0,0:0:0:0:
192,16,181033,2,0,B|204:60|204:60|180:113,1,104.500003189087,8|0,0:0|0:0,0:0:0:0:
65,243,181434,2,0,B|53:287|53:287|77:340,1,104.500003189087,8|0,0:0|0:0,0:0:0:0:
256,192,181833,5,10,0:0:0:0:
256,192,182033,1,2,0:1:0:0:
296,328,182233,1,8,0:0:0:0:
372,168,182433,2,0,P|424:188|492:176,1,85.4999973907472,2|8,0:0|0:0,0:0:0:0:
288,320,182833,2,0,P|336:308|392:320,1,85.4999973907472,2|8,0:1|0:0,0:0:0:0:
80,328,183233,1,2,0:3:0:0:
175,228,183433,6,0,B|200:272|200:272|184:324,1,104.500003189087,8|0,3:2|0:0,0:0:0:0:
176,112,183833,2,0,B|201:69|201:69|185:17,1,104.500003189087,8|0,0:0|0:0,0:0:0:0:
64,340,184233,2,0,B|49:274|49:274|14:262,1,104.500003189087,10|0,0:0|0:0,0:0:0:0:
64,44,184633,2,0,B|49:110|49:110|14:122,1,104.500003189087,8|0,0:0|0:0,0:0:0:0:
256,192,185033,5,10,0:0:0:0:
256,192,185233,1,2,0:1:0:0:
352,96,185433,1,10,0:0:0:0:
440,224,185633,2,0,L|316:208,1,85.4999973907472,2|8,0:1|0:0,0:0:0:0:
352,96,186033,2,0,L|444:108,1,85.4999973907472,2|8,0:0|0:0,0:0:0:0:
148,8,186433,1,2,0:3:0:0:
80,208,186633,6,0,P|40:256|-28:268,1,104.500003189087,10|0,0:0|0:0,0:0:0:0:
176,92,187033,2,0,P|216:44|284:32,1,104.500003189087,8|2,0:0|0:3,0:0:0:0:
176,292,187433,2,0,P|216:340|284:352,1,104.500003189087,8|0,0:0|0:0,0:0:0:0:
1,74,187833,2,0,P|49:94|80:136,1,104.500003189087,8|2,0:0|0:0,0:0:0:0:
256,192,188233,5,10,0:0:0:0:
256,192,188433,2,0,L|320:184,1,52.2500015945435,2|0,1:0|1:0,0:0:0:0:
320,52,188633,2,0,L|312:120,1,52.2500015945435,0|0,1:0|1:0,0:0:0:0:
384,248,188833,2,0,L|396:60,1,170.999994781494,4|2,0:0|1:3,0:0:0:0:
296,264,189433,1,10,0:0:0:0:
200,40,189833,6,0,P|160:20|72:28,1,113.999996520996,12|0,0:2|0:0,0:0:0:0:
312,40,190233,2,0,P|352:20|440:28,1,113.999996520996,8|2,0:0|3:1,0:0:0:0:
176,128,190633,2,0,P|112:120|63:147,1,113.999996520996,8|0,0:0|0:0,0:0:0:0:
336,128,191033,2,0,P|400:120|449:147,1,113.999996520996,8|2,0:0|0:3,0:0:0:0:
300,328,191433,5,12,0:0:0:0:
268,212,191633,1,2,0:0:0:0:
148,232,191833,1,8,0:0:0:0:
176,352,192033,1,2,0:1:0:0:
208,284,192233,2,0,L|88:268,1,113.999996520996,10|0,0:0|3:2,0:0:0:0:
72,256,192499,2,0,L|84:216,2,37.9999988403321,2|2|8,3:0|3:0|3:0,0:0:0:0:
80,360,192833,1,2,3:0:0:0:
165,41,193033,6,0,L|136:152,1,113.999996520996,12|0,0:0|0:0,0:0:0:0:
346,41,193433,2,0,L|376:152,1,113.999996520996,8|2,0:0|0:3,0:0:0:0:
184,24,193833,2,0,L|72:40,1,113.999996520996,8|0,0:0|0:1,0:0:0:0:
327,24,194233,2,0,L|440:40,1,113.999996520996,8|2,0:0|0:1,0:0:0:0:
192,256,194633,5,12,0:0:0:0:
320,256,194833,1,2,0:0:0:0:
256,344,195033,1,8,0:0:0:0:
256,192,195233,1,2,0:1:0:0:
240,352,195433,2,0,L|120:336,1,113.999996520996,10|2,0:0|3:2,0:0:0:0:
120,324,195699,2,0,L|132:260,2,37.9999988403321,2|2|8,3:0|3:0|3:0,0:0:0:0:
304,292,196033,1,2,3:0:0:0:
168,20,196233,6,0,P|132:52|132:116,1,113.999996520996,14|0,0:0|3:0,0:0:0:0:
344,20,196633,2,0,P|380:52|380:116,1,113.999996520996,8|2,0:0|3:1,0:0:0:0:
136,132,197033,2,0,P|82:115|27:127,1,113.999996520996,8|0,0:0|3:1,0:0:0:0:
376,132,197433,2,0,P|429:115|484:127,1,113.999996520996,8|2,0:0|3:0,0:0:0:0:
112,292,197833,5,12,0:0:0:0:
256,332,198033,1,2,0:0:0:0:
280,220,198233,1,8,0:0:0:0:
256,364,198433,1,2,0:1:0:0:
360,336,198633,1,10,0:0:0:0:
188,212,198833,2,0,L|188:268,2,37.9999988403321,2|2|2,3:2|3:0|3:0,0:0:0:0:
176,188,199033,1,8,3:0:0:0:
164,336,199233,1,0,3:3:0:0:
80,92,199433,5,12,0:0:0:0:
104,216,199633,2,0,P|44:224|-12:176,1,113.999996520996,2|8,0:0|0:0,0:0:0:0:
264,64,200033,2,0,L|456:56,1,170.999994781494,2|0,0:0|0:0,0:0:0:0:
468,76,200433,1,2,0:1:0:0:
352,160,200633,1,8,0:0:0:0:
120,36,200833,6,2,B|180:148|64:168|144:296,1,227.999993041992,6|0,0:0|1:0,0:3:0:0:
448,164,201433,2,0,L|464:224,2,37.9999988403321,10|2|2,3:2|3:0|3:0,0:0:0:0:
396,240,201633,2,0,P|436:204|364:88,1,170.999994781494,4|0,3:2|0:0,0:0:0:0:
368,168,202033,2,0,L|308:184,1,56.9999982604981,2|0,0:0|0:0,0:0:0:0:
224,68,202233,2,0,L|236:140,1,56.9999982604981,8|2,0:0|0:0,0:0:0:0:
152,243,202433,1,2,0:0:0:0:
145,234,202533,1,2,0:0:0:0:
80,128,203233,5,2,0:0:0:0:
80,128,203333,1,0,0:0:0:0:
80,128,203433,1,0,0:0:0:0:
148,68,203633,1,0,0:0:0:0:
232,108,203833,1,0,0:0:0:0:
220,196,204033,1,0,0:0:0:0:
280,264,204233,1,2,0:0:0:0:
280,264,204633,6,0,P|316:224|456:240,2,190
280,264,205883,6,0,L|296:116,1,132.999995941162,2|2,0:0|0:0,0:0:0:0:
294,131,206683,2,0,B|256:140|224:132|236:120|200:100|152:120,1,132.999995941162,2|0,0:0|0:0,0:0:0:0:
124,216,207483,5,2,0:3:0:0:
124,216,207683,2,0,P|176:192|252:236,1,132.999995941162,2|0,0:0|0:0,0:0:0:0:
184,272,208283,1,2,0:0:0:0:
184,272,208683,1,0,0:0:0:0:
60,88,209083,6,0,L|196:84,1,132.999995941162,2|0,0:0|0:0,0:0:0:0:
192,84,209883,2,0,P|168:124|192:208,1,132.999995941162
344,84,210683,5,2,0:3:0:0:
344,84,210883,1,2,0:1:0:0:
344,84,211283,2,2,L|352:224,1,132.999995941162,2|0,0:0|0:0,0:3:0:0:
300,300,211883,2,0,P|272:272|232:272,1,66.4999979705811,2|0,0:0|0:0,0:0:0:0:
152,304,212283,6,0,P|200:260|184:200,1,132.999995941162,2|0,0:0|0:0,0:0:0:0:
184,200,213083,2,0,L|108:212,1,66.4999979705811
136,120,213483,1,2,0:0:0:0:
136,120,213683,1,2,0:0:0:0:
136,120,214083,5,2,0:0:0:0:
224,160,214283,1,0,0:0:0:0:
264,72,214483,1,2,0:0:0:0:
264,72,214833,2,0,L|300:64,3,22.1666659901937,0|2|2|8,3:0|3:0|3:0|3:0,0:0:0:0:
168,36,215233,6,0,L|156:176,1,132.999995941162
268,364,215833,2,0,P|280:312|68:232,1,332.499989852906
313,199,217033,6,0,P|271:237|269:366,1,190,4|0,0:0|0:0,0:3:0:0:
147,156,217633,2,0,P|201:139|313:201,1,190,4|0,0:0|0:0,0:0:0:0:
384,376,218233,2,2,L|380:276,1,95,0|0,0:0|0:0,0:3:0:0:
468,64,218633,6,0,B|500:104|500:104|480:232,1,170.999994781494,6|0,1:2|0:0,0:0:0:0:
472,256,219033,1,0,1:0:0:0:
260,120,219233,2,0,L|408:108,1,113.999996520996,10|0,0:0|1:0,0:0:0:0:
112,56,219633,1,8,1:2:0:0:
84,268,219833,1,0,1:0:0:0:
185,172,220033,1,8,0:0:0:0:
0,132,220233,6,0,P|72:148|120:220,1,113.999996520996,2|8,1:0|0:0,0:0:0:0:
268,28,220633,2,0,P|272:96|248:180,1,113.999996520996,0|10,1:0|0:0,0:0:0:0:
212,336,221033,1,8,1:3:0:0:
376,276,221233,1,8,0:0:0:0:
192,320,221433,1,2,1:2:0:0:
392,296,221633,1,10,0:0:0:0:
200,208,221833,5,2,1:0:0:0:
308,316,222033,1,10,0:0:0:0:
376,172,222233,1,0,1:0:0:0:
284,56,222433,2,0,B|332:120|260:156|304:224,1,170.999994781494,10|0,0:0|0:0,0:0:0:0:
344,252,222833,1,8,0:0:0:0:
200,128,223033,1,0,1:0:0:0:
172,328,223233,1,8,0:0:0:0:
16,204,223433,5,2,1:2:0:0:
192,244,223633,1,10,0:0:0:0:
60,52,223833,1,0,1:0:0:0:
104,232,224033,1,10,0:0:0:0:
196,24,224233,1,2,1:0:0:0:
316,152,224433,1,0,1:0:0:0:
308,104,224533,1,0,1:0:0:0:
344,72,224633,1,2,1:2:0:0:
244,256,224833,1,0,1:2:0:0:
252,304,224933,1,0,1:0:0:0:
216,336,225033,1,4,1:2:0:0:
120,168,225233,5,10,0:0:0:0:
296,144,225433,1,0,1:0:0:0:
360,320,225633,2,0,P|432:312|436:208,1,170.999994781494,10|0,0:0|0:0,0:0:0:0:
424,192,226033,5,10,0:0:0:0:
288,244,226233,1,0,1:0:0:0:
316,12,226433,2,0,B|288:60|308:120|336:104|364:124|352:192,1,170.999994781494,10|0,0:0|0:0,0:0:0:0:
352,208,226833,5,10,0:2:0:0:
400,32,227033,1,2,1:2:0:0:
232,168,227233,2,2,L|36:188,1,170.999994781494,10|0,0:0|0:0,0:3:0:0:
32,216,227633,5,8,0:0:0:0:
136,72,227833,1,2,1:2:0:0:
156,272,228033,1,10,0:2:0:0:
148,52,228233,2,0,L|12:40,1,113.999996520996,2|8,1:0|0:0,0:0:0:0:
280,12,228633,1,2,1:2:0:0:
240,184,228833,2,0,L|224:316,1,113.999996520996,10|0,0:0|1:0,0:0:0:0:
288,104,229233,2,0,L|424:92,1,113.999996520996,10|0,0:0|1:0,0:0:0:0:
112,192,229633,1,8,0:0:0:0:
180,84,229833,5,4,0:0:0:0:
180,84,230033,2,0,B|172:136|172:136|192:184|192:184|176:284,2,190,2|2|10,0:0|0:0|3:0,0:0:0:0:
328,220,231033,1,8,3:2:0:0:
328,220,231433,6,0,P|296:236|292:312,1,95,4|2,0:0|0:0,0:0:0:0:
464,136,231833,1,2,1:3:0:0:
464,136,231933,1,2,1:3:0:0:
464,136,232033,2,0,L|244:124,1,190,4|2,0:0|1:3,0:0:0:0:
400,16,232633,1,8,0:0:0:0:
268,208,232833,6,0,P|352:164|320:56,1,190,4|2,0:0|3:3,0:0:0:0:
116,148,233433,1,2,3:0:0:0:
116,148,233533,1,0,1:0:0:0:
116,148,233633,2,0,B|156:184|156:184|136:328,1,190,4|0,1:2|1:0,0:0:0:0:
12,224,234233,1,8,0:0:0:0:
12,224,234433,6,2,L|536:264,1,498.750019025803
332,140,236033,2,0,L|324:112,2,15.8333333333333,0|2|2,3:3|3:3|3:3,0:0:0:0:
400,84,236233,1,4,3:2:0:0:
400,84,237266,2,0,L|334:88,1,59.3750022649766,0|0,1:0|1:0,0:0:0:0:
52,76,237833,5,4,1:2:0:0:
224,292,238033,1,4,0:0:0:0:
28,48,238433,2,2,B|56:88|56:88|44:200,1,142.500005435944,4|0,0:0|0:0,0:3:0:0:
249,65,239033,2,2,P|197:54|152:80,1,106.875004076958,8|0,0:0|0:0,0:3:0:0:
208,136,239433,1,4,0:0:0:0:
208,136,240433,2,0,L|212:168,3,23.7500009059906,0|0|0|0,1:0|1:0|1:0|1:0,1:0:0:0:
460,76,241033,5,6,1:0:0:0:
288,292,241233,1,2,1:0:0:0:
484,48,241633,2,2,B|456:88|456:88|468:200,1,142.500005435944,12|0,1:2|0:0,0:3:0:0:
360,356,242233,2,0,L|364:240,1,106.875004076958,8|0,0:0|0:0,0:0:0:0:
440,308,242633,1,6,1:2:0:0:
440,308,243633,1,0,1:0:0:0:
440,308,243733,1,0,1:0:0:0:
440,308,243833,1,0,1:0:0:0:
104,132,244233,5,4,1:2:0:0:
332,256,244433,1,6,1:0:0:0:
72,64,244833,2,2,B|100:100|88:148|68:132|48:176|72:208,1,142.500005435944,6|0,1:0|0:0,0:3:0:0:
172,352,245433,2,2,L|180:232,1,106.875004076958,8|0,0:0|0:0,0:3:0:0:
264,224,245833,1,6,0:0:0:0:
276,240,246633,6,0,L|240:232,1,35.625001358986,0|0,1:0|1:0,0:0:0:0:
148,216,246833,2,0,L|160:272,1,35.625001358986,0|0,1:0|1:0,0:0:0:0:
264,212,247033,2,0,L|228:204,1,35.625001358986,0|0,1:0|1:0,0:0:0:0:
136,188,247233,2,0,L|148:244,1,35.625001358986,0|0,1:0|1:0,0:0:0:0:
224,316,247433,5,4,1:2:0:0:
192,56,247633,2,0,L|200:152,1,71.2500027179719,6|10,1:0|1:2,0:0:0:0:
440,132,248033,2,2,L|288:120,1,142.500005435944,6|0,1:0|0:0,0:3:0:0:
380,36,248633,1,10,1:3:0:0:
380,36,248733,1,0,0:0:0:0:
380,36,248833,1,2,0:3:0:0:
380,36,248933,1,2,0:3:0:0:
380,36,249033,5,4,1:2:0:0:
76,280,249433,1,8,0:0:0:0:
112,64,249633,1,4,0:0:0:0:
256,192,249733,12,0,253833,0:0:0:0:
