osu file format v14

[General]
AudioFilename: 01+-+Zetsubou+Restaurant.mp3
AudioLeadIn: 0
PreviewTime: 833
Countdown: 0
SampleSet: Soft
StackLeniency: 1
Mode: 0
LetterboxInBreaks: 0
WidescreenStoryboard: 1

[Editor]
Bookmarks: 68226,89026,95426,101826,108226,114626,151426,164226,177026,177833,182833,184633,189826,205826
DistanceSpacing: 1
BeatDivisor: 12
GridSize: 4
TimelineZoom: 2

[Metadata]
Title:Zetsubou Restaurant
TitleUnicode:絶望レストラン
Artist:Zetsubou Shoujotachi
ArtistUnicode:絶望少女達
Creator:Okoratu
Version:Hard
Source:懺・さよなら絶望先生
Tags:Anime Japanese Zetubou Ending Zan Sayonara Zetsubou Sensei Tanii Asuka Sanada Asami Gotou Yuuko Matsuki Miyu Okorin 谷井あすか 小森霧 真田アサミ 常月まとい 後藤邑子 小節あびる 松来未祐 藤吉晴美 komori kiri tsunetsuki matoi kobushi abiru fujiyoshi harumi
BeatmapID:1629267
BeatmapSetID:450762

[Difficulty]
HPDrainRate:7
CircleSize:4
OverallDifficulty:7
ApproachRate:8.2
SliderMultiplier:1.6
SliderTickRate:2

[Events]
//Background and Video events
0,0,"wh3.png",0,0
//Break Periods
2,89033,94683
2,151633,163483
//Storyboard Layer 0 (Background)
//Storyboard Layer 1 (Fail)
//Storyboard Layer 2 (Pass)
//Storyboard Layer 3 (Foreground)
//Storyboard Layer 4 (Overlay)
//Storyboard Sound Samples

[TimingPoints]
1033,400,4,2,3,60,1,0
1033,-125,4,2,3,60,0,0
4233,-100,4,2,3,60,0,0
4633,-100,4,2,3,60,0,0
4833,-100,4,2,3,60,0,0
6233,-100,4,2,3,60,0,0
6433,-100,4,2,3,60,0,0
7833,-100,4,2,3,60,0,0
8033,-100,4,2,3,60,0,0
9433,-100,4,2,3,60,0,0
9633,-100,4,2,3,60,0,0
11033,-100,4,2,3,60,0,0
11233,-100,4,2,3,60,0,0
13233,-100,4,2,3,80,0,0
13833,-100,4,2,3,60,0,0
17033,-100,4,2,3,80,0,0
18533,-100,4,2,3,80,0,0
18633,-100,4,2,3,80,0,0
22233,-100,4,2,3,80,0,0
28033,-100,4,2,3,80,0,0
28233,-100,4,2,3,80,0,0
33033,-100,4,2,3,80,0,0
35833,-100,4,2,3,80,0,0
35933,-100,4,2,3,50,0,0
36233,-100,4,2,3,80,0,0
38833,-100,4,2,3,80,0,0
39233,-100,4,2,3,80,0,0
42033,-100,4,2,3,80,0,0
42633,-100,4,2,3,80,0,0
45233,-100,4,2,3,80,0,0
45633,-100,4,2,3,80,0,0
52633,-200,4,2,3,30,0,0
52833,-200,4,2,5,15,0,0
53033,-200,4,2,3,5,0,0
53183,-200,4,2,3,80,0,0
53233,-142.857142857143,4,2,3,80,0,0
53433,-117.647058823529,4,2,3,80,0,0
53633,-100,4,2,3,80,0,0
53833,-83.3333333333333,4,2,3,80,0,1
54033,-83.3333333333333,4,2,3,80,0,1
55633,-83.3333333333333,4,2,4,80,0,1
55833,-83.3333333333333,4,2,3,80,0,1
66633,-83.3333333333333,4,2,3,80,0,1
66833,-83.3333333333333,4,2,3,80,0,1
68633,-83.3333333333333,4,2,3,80,0,1
77833,-100,4,2,3,80,0,0
79033,-100,4,2,3,80,0,0
83033,-100,4,2,3,50,0,0
83733,-100,4,2,3,80,0,0
86733,-100,4,2,3,30,0,0
87133,-100,4,2,3,80,0,0
88433,-133.333333333333,4,2,3,80,0,0
89033,-133.333333333333,4,2,3,80,0,0
95433,-100,4,2,3,80,0,0
107933,-100,4,2,3,50,0,0
108233,-100,4,2,3,80,0,0
113133,-100,4,2,3,50,0,0
113333,-100,4,2,3,80,0,0
124633,-200,4,2,3,30,0,0
124833,-200,4,2,5,15,0,0
125033,-200,4,2,3,5,0,0
125233,-142.857142857143,4,2,3,80,0,0
125433,-117.647058823529,4,2,3,80,0,0
125633,-100,4,2,3,80,0,0
125833,-83.3333333333333,4,2,3,80,0,1
129133,-83.3333333333333,4,2,4,80,0,1
129333,-83.3333333333333,4,2,3,80,0,1
149833,-100,4,2,3,80,0,0
177033,-90.9090909090909,4,2,3,80,0,0
179233,-111.111111111111,4,2,3,80,0,0
180233,-90.9090909090908,4,2,3,80,0,0
182433,-111.111111111111,4,2,3,80,0,0
183433,-90.9090909090909,4,2,3,80,0,0
185633,-111.111111111111,4,2,3,80,0,0
186633,-90.9090909090909,4,2,3,80,0,0
188833,-111.111111111111,4,2,3,80,0,0
189833,-83.3333333333333,4,2,3,80,0,0
203033,-83.3333333333333,4,2,3,30,0,0
204133,-83.3333333333333,4,2,3,50,0,0
204633,-100,4,2,3,50,0,0
205883,400,4,2,3,50,1,0
205883,-142.857142857143,4,2,3,50,0,0
214833,400,4,2,3,80,1,0
214833,-142.857142857143,4,2,3,80,0,0
215433,400,4,2,3,80,1,0
215433,-142.857142857143,4,2,3,80,0,0
217033,-100,4,2,3,80,0,0
218633,-83.3333333333333,4,2,3,80,0,1
229833,-100,4,2,3,80,0,0
234433,-133.333333333333,4,2,3,80,0,0
234633,-133.333333333333,4,2,3,20,0,0
235733,-133.333333333333,4,2,3,80,0,0
235833,-200,4,2,3,80,0,0
236733,-200,4,2,3,40,0,0
237233,-133.333333333333,4,2,3,30,0,0
237533,-133.333333333333,4,2,3,80,0,0
240333,-133.333333333333,4,2,3,30,0,0
240733,-133.333333333333,4,2,3,80,0,0
243533,-133.333333333333,4,2,3,30,0,0
243933,-133.333333333333,4,2,3,80,0,0
246533,-133.333333333333,4,2,3,40,0,0
247383,-133.333333333333,4,2,3,80,0,0
249033,-100,4,2,3,80,0,0
250133,-100,4,2,3,25,0,0
252233,-100,4,2,3,20,0,0
252933,-100,4,2,3,12,0,0
253483,-100,4,2,3,5,0,0

[Colours]
Combo1 : 210,82,214
Combo2 : 138,146,242
Combo3 : 75,194,183
Combo4 : 151,109,197

[HitObjects]
176,156,1033,6,0,L|168:72,1,64,0|2,0:0|0:0,0:0:0:0:
276,212,1633,2,0,L|268:256,2,32
344,160,2033,1,0,0:0:0:0:
420,192,2233,1,0,0:0:0:0:
408,108,2433,1,0,0:0:0:0:
408,108,2633,6,0,B|360:116|360:116|324:108|324:108|268:116,3,128,2|0|2|0,0:0|0:0|0:0|0:0,0:0:0:0:
88,80,4233,6,0,P|160:72|168:152,1,160,2|0,0:0|0:0,0:0:0:0:
256,208,4833,2,0,P|216:176|176:268,1,160
92,368,5433,2,0,P|96:323|78:287,1,80
8,120,5833,6,0,B|36:220|36:220|12:364,2,240,2|0|0,0:0|0:0|0:0,0:0:0:0:
196,176,7433,6,0,L|204:272,1,80,2|0,0:0|0:0,0:0:0:0:
288,304,7833,1,0,0:0:0:0:
288,304,8033,2,0,P|296:244|404:248,1,160,2|0,0:0|0:0,0:0:0:0:
472,288,8633,2,0,L|468:200,1,80
496,112,9033,6,0,B|412:128|412:128|376:108|376:108|256:128,2,240,2|0|2,0:0|0:0|0:0,0:0:0:0:
188,132,10633,5,2,0:0:0:0:
236,208,10833,1,0,0:0:0:0:
148,216,11033,1,2,0:0:0:0:
188,132,11233,2,0,L|196:316,1,160,0|2,0:0|0:0,0:0:0:0:
128,360,11833,1,0,0:0:0:0:
80,284,12033,2,0,L|84:248,3,26.6666666666667,8|8|8|8,0:3|0:3|0:3|0:3,0:0:0:0:
240,112,13233,5,2,0:0:0:0:
240,112,13433,2,0,L|144:120,1,80,2|0,0:0|0:0,0:0:0:0:
88,68,13833,6,0,B|120:108|120:108|100:224,3,160,0|8|0|8,3:3|0:3|3:3|3:0,0:0:0:0:
72,324,15233,1,0,3:0:0:0:
16,252,15433,1,0,3:0:0:0:
156,284,15633,1,0,3:0:0:0:
152,372,15833,1,0,3:0:0:0:
256,240,16033,1,0,0:0:0:0:
276,336,16233,1,0,0:0:0:0:
276,336,16333,2,0,L|420:328,1,120,2|2,0:0|0:0,0:0:0:0:
456,240,16833,1,0,0:0:0:0:
456,240,17033,6,0,L|352:248,1,80,6|2,0:0|0:3,0:0:0:0:
292,140,17433,2,0,L|304:256,1,80,0|2,0:0|0:3,0:0:0:0:
352,92,17833,2,0,P|312:64|260:72,1,80,0|2,0:0|0:3,0:0:0:0:
164,92,18233,2,2,B|160:160|192:144|180:232,1,120,2|0,0:0|0:0,0:0:0:0:
172,240,18633,5,2,0:0:0:0:
72,168,18833,1,2,0:0:0:0:
292,136,19233,1,2,0:3:0:0:
72,168,19633,1,2,0:3:0:0:
172,240,19833,1,2,0:0:0:0:
140,64,20033,1,10,0:2:0:0:
72,168,20233,6,0,P|112:160|176:152,1,80,2|2,0:0|0:3,0:0:0:0:
248,104,20633,2,0,P|256:148|256:212,1,80,2|2,0:0|0:3,0:0:0:0:
356,280,21033,2,0,P|348:236|348:172,1,80,0|2,0:0|0:3,0:0:0:0:
488,144,21433,1,0,0:0:0:0:
436,236,21633,6,0,L|444:268,3,26.6666666666667,10|0|0|8,0:3|3:0|3:0|0:3,0:0:0:0:
400,128,22033,1,2,0:3:0:0:
344,200,22233,1,8,0:0:0:0:
308,48,22433,2,0,L|140:64,1,160,4|2,0:0|0:3,0:0:0:0:
104,168,23033,2,0,L|204:160,1,80,10|2,0:2|0:0,0:0:0:0:
244,256,23433,6,0,P|236:300|244:352,1,80,0|2,0:0|0:3,0:0:0:0:
316,208,23833,2,0,P|336:256|380:292,1,80,0|2,0:0|0:3,0:0:0:0:
340,120,24233,2,0,P|400:148|448:144,1,80,0|2,0:0|0:3,0:0:0:0:
400,36,24633,2,0,L|264:44,1,120,2|0,0:0|0:0,0:0:0:0:
244,72,25033,5,2,0:0:0:0:
112,32,25233,1,2,0:3:0:0:
224,208,25633,1,2,0:3:0:0:
112,32,26033,1,2,0:3:0:0:
44,136,26233,1,2,0:0:0:0:
208,116,26433,1,8,0:0:0:0:
132,208,26633,6,0,L|136:308,1,80,2|2,0:0|0:3,0:0:0:0:
240,344,27033,2,0,L|248:240,1,80,0|2,0:0|0:3,0:0:0:0:
336,188,27433,2,0,L|344:276,1,80,2|2,0:0|0:3,0:0:0:0:
424,128,27833,1,2,0:3:0:0:
332,80,28033,6,0,L|296:84,3,26.6666666666667,2|2|2|8,0:3|3:3|3:3|0:3,0:0:0:0:
232,24,28433,1,2,0:0:0:0:
244,152,28633,1,8,1:2:0:0:
340,80,28833,2,0,P|320:128|340:260,1,160,4|2,0:0|0:3,0:0:0:0:
400,340,29433,2,0,L|292:332,1,80,2|2,0:3|0:0,0:0:0:0:
152,280,29833,6,0,P|216:260|248:280,1,80,4|2,0:0|0:0,0:0:0:0:
248,252,30133,2,0,L|256:324,1,40,0|0,0:0|1:0,0:0:0:0:
114,197,30433,2,0,B|88:224|92:284|132:280|104:352,1,160,4|0,1:2|1:0,0:0:0:0:
192,144,31033,1,2,1:2:0:0:
192,144,31233,6,0,L|32:154,1,160,14|2,1:2|1:2,0:0:0:0:
268,76,31833,1,0,1:0:0:0:
268,76,32033,2,0,P|272:128|236:256,1,160,4|2,1:2|0:0,0:0:0:0:
376,340,32633,2,0,P|360:296|360:244,1,80,8|2,0:0|0:0,0:0:0:0:
452,136,33033,5,0,3:0:0:0:
272,324,33433,1,0,3:0:0:0:
288,44,33833,1,0,3:0:0:0:
112,236,34233,1,0,3:0:0:0:
204,172,34433,1,8,3:0:0:0:
4,32,34833,1,0,3:2:0:0:
96,92,35033,1,0,3:2:0:0:
4,32,35233,2,0,P|28:100|4:212,1,160,6|0,3:2|3:0,0:0:0:0:
40,324,35833,1,0,0:0:0:0:
40,324,36233,6,0,P|68:280|196:288,1,160,2|2,0:0|3:0,0:0:0:0:
296,160,37033,2,0,P|368:188|368:276,1,160,2|8,0:0|3:0,0:0:0:0:
48,76,37833,5,2,0:0:0:0:
116,128,38033,1,0,0:0:0:0:
100,12,38233,1,8,0:3:0:0:
44,160,38433,2,2,B|52:212|52:212|80:228|80:228|88:324,1,160,8|2,0:3|3:0,0:3:0:0:
105,314,38933,1,0,0:0:0:0:
105,314,39033,2,0,L|199:304,1,80,2|0,3:2|3:0,0:0:0:0:
268,356,39433,6,0,P|239:301|287:192,1,160,2|2,0:0|0:3,0:0:0:0:
480,294,40233,2,0,B|398:260|410:317|304:277,1,160,2|8,0:0|0:3,0:0:0:0:
372,76,41033,6,0,P|380:120|376:168,2,80,2|2|8,0:0|0:0|0:3,0:0:0:0:
304,176,41633,2,2,L|492:164,1,160,2|2,0:0|3:2,0:3:0:0:
296,88,42233,1,8,3:0:0:0:
296,88,42433,1,2,0:0:0:0:
280,252,42633,6,0,P|260:284|188:288,1,80,4|0,0:0|0:0,0:0:0:0:
68,313,43033,2,0,P|100:293|108:241,1,80,2|0,0:3|0:0,0:0:0:0:
29,125,43433,2,0,L|41:13,1,80,2|0,0:0|0:0,0:0:0:0:
124,105,43833,2,0,L|240:121,1,80,2|0,0:3|0:0,0:0:0:0:
248,32,44233,5,2,3:2:0:0:
248,32,44433,2,0,P|228:88|240:224,1,160,2|2,0:0|0:0,0:0:0:0:
420,292,45233,1,2,3:2:0:0:
312,248,45433,1,8,3:0:0:0:
252,344,45633,1,2,0:0:0:0:
296,160,45833,5,4,1:2:0:0:
296,160,46433,5,0,1:2:0:0:
200,272,46633,1,4,1:2:0:0:
200,272,47233,5,0,1:2:0:0:
104,160,47433,1,4,1:2:0:0:
104,160,48033,5,0,1:2:0:0:
200,48,48233,2,0,L|299:57,1,80,4|0,1:2|0:0,0:0:0:0:
387,92,48633,1,0,1:2:0:0:
291,143,48833,1,0,1:2:0:0:
442,249,49033,6,0,L|258:233,1,160,4|0,0:0|3:0,0:0:0:0:
149,340,49633,1,2,0:0:0:0:
162,246,49833,1,2,3:0:0:0:
162,246,49933,2,0,L|178:118,1,120,0|10,3:0|3:0,0:0:0:0:
159,23,50433,1,2,0:0:0:0:
85,208,50633,6,0,L|-11:216,1,80,0|2,0:0|0:0,0:0:0:0:
246,96,51033,2,0,L|334:88,1,80,0|2,1:0|0:0,0:0:0:0:
163,250,51433,2,0,L|175:334,1,80,0|0,0:0|1:0,0:0:0:0:
369,282,51833,2,0,B|341:182|413:198|385:98,1,160,4|8,0:0|3:0,0:0:0:0:
391,128,52633,6,2,L|272:136,1,120,2|2,0:0|0:0,0:3:0:0:
164,200,53433,2,0,L|243:213,1,68.0000012969971,2|2,0:0|0:0,0:0:0:0:
472,288,53833,6,0,P|432:256|364:264,1,95.9999970703126,4|10,1:2|0:0,0:0:0:0:
264,288,54233,1,0,1:0:0:0:
320,192,54433,2,0,P|364:252|332:384,1,191.999994140625,10|10,0:0|0:0,0:0:0:0:
164,344,55033,1,0,1:0:0:0:
164,344,55233,1,10,0:0:0:0:
130,236,55433,6,0,P|186:224|286:336,1,191.999994140625,2|0,1:0|1:0,0:0:0:0:
164,344,56033,2,2,L|136:132,1,191.999994140625,10|10,0:0|0:0,0:3:0:0:
257,38,56633,1,0,1:0:0:0:
237,145,56833,1,10,0:0:0:0:
349,142,57033,6,0,L|469:134,1,95.9999970703126,2|8,1:0|0:0,0:0:0:0:
385,311,57433,1,10,1:3:0:0:
385,311,57633,2,0,P|325:303|281:351,1,95.9999970703126,10|0,0:0|1:0,0:0:0:0:
168,284,58033,1,10,0:0:0:0:
268,240,58233,1,0,1:0:0:0:
228,136,58433,1,10,0:0:0:0:
128,184,58633,6,0,L|20:192,1,95.9999970703126,2|8,1:0|0:0,0:0:0:0:
92,64,59033,2,0,L|196:56,1,95.9999970703126,2|8,1:2|0:0,0:0:0:0:
300,140,59433,1,0,1:0:0:0:
256,248,59633,2,0,P|252:276|252:316,2,47.9999985351563,8|0|0,0:0|1:0|1:0,0:0:0:0:
384,144,60033,2,0,P|388:172|388:212,2,47.9999985351563,8|0|4,0:0|1:0|1:2,0:0:0:0:
240,64,60433,5,10,0:0:0:0:
196,139,60633,1,0,1:0:0:0:
240,64,60833,2,0,L|64:76,1,143.999995605469,10|0,0:0|0:0,0:3:0:0:
52,96,61233,5,8,0:0:0:0:
97,197,61433,1,0,1:0:0:0:
97,197,61633,2,0,L|86:300,1,95.9999970703126,10|0,0:0|0:0,0:0:0:0:
196,360,62033,5,8,0:0:0:0:
233,273,62233,1,2,1:2:0:0:
196,360,62433,2,0,L|352:352,1,143.999995605469,10|0,0:0|0:0,0:0:0:0:
372,368,62833,5,8,0:0:0:0:
420,256,63033,2,0,L|304:264,1,95.9999970703126,2|10,1:2|0:0,0:0:0:0:
216,164,63433,1,0,1:0:0:0:
208,248,63633,5,10,0:0:0:0:
300,152,63833,1,0,1:0:0:0:
184,96,64033,2,2,P|136:108|16:104,1,143.999995605469,10|0,0:0|0:0,0:3:0:0:
41,108,64433,6,0,P|57:72|61:8,1,95.9999970703126,8|0,0:0|1:0,0:0:0:0:
108,208,64833,1,8,0:0:0:0:
108,208,65033,6,0,B|160:176|160:176|320:204,1,191.999994140625,0|0,1:0|1:0,0:0:0:0:
376,344,65633,2,0,B|324:312|324:312|164:340,1,191.999994140625,4|0,0:0|1:0,0:0:0:0:
92,284,66233,2,0,L|108:400,1,95.9999970703126,8|10,0:0|3:3,0:0:0:0:
184,248,66633,6,0,P|196:200|168:136,1,95.9999970703126,6|8,1:2|0:0,0:0:0:0:
100,60,67033,1,2,1:2:0:0:
100,60,67233,2,0,L|88:264,1,191.999994140625,10|10,0:0|0:0,0:0:0:0:
212,320,67833,1,0,1:0:0:0:
188,224,68033,1,10,0:0:0:0:
280,172,68233,6,0,L|408:184,1,95.9999970703126,2|8,1:0|0:0,0:0:0:0:
456,96,68633,2,0,L|464:228,1,95.9999970703126,0|10,1:0|0:0,0:0:0:0:
352,80,69033,2,0,L|236:72,1,95.9999970703126,0|8,1:0|0:0,0:0:0:0:
104,96,69433,1,2,1:0:0:0:
184,152,69633,1,10,0:2:0:0:
144,16,69833,6,0,L|36:20,1,95.9999970703126,2|10,1:2|0:0,0:0:0:0:
16,180,70233,1,0,1:0:0:0:
104,96,70433,2,2,P|160:96|184:228,1,191.999994140625,10|10,0:0|0:0,0:3:0:0:
76,260,71033,1,0,1:0:0:0:
128,176,71233,1,10,0:0:0:0:
180,292,71433,6,0,L|304:308,1,95.9999970703126,2|8,1:2|0:0,0:0:0:0:
412,196,71833,2,0,L|300:212,1,95.9999970703126,2|8,1:3|0:0,0:0:0:0:
252,36,72233,2,0,P|280:84|272:152,1,95.9999970703126,2|8,1:2|0:0,0:0:0:0:
208,232,72633,1,2,1:0:0:0:
184,108,72833,1,8,0:0:0:0:
184,108,72933,1,0,1:0:0:0:
184,108,73033,6,0,L|56:120,1,95.9999970703126,4|10,1:2|0:0,0:0:0:0:
24,184,73433,1,0,1:0:0:0:
116,36,73633,2,0,L|292:20,1,143.999995605469,10|0,0:0|0:0,0:0:0:0:
308,16,74033,2,0,P|280:60|296:132,1,95.9999970703126,10|0,0:0|1:0,0:0:0:0:
420,180,74433,6,0,P|328:168|304:228,1,143.999995605469,10|0,0:0|0:0,0:0:0:0:
284,212,74833,2,0,L|292:328,1,95.9999970703126,8|2,0:0|1:2,0:0:0:0:
404,371,75233,6,2,L|420:167,1,191.999994140625,10|10,0:0|0:0,0:3:0:0:
400,28,75833,1,0,1:0:0:0:
328,108,76033,1,10,0:0:0:0:
252,24,76233,6,0,P|192:24|160:60,1,95.9999970703126,2|8,1:2|0:0,0:0:0:0:
124,200,76633,2,0,P|176:164|184:112,1,95.9999970703126,0|8,1:0|0:2,1:0:0:0:
36,104,77033,2,0,L|44:244,1,95.9999970703126,2|2,1:2|3:3,0:0:0:0:
41,199,77333,1,2,3:3:0:0:
41,199,77433,1,8,1:2:0:0:
120,64,77633,6,0,L|116:8,2,47.9999985351563,8|0|6,0:0|1:0|1:2,0:0:0:0:
184,136,78033,2,0,B|256:148|256:148|276:136|276:136|372:152,2,160,2|2|0,0:0|3:0|1:0,0:0:0:0:
256,228,79033,2,0,P|276:284|260:324,1,80,8|2,0:0|0:0,0:0:0:0:
132,344,79433,6,0,L|140:244,1,80,4|2,0:0|0:0,0:0:0:0:
44,124,79833,1,8,0:0:0:0:
44,124,79933,1,0,0:0:0:0:
44,124,80033,2,2,L|52:288,1,160,4|2,0:0|1:3,0:3:0:0:
132,344,80633,1,2,1:3:0:0:
148,192,80833,5,4,1:2:0:0:
148,192,81233,1,2,1:2:0:0:
248,244,81433,1,0,1:0:0:0:
200,84,81633,5,4,0:0:0:0:
200,84,82033,1,0,3:0:0:0:
304,160,82233,2,0,L|432:148,1,120,8|0,1:2|0:0,0:0:0:0:
444,156,82633,1,6,1:0:0:0:
112,168,84233,5,6,0:2:0:0:
196,248,84433,2,0,L|208:80,2,160,6|6|2,0:1|1:0|0:3,0:0:0:0:
84,200,85433,2,2,L|92:324,1,120,2|0,0:0|0:0,0:3:0:0:
101,339,85833,1,6,0:1:0:0:
184,76,86833,2,0,L|180:120,2,40,0|2|2,1:0|1:3|1:3,0:0:0:0:
376,248,87433,5,4,0:0:0:0:
268,312,87633,1,6,0:1:0:0:
396,60,88033,2,2,P|364:144|364:384,1,320,6|0,0:1|0:0,0:3:0:0:
140,112,95433,6,0,L|152:200,1,80,4|2,0:0|0:3,0:0:0:0:
128,288,95833,2,0,L|48:297,1,80,2|0,0:0|0:0,0:0:0:0:
222,339,96233,2,0,L|212:260,1,80,2|2,0:3|0:3,0:0:0:0:
268,176,96633,2,0,L|364:164,1,80,2|2,0:0|0:3,0:0:0:0:
436,228,97033,5,2,0:0:0:0:
224,60,97433,1,2,0:0:0:0:
272,344,97833,1,2,0:0:0:0:
93,192,98233,1,2,0:0:0:0:
191,98,98433,1,8,0:0:0:0:
111,109,98633,6,0,L|27:117,1,80,2|2,0:0|0:3,0:0:0:0:
152,24,99033,2,0,L|240:16,1,80,2|2,0:0|0:3,0:0:0:0:
248,152,99433,2,0,L|232:252,1,80,2|2,0:0|0:3,0:0:0:0:
340,108,99833,2,0,L|324:8,1,80,2|8,0:0|0:0,0:0:0:0:
344,216,100233,5,2,1:2:0:0:
420,156,100433,1,2,1:3:0:0:
460,248,100633,1,0,1:0:0:0:
486,110,100833,2,0,B|430:78|430:78|318:114,1,160,6|2,0:2|0:3,0:0:0:0:
184,184,101433,2,0,L|292:196,1,80,8|2,0:0|0:3,0:0:0:0:
148,276,101833,5,4,1:2:0:0:
96,136,102033,1,2,0:2:0:0:
68,224,102233,1,8,0:2:0:0:
176,64,102433,1,4,1:2:0:0:
176,64,102833,5,2,1:2:0:0:
176,176,103033,1,0,1:0:0:0:
92,96,103233,1,6,0:0:0:0:
92,96,103633,6,0,L|100:148,2,40,2|0|0,1:2|0:0|1:0,0:0:0:0:
260,84,104033,1,6,1:2:0:0:
260,84,104433,6,0,L|248:196,2,80,2|8|2,0:0|0:0|0:0,0:0:0:0:
144,184,105033,5,2,1:3:0:0:
392,112,105433,1,0,3:0:0:0:
104,56,105833,1,10,3:0:0:0:
104,56,106233,5,0,3:0:0:0:
160,172,106433,1,0,3:0:0:0:
160,172,106833,5,0,3:0:0:0:
104,56,107033,1,0,3:0:0:0:
200,80,107233,2,0,L|188:248,1,160,6|2,3:2|3:2,0:0:0:0:
73,307,107833,1,2,3:2:0:0:
73,307,108233,6,0,P|85:267|209:255,1,160,2|2,0:0|3:3,0:0:0:0:
368,340,109033,2,0,B|284:372|280:296|188:340,1,160,2|8,0:0|0:3,0:0:0:0:
280,80,109833,5,2,0:0:0:0:
228,148,110033,1,0,0:0:0:0:
196,68,110233,1,2,3:3:0:0:
320,168,110433,2,0,B|388:172|388:172|396:184|396:184|488:188,1,160,2|2,2:2|3:2,0:0:0:0:
482,210,110933,1,0,0:0:0:0:
482,210,111033,2,0,L|469:315,1,80,8|2,3:3|0:3,0:0:0:0:
440,364,111433,6,0,P|408:296|312:320,1,160,2|2,0:0|3:0,0:0:0:0:
160,192,112233,2,0,L|176:380,1,160,2|2,0:3|3:3,0:0:0:0:
192,108,113033,6,0,P|224:128|240:172,2,80,2|2|2,0:0|0:1|3:0,0:0:0:0:
93,65,113633,2,0,L|252:44,1,160,0|2,0:0|3:2,0:0:0:0:
160,188,114233,1,8,3:0:0:0:
160,188,114433,1,2,0:3:0:0:
48,128,114633,6,0,L|40:236,1,80,4|2,0:0|0:0,0:0:0:0:
108,308,115033,2,0,L|216:296,1,80,0|2,0:0|2:2,0:0:0:0:
324,192,115433,2,0,L|216:204,1,80,2|2,0:3|0:0,0:0:0:0:
336,280,115833,1,2,3:0:0:0:
444,216,116033,1,0,0:0:0:0:
444,216,116133,1,0,0:0:0:0:
444,216,116233,1,2,0:0:0:0:
392,136,116433,6,0,L|408:308,2,160,2|2|2,0:0|0:0|3:2,0:0:0:0:
400,32,117433,1,8,3:0:0:0:
304,88,117633,1,2,0:0:0:0:
160,48,117833,1,4,1:2:0:0:
160,48,118433,5,0,1:0:0:0:
232,168,118633,1,4,1:2:0:0:
232,168,119233,5,0,1:0:0:0:
132,268,119433,1,4,1:2:0:0:
132,268,120033,5,0,1:2:0:0:
232,168,120233,2,0,L|340:180,1,80,4|2,1:2|0:0,0:0:0:0:
456,240,120633,1,2,1:2:0:0:
356,304,120833,1,0,1:0:0:0:
412,148,121033,6,0,P|408:96|292:80,1,160,4|2,1:2|1:2,0:0:0:0:
240,224,121633,1,0,0:0:0:0:
344,264,121833,1,2,3:0:0:0:
344,264,121933,2,0,L|336:132,1,120,2|0,0:3|3:2,0:0:0:0:
232,60,122433,1,2,0:3:0:0:
112,184,122633,6,0,L|224:168,1,80,2|2,1:2|0:0,0:0:0:0:
88,24,123033,2,0,L|104:116,1,80,0|0,1:0|3:3,0:0:0:0:
264,268,123433,2,0,L|272:152,1,80,10|0,1:3|0:0,0:0:0:0:
428,80,123833,2,0,L|320:96,1,80,10|2,1:2|3:2,0:0:0:0:
376,304,124233,5,4,3:2:0:0:
376,304,124633,2,2,L|380:177,1,120,2|2,0:0|0:0,0:3:0:0:
420,108,125433,2,0,L|332:104,1,68.0000012969971,2|2,0:0|0:0,0:0:0:0:
240,212,125833,5,0,1:0:0:0:
252,104,126033,2,0,P|224:56|172:48,1,95.9999970703126,10|0,0:0|1:0,0:0:0:0:
80,140,126433,2,0,L|208:128,1,95.9999970703126,10|0,0:0|1:0,0:0:0:0:
85,48,126833,1,8,0:0:0:0:
85,48,127033,1,2,1:2:0:0:
16,180,127233,1,8,0:0:0:0:
16,180,127433,6,0,L|28:300,1,95.9999970703126,2|8,1:0|0:0,0:0:0:0:
144,364,127833,2,0,L|152:236,1,95.9999970703126,2|8,1:2|0:0,0:0:0:0:
207,168,128233,1,0,1:0:0:0:
350,185,128433,1,8,0:0:0:0:
255,233,128633,1,2,1:2:0:0:
311,103,128833,1,10,0:0:0:0:
392,256,129033,6,0,L|408:52,1,191.999994140625,2|0,1:2|1:0,0:0:0:0:
476,260,129633,2,0,P|444:192|324:204,1,191.999994140625,10|8,0:0|0:0,0:0:0:0:
232,288,130233,1,0,1:0:0:0:
244,148,130433,1,10,0:0:0:0:
312,288,130633,6,0,L|420:300,1,95.9999970703126,2|8,1:2|0:0,0:0:0:0:
200,212,131033,2,0,L|92:220,1,95.9999970703126,0|8,1:0|0:0,0:0:0:0:
136,64,131433,1,0,1:0:0:0:
48,120,131633,2,0,P|40:152|36:188,2,47.9999985351563,0|0|0,1:0|0:0|1:0,0:0:0:0:
212,16,132033,2,0,P|220:48|224:84,2,47.9999985351563,0|0|4,1:0|0:0|1:2,0:0:0:0:
184,148,132433,5,10,0:0:0:0:
308,64,132633,1,0,1:0:0:0:
268,148,132833,2,0,L|260:312,1,143.999995605469,10|0,0:0|0:0,0:0:0:0:
272,321,133233,5,10,0:0:0:0:
188,248,133433,1,2,1:1:0:0:
196,356,133633,2,0,L|36:360,1,143.999995605469,8|0,0:0|0:0,0:0:0:0:
32,364,134033,6,0,P|52:304|44:240,1,95.9999970703126,8|2,0:0|1:2,0:0:0:0:
60,104,134433,2,0,P|64:168|164:208,1,143.999995605469,10|0,0:0|0:0,0:0:0:0:
172,200,134833,5,10,0:0:0:0:
268,120,135033,1,2,1:2:0:0:
164,96,135233,1,8,0:0:0:0:
272,228,135433,1,2,1:2:0:0:
272,228,135633,6,0,B|288:144|288:144|280:128|280:128|300:32,1,191.999994140625,8|10,0:0|0:0,0:0:0:0:
435,52,136233,1,2,1:2:0:0:
448,156,136433,1,8,0:0:0:0:
359,101,136633,1,2,1:0:0:0:
379,236,136833,1,10,0:0:0:0:
237,206,137033,6,0,L|223:96,1,95.9999970703126,4|0,1:0|0:0,0:0:0:0:
225,111,137333,1,0,1:3:0:0:
225,111,137433,1,0,1:0:0:0:
324,172,137633,2,0,B|272:216|272:216|140:180,1,191.999994140625,4|0,0:0|1:0,0:0:0:0:
42,330,138233,2,0,P|98:286|90:238,1,95.9999970703126,8|0,0:0|1:0,0:0:0:0:
36,152,138633,5,6,1:0:0:0:
124,108,138833,1,10,0:0:0:0:
96,16,139033,1,0,1:0:0:0:
8,60,139233,2,8,L|20:264,1,191.999994140625,10|8,0:0|0:0,0:0:0:0:
80,356,139833,1,0,1:0:0:0:
136,232,140033,1,10,0:0:0:0:
224,348,140233,6,0,L|336:372,1,95.9999970703126,2|8,1:2|0:0,0:0:0:0:
296,188,140633,2,0,L|360:284,1,95.9999970703126,0|10,1:0|0:0,0:0:0:0:
384,112,141033,1,0,1:0:0:0:
264,112,141233,1,8,0:0:0:0:
328,16,141433,1,2,1:2:0:0:
208,16,141633,1,10,0:0:0:0:
264,112,141833,6,0,P|280:164|272:220,1,95.9999970703126,0|10,1:0|0:0,0:0:0:0:
242,338,142233,1,0,1:0:0:0:
157,233,142433,2,0,L|389:247,1,191.999994140625,10|10,0:0|0:0,0:0:0:0:
487,252,143033,1,2,1:2:0:0:
409,341,143233,1,8,0:0:0:0:
430,171,143433,6,0,L|442:51,1,95.9999970703126,2|8,1:0|0:0,0:0:0:0:
274,26,143833,2,0,L|288:140,1,95.9999970703126,0|8,1:0|0:0,0:0:0:0:
226,249,144233,1,0,1:0:0:0:
168,123,144433,2,0,P|136:100|95:96,2,47.9999985351563,0|0|0,1:0|0:0|1:0,0:0:0:0:
85,254,144833,2,0,L|89:318,2,47.9999985351563,0|0|4,1:0|0:0|1:2,0:0:0:0:
18,74,145233,5,8,0:0:0:0:
82,164,145433,1,0,1:0:0:0:
110,20,145633,2,0,L|266:15,1,143.999995605469,10|0,0:0|0:0,0:0:0:0:
288,33,146033,5,10,0:0:0:0:
254,151,146233,1,2,1:0:0:0:
392,58,146433,2,0,L|493:65,1,95.9999970703126,8|2,0:0|1:2,0:0:0:0:
492,157,146833,5,8,0:0:0:0:
432,274,147033,1,2,1:3:0:0:
393,190,147233,2,0,L|386:335,1,143.999995605469,10|0,0:0|0:0,0:0:0:0:
362,362,147633,5,2,1:0:0:0:
287,269,147833,1,2,1:2:0:0:
208,357,148033,1,8,0:0:0:0:
129,279,148233,2,0,L|10:286,1,95.9999970703126,2|8,1:0|0:0,0:0:0:0:
163,142,148633,2,0,L|268:149,1,95.9999970703126,2|8,1:2|0:0,0:0:0:0:
377,104,149033,1,10,1:3:0:0:
308,235,149233,2,0,L|298:315,2,47.9999985351563,8|0|0,1:2|1:0|1:0,0:0:0:0:
210,65,149633,1,8,1:2:0:0:
210,65,149733,1,0,1:2:0:0:
210,65,149833,1,2,1:2:0:0:
163,142,150033,6,0,P|222:160|295:84,2,160,0|2|0,0:0|0:0|1:0,0:0:0:0:
266,25,151033,2,0,L|384:37,1,80,8|2,0:0|0:0,0:0:0:0:
467,122,151433,1,4,0:0:0:0:
110,103,164233,6,0,L|288:88,1,160,4|8,0:0|0:0,0:0:0:0:
176,15,164833,2,0,L|191:190,1,160,0|0,3:0|1:0,0:0:0:0:
246,272,165433,2,0,L|152:254,1,80,8|0,0:0|0:0,0:0:0:0:
281,198,165833,6,2,B|318:178|318:178|456:200,1,160,0|8,1:0|0:0,0:3:0:0:
400,262,166433,2,0,P|363:217|420:123,1,160,2|0,0:0|1:0,0:3:0:0:
481,92,167033,1,8,0:0:0:0:
481,92,167233,1,0,0:0:0:0:
380,34,167433,5,0,1:0:0:0:
250,274,167833,1,2,0:0:0:0:
231,177,168033,2,0,P|183:132|101:171,1,160,0|0,1:0|1:0,0:0:0:0:
56,236,168633,2,0,L|166:248,1,80,10|2,0:0|0:0,0:0:0:0:
1,148,169033,6,0,B|29:190|29:190|11:297|18:317,1,160,0|10,1:0|0:0,0:0:0:0:
85,354,169633,1,0,1:0:0:0:
147,53,170033,1,0,1:0:0:0:
162,148,170233,1,8,0:0:0:0:
233,17,170433,1,0,0:0:0:0:
147,53,170633,6,0,L|320:50,1,160,0|10,1:0|0:0,0:0:0:0:
403,87,171233,2,0,P|346:65|318:158,1,160,2|0,1:2|1:0,0:0:0:0:
283,221,171833,2,0,L|383:208,1,80,8|0,0:0|0:0,0:0:0:0:
208,166,172233,5,2,1:0:0:0:
344,348,172633,1,8,0:0:0:0:
277,295,172833,2,0,L|110:313,1,160,2|0,1:2|1:0,0:0:0:0:
44,361,173433,1,8,0:0:0:0:
44,361,173633,1,0,0:0:0:0:
44,201,173833,6,0,P|57:233|41:288,2,80,0|2|8,1:0|0:0|0:0,0:0:0:0:
0,120,174433,2,2,L|184:106,1,160,0|0,1:0|1:0,0:3:0:0:
241,19,175033,2,0,L|253:122,1,80,8|0,0:0|0:0,0:0:0:0:
260,200,175433,5,4,0:0:0:0:
346,145,175633,1,0,1:0:0:0:
346,145,175733,1,0,1:0:0:0:
346,145,175833,1,0,1:0:0:0:
339,280,176033,2,0,P|377:313|490:309,1,160,4|0,0:0|1:0,0:0:0:0:
416,162,176633,2,0,L|421:263,1,80,8|2,0:0|0:0,0:0:0:0:
476,78,177033,6,0,L|366:89,1,88.000002685547,12|0,0:0|0:0,0:0:0:0:
284,27,177433,2,0,L|297:127,1,88.000002685547,8|2,0:0|3:1,0:0:0:0:
200,77,177833,2,0,L|90:66,1,88.000002685547,8|0,0:0|0:0,0:0:0:0:
32,1,178233,2,0,L|24:99,1,88.000002685547,8|2,0:0|0:3,0:0:0:0:
21,244,178633,5,8,0:0:0:0:
21,244,178833,1,2,0:0:0:0:
104,187,179033,1,8,0:0:0:0:
104,187,179233,2,0,L|195:192,1,71.9999978027344,2|8,0:1|0:0,0:0:0:0:
233,342,179633,2,0,L|232:270,1,71.9999978027344,2|8,0:0|0:0,0:0:0:0:
282,130,180033,2,0,L|288:216,1,71.9999978027344,2|10,0:3|0:0,0:0:0:0:
373,284,180433,5,2,0:0:0:0:
451,194,180633,2,0,L|341:207,1,88.000002685547,8|0,0:0|0:0,0:0:0:0:
409,84,181033,2,0,L|505:73,1,88.000002685547,8|0,0:0|0:0,0:0:0:0:
280,19,181433,2,0,L|292:128,1,88.000002685547,8|0,0:0|0:0,0:0:0:0:
213,168,181833,5,10,0:0:0:0:
150,94,182033,1,2,0:1:0:0:
122,190,182233,1,8,0:0:0:0:
191,260,182433,2,0,L|271:255,1,71.9999978027344,2|8,0:0|0:0,0:0:0:0:
367,271,182833,2,0,L|373:366,1,71.9999978027344,2|8,0:1|0:0,0:0:0:0:
251,333,183233,2,0,L|179:337,1,71.9999978027344,2|8,0:3|3:2,0:0:0:0:
56,345,183633,5,0,0:0:0:0:
61,218,183833,2,0,P|101:244|113:293,1,88.000002685547,8|0,0:0|0:0,0:0:0:0:
97,122,184233,2,0,L|-7:133,1,88.000002685547,10|0,0:0|0:0,0:0:0:0:
100,20,184633,2,0,L|207:35,1,88.000002685547,8|0,0:0|0:0,0:0:0:0:
295,41,185033,5,10,0:0:0:0:
241,128,185233,1,2,0:1:0:0:
186,214,185433,1,10,0:0:0:0:
261,148,185633,2,0,L|341:141,1,71.9999978027344,2|8,0:1|0:0,0:0:0:0:
421,26,186033,2,0,L|404:105,1,71.9999978027344,2|8,0:0|0:0,0:0:0:0:
439,247,186433,2,0,L|400:160,1,71.9999978027344,2|10,0:3|0:0,0:0:0:0:
276,240,186833,5,0,0:0:0:0:
307,332,187033,2,0,L|394:324,1,88.000002685547,8|2,0:0|0:3,0:0:0:0:
252,242,187433,2,0,L|139:252,1,88.000002685547,8|0,0:0|0:0,0:0:0:0:
44,353,187833,2,0,L|131:345,1,88.000002685547,8|2,0:0|0:0,0:0:0:0:
12,219,188233,5,10,0:0:0:0:
90,258,188433,2,0,L|97:194,2,44.0000013427735,2|0|0,1:0|1:0|1:0,0:0:0:0:
79,114,188833,2,0,L|91:273,1,143.999995605469,4|2,0:0|1:3,0:0:0:0:
172,147,189433,1,10,0:0:0:0:
172,147,189833,6,0,L|153:25,1,95.9999970703126,12|0,0:2|0:0,0:0:0:0:
258,185,190233,2,0,L|284:61,1,95.9999970703126,8|2,0:0|3:1,0:0:0:0:
334,262,190633,2,0,L|400:155,1,95.9999970703126,8|0,0:0|0:0,0:0:0:0:
362,360,191033,2,0,L|459:318,1,95.9999970703126,8|2,0:0|0:3,0:0:0:0:
482,149,191433,5,12,0:0:0:0:
466,238,191633,1,2,0:0:0:0:
405,94,191833,1,8,0:0:0:0:
391,187,192033,2,0,L|259:179,1,95.9999970703126,2|10,0:1|0:0,0:0:0:0:
201,103,192433,2,0,L|212:226,1,95.9999970703126,0|8,3:2|3:0,0:0:0:0:
165,363,192833,1,2,3:0:0:0:
61,240,193033,6,0,P|104:266|107:327,1,95.9999970703126,12|0,0:0|0:0,0:0:0:0:
253,261,193433,2,0,P|254:322|226:360,1,95.9999970703126,8|2,0:0|0:3,0:0:0:0:
200,188,193833,2,0,L|318:171,1,95.9999970703126,8|0,0:0|0:1,0:0:0:0:
426,105,194233,2,0,L|297:90,1,95.9999970703126,8|2,0:0|0:1,0:0:0:0:
190,16,194633,5,12,0:0:0:0:
156,143,194833,1,2,0:0:0:0:
156,143,195033,1,8,0:0:0:0:
68,33,195233,2,0,L|81:143,1,95.9999970703126,2|10,0:1|0:0,0:0:0:0:
81,243,195633,2,0,L|69:349,1,95.9999970703126,2|8,3:2|3:0,0:0:0:0:
184,219,196033,1,2,3:0:0:0:
261,329,196233,6,0,P|316:351|366:334,1,95.9999970703126,14|0,0:0|3:0,0:0:0:0:
412,236,196633,2,0,L|297:247,1,95.9999970703126,8|2,0:0|3:1,0:0:0:0:
265,121,197033,2,0,L|386:130,1,95.9999970703126,8|0,0:0|3:1,0:0:0:0:
464,32,197433,2,0,L|330:49,1,95.9999970703126,8|2,0:0|3:0,0:0:0:0:
254,20,197833,5,12,0:0:0:0:
254,20,198033,2,0,P|271:91|258:137,1,95.9999970703126,2|8,0:0|0:0,0:0:0:0:
64,92,198433,2,0,P|110:67|186:77,1,95.9999970703126,2|10,0:1|0:0,0:0:0:0:
250,215,198833,1,2,3:2:0:0:
166,156,199033,2,0,L|180:319,1,143.999995605469,8|0,3:0|0:0,0:0:0:0:
172,348,199433,5,12,0:0:0:0:
83,257,199633,2,0,P|43:230|-30:248,1,95.9999970703126,2|8,0:0|0:0,0:0:0:0:
186,366,200033,2,0,L|312:356,1,95.9999970703126,2|8,0:0|0:0,0:0:0:0:
393,261,200433,1,2,0:1:0:0:
376,377,200633,1,8,0:0:0:0:
471,214,200833,6,2,L|170:231,1,287.999991210938,6|10,0:0|3:2,0:3:0:0:
141,127,201633,2,0,P|218:126|112:325,1,431.999986816407,4|0,3:2|0:0,0:0:0:0:
186,230,203233,6,0,P|176:246|150:273,2,47.9999985351563,2|0|0,0:0|0:0|0:0,0:0:0:0:
189,142,203633,1,0,0:0:0:0:
189,142,203833,1,0,0:0:0:0:
104,165,204033,1,0,0:0:0:0:
104,165,204233,1,2,0:0:0:0:
260,62,204633,6,0,L|276:255,2,160
199,276,205883,6,0,P|137:258|93:285,1,111.999996582031,2|2,0:0|0:0,0:0:0:0:
98,279,206683,2,0,L|107:167,1,111.999996582031,2|0,0:0|0:0,0:0:0:0:
53,67,207483,1,2,0:3:0:0:
53,67,207683,2,0,B|142:93|118:16|232:66,1,167.999994873047,2|2,0:0|0:0,0:0:0:0:
293,125,208683,1,0,0:0:0:0:
254,220,209083,6,0,P|247:262|267:335,1,111.999996582031,2|0,0:0|0:0,0:0:0:0:
263,328,209883,2,0,L|391:321,1,111.999996582031
451,227,210683,1,2,0:3:0:0:
451,227,210883,2,0,B|438:175|460:166|446:101,2,111.999996582031,2|2|0,0:1|0:0|0:0,0:0:0:0:
457,304,211883,2,0,P|427:268|342:263,1,111.999996582031,2|2,0:0|0:0,0:0:0:0:
277,296,212483,5,0,0:0:0:0:
277,296,212683,1,0,0:0:0:0:
288,206,212883,1,2,0:0:0:0:
152,93,213283,5,0,0:0:0:0:
152,93,213483,1,2,0:0:0:0:
165,181,213683,1,2,0:0:0:0:
342,18,214083,5,2,0:0:0:0:
275,66,214283,1,0,0:0:0:0:
349,104,214483,1,2,0:0:0:0:
337,260,214833,6,0,L|326:184,1,55.9999982910157,0|8,3:0|3:0,0:0:0:0:
409,159,215233,2,0,L|405:237,1,55.9999982910157,0|2,0:0|0:0,0:0:0:0:
489,228,215633,2,0,L|477:146,1,55.9999982910157
499,76,216033,6,2,L|256:93,1,223.999993164063,0|0,0:0|0:0,0:3:0:0:
189,62,217033,6,0,B|269:104|269:104|250:264,2,240,4|4|0,0:0|0:0|0:0,0:3:0:0:
88,316,218633,6,0,P|120:296|196:324,1,95.9999970703126,6|8,1:2|0:0,0:0:0:0:
280,336,219033,1,0,1:0:0:0:
117,186,219233,2,0,P|177:194|137:314,1,191.999994140625,10|8,0:0|1:2,0:0:0:0:
28,204,219833,1,0,1:0:0:0:
8,104,220033,1,8,0:0:0:0:
112,48,220233,6,0,L|208:56,1,95.9999970703126,2|8,1:0|0:0,0:0:0:0:
336,128,220633,2,0,L|216:136,1,95.9999970703126,0|10,1:0|0:0,0:0:0:0:
424,52,221033,2,0,L|421:147,1,95.9999970703126,8|8,1:3|0:0,0:0:0:0:
376,336,221433,1,2,1:2:0:0:
312,240,221633,1,10,0:0:0:0:
236,328,221833,6,0,P|176:336|136:308,1,95.9999970703126,2|10,1:0|0:0,0:0:0:0:
96,160,222233,1,0,1:0:0:0:
24,248,222433,2,0,L|236:228,1,191.999994140625,10|8,0:0|0:0,0:0:0:0:
328,156,223033,1,0,1:0:0:0:
196,124,223233,1,8,0:0:0:0:
304,240,223433,6,0,P|344:288|352:340,1,95.9999970703126,2|10,1:2|0:0,0:0:0:0:
423,150,223833,2,0,L|295:158,1,95.9999970703126,0|10,1:0|0:0,0:0:0:0:
168,160,224233,1,2,1:0:0:0:
264,40,224433,2,0,L|272:120,2,47.9999985351563,0|0|2,1:0|1:0|1:2,0:0:0:0:
224,220,224833,2,0,L|219:267,2,47.9999985351563,0|0|4,1:2|1:0|1:2,0:0:0:0:
32,168,225233,5,10,0:0:0:0:
140,280,225433,1,0,1:0:0:0:
100,200,225633,2,0,P|112:252|92:368,1,143.999995605469,10|0,0:0|0:0,0:0:0:0:
92,356,226033,2,0,L|-12:336,1,95.9999970703126,10|0,0:0|1:0,0:0:0:0:
224,260,226433,6,0,B|296:240|292:320|380:280,1,143.999995605469,10|0,0:0|0:0,0:0:0:0:
388,280,226833,1,10,0:2:0:0:
320,176,227033,1,2,1:2:0:0:
412,40,227233,6,2,L|400:196,1,143.999995605469,10|0,0:0|0:0,0:3:0:0:
420,212,227633,1,8,0:0:0:0:
512,168,227833,1,2,1:2:0:0:
456,300,228033,1,10,0:2:0:0:
328,228,228233,6,0,P|256:228|216:264,1,95.9999970703126,2|8,1:0|0:0,0:0:0:0:
120,88,228633,2,0,L|136:212,1,95.9999970703126,2|10,1:2|0:0,0:0:0:0:
48,328,229033,2,0,L|56:200,1,95.9999970703126,0|10,1:0|0:0,0:0:0:0:
24,94,229433,2,0,L|140:86,1,95.9999970703126,0|8,1:0|0:0,0:0:0:0:
224,184,229833,5,4,0:0:0:0:
224,184,230033,2,0,B|236:244|236:244|216:268|216:268|236:356,2,160,2|2|10,0:0|0:0|3:0,0:0:0:0:
324,76,231033,2,0,L|312:188,1,80,8|2,3:2|0:0,0:0:0:0:
400,296,231433,5,4,0:0:0:0:
408,180,231633,1,2,0:0:0:0:
408,180,231733,1,0,1:0:0:0:
408,180,231833,1,2,1:3:0:0:
304,280,232033,2,0,P|228:320|136:288,1,160,4|2,0:0|1:3,0:0:0:0:
48,136,232633,1,8,0:0:0:0:
104,220,232833,6,0,B|124:272|124:272|104:320|100:404,1,160,4|2,0:0|3:3,0:0:0:0:
24,276,233433,1,2,3:0:0:0:
24,276,233533,1,0,1:0:0:0:
24,276,233633,2,0,L|36:128,1,120,4|0,1:2|0:0,0:0:0:0:
20,128,234033,1,0,1:0:0:0:
112,184,234233,1,8,0:0:0:0:
112,92,234433,6,2,B|168:24|316:68|260:228|232:180|148:288|260:384|400:380|404:264,1,540.000020599366,2|4,0:0|3:2,0:0:0:0:
76,252,237266,6,0,L|81:307,1,50.0000019073487,0|0,1:0|1:0,0:0:0:0:
352,144,237833,1,4,1:2:0:0:
268,268,238033,1,4,0:0:0:0:
152,28,238433,2,2,B|184:64|184:64|172:148,1,120.000004577637,4|0,0:0|0:0,0:3:0:0:
240,224,239033,2,2,L|128:212,1,90.0000034332277,8|0,0:0|0:0,0:3:0:0:
140,224,239433,5,4,0:0:0:0:
392,80,240433,2,0,L|400:108,3,20.0000007629395,0|0|0|0,1:0|1:0|1:0|1:0,1:0:0:0:
256,316,241033,1,6,1:0:0:0:
312,176,241233,1,2,1:0:0:0:
64,256,241633,2,2,L|200:244,1,120.000004577637,12|0,1:2|0:0,0:3:0:0:
264,200,242233,2,0,P|256:240|280:304,1,90.0000034332277,8|0,0:0|0:0,0:0:0:0:
280,304,242633,5,6,1:2:0:0:
40,40,243633,2,0,L|32:84,2,30.0000011444092,0|0|0,1:0|1:0|1:0,1:0:0:0:
96,292,244233,1,4,1:2:0:0:
172,148,244433,1,6,1:0:0:0:
308,328,244833,2,2,L|184:312,1,120.000004577637,6|0,1:0|0:0,0:3:0:0:
336,232,245433,2,2,L|432:244,1,90.0000034332277,8|0,0:0|0:0,0:3:0:0:
440,256,245833,5,6,0:0:0:0:
208,72,246633,2,0,L|176:88,3,30.0000011444092,0|0|0|0,1:0|1:0|1:0|1:0,0:0:0:0:
136,72,247033,2,0,L|132:112,3,30.0000011444092,0|0|0|0,1:0|1:0|1:0|1:0,0:0:0:0:
104,132,247433,5,4,1:2:0:0:
32,40,247633,1,6,1:0:0:0:
56,208,247833,1,10,1:2:0:0:
225,141,248033,2,2,B|297:109|321:181|409:141,1,180.000006866455,6|10,1:0|1:3,0:3:0:0:
356,304,249033,6,0,P|304:300|264:200,1,160,4|8,1:2|0:0,0:0:0:0:
352,64,249633,2,0,L|340:232,1,160,4|0,0:0|0:0,0:0:0:0:
256,192,250133,12,0,253833,0:0:0:0:
