osu file format v14

[General]
AudioFilename: audio.mp3
AudioLeadIn: 0
PreviewTime: 164212
Countdown: 0
SampleSet: Soft
StackLeniency: 0.7
Mode: 0
LetterboxInBreaks: 0
WidescreenStoryboard: 1

[Editor]
Bookmarks: 16912,89012,176912
DistanceSpacing: 0.6
BeatDivisor: 4
GridSize: 16
TimelineZoom: 0.8

[Metadata]
Title:Zetsubou Restaurant
TitleUnicode:絶望レストラン
Artist:Zetsubou Shoujotachi
ArtistUnicode:絶望少女達
Creator:CoLouRed GlaZeE
Version:Dy
Source:懺・さよなら絶望先生
Tags:Dynamix
BeatmapID:1558009
BeatmapSetID:731780

[Difficulty]
HPDrainRate:6
CircleSize:4
OverallDifficulty:8
ApproachRate:9
SliderMultiplier:1.6
SliderTickRate:1

[Events]
//Background and Video events
0,0,"ze.png",0,0
//Break Periods
//Storyboard Layer 0 (Background)
//Storyboard Layer 1 (Fail)
//Storyboard Layer 2 (Pass)
//Storyboard Layer 3 (Foreground)
//Storyboard Sound Samples

[TimingPoints]
1012,400,4,2,0,70,1,0
29812,-66.6666666666667,4,2,0,70,0,0
30412,-100,4,2,0,70,0,0
45812,-200,4,2,0,70,0,0
46412,-100,4,2,0,70,0,0
46612,-200,4,2,0,70,0,0
47212,-100,4,2,0,70,0,0
47412,-200,4,2,0,70,0,0
48012,-100,4,2,0,70,0,0

[HitObjects]
67,162,1012,5,0,0:0:0:0:
67,162,1212,2,0,P|141:162|179:107,1,120
256,167,1612,2,0,P|261:120|252:101,1,40
216,49,1812,5,0,0:0:0:0:
261,187,2012,1,0,0:0:0:0:
397,222,2212,1,0,0:0:0:0:
498,139,2412,1,0,0:0:0:0:
434,76,2612,6,0,L|405:81,1,20
150,128,3012,2,0,L|179:133,1,20
391,164,3412,2,0,L|362:169,1,20
301,223,3612,6,0,B|292:231|289:248|289:248|300:270|305:329,2,80
450,180,4212,6,0,L|361:165,1,80
131,226,4612,2,0,P|193:216|213:195,1,80
250,119,5012,1,0,0:0:0:0:
250,119,5212,2,0,L|161:104,1,80
85,142,5612,1,0,0:0:0:0:
329,82,5812,2,0,L|152:108,1,160
176,12,6412,1,0,0:0:0:0:
407,199,6612,2,0,B|455:163|423:85|423:85|420:115|412:138,1,160
434,299,7412,6,0,L|350:288,1,80
269,240,7812,1,0,0:0:0:0:
113,348,8012,6,0,P|153:320|232:331,1,120
241,336,8412,2,0,B|206:330|206:330|192:335|192:335|144:327,2,80
269,240,9012,2,0,L|254:70,1,160
326,18,9612,1,0,0:0:0:0:
221,164,9812,2,0,B|174:151|142:172|142:172|105:195|55:183,1,160
90,93,10612,5,0,0:0:0:0:
181,105,10812,1,0,0:0:0:0:
141,269,11012,5,0,0:0:0:0:
50,281,11212,1,0,0:0:0:0:
50,281,11612,2,0,P|86:277|138:300,1,80
195,362,12012,6,0,L|230:354,1,20
208,369,12112,2,0,L|243:361,1,20
220,374,12212,1,0,0:0:0:0:
331,347,13212,6,0,L|317:264,1,80
394,221,13512,2,0,P|404:197|405:178,2,40
300,264,13812,6,0,P|254:225|299:60,1,240
375,36,14612,6,0,B|323:47|323:47|306:44|306:44|239:57,1,120
186,128,15012,2,0,P|155:125|128:111,1,40
151,31,15212,2,0,P|120:34|93:48,1,40
53,109,15412,1,0,0:0:0:0:
156,236,15612,5,0,0:0:0:0:
54,219,15812,1,0,0:0:0:0:
165,222,16012,2,0,L|158:272,1,40
15,314,16212,2,0,P|18:344|38:377,2,40
237,321,16612,6,0,L|335:309,1,80
389,251,16912,1,0,0:0:0:0:
398,267,17012,5,0,0:0:0:0:
330,182,17212,2,0,P|280:167|233:181,2,80
188,239,17812,2,0,P|138:254|91:240,1,80
33,195,18212,1,0,0:0:0:0:
33,195,18412,2,0,P|16:237|24:266,1,40
46,181,18612,6,0,L|56:94,1,80
189,143,19012,2,0,P|186:85|166:49,1,80
95,15,19312,1,0,0:0:0:0:
95,15,19412,1,0,0:0:0:0:
137,232,19612,1,0,0:0:0:0:
289,131,19812,6,0,P|306:164|272:194,1,80
278,286,20112,1,0,0:0:0:0:
278,286,20212,6,0,P|205:309|174:300,1,80
25,325,20612,2,0,P|100:335|125:356,1,80
350,351,21012,2,0,L|442:339,2,80
492,273,21612,2,0,L|496:248,3,20
489,235,21812,5,0,0:0:0:0:
404,201,22012,1,0,0:0:0:0:
417,301,22212,1,0,0:0:0:0:
225,175,22412,2,0,P|284:177|333:116,1,120
393,76,22812,2,0,P|363:55|339:51,1,40
270,69,23012,5,0,0:0:0:0:
240,80,23112,1,0,0:0:0:0:
204,54,23212,5,0,0:0:0:0:
174,43,23312,1,0,0:0:0:0:
138,60,23412,6,0,L|48:69,1,80
55,192,23812,2,0,P|105:180|136:137,1,80
164,262,24212,2,0,P|214:274|245:317,1,80
279,379,24612,6,0,L|329:367,1,40
378,294,24812,2,0,L|428:306,1,40
440,306,25012,6,0,P|445:258|425:212,1,80
373,157,25312,1,0,0:0:0:0:
377,138,25412,1,0,0:0:0:0:
278,173,25612,1,0,0:0:0:0:
282,154,25712,1,0,0:0:0:0:
285,136,25812,6,0,L|185:156,1,80
131,209,26212,2,0,P|116:183|116:151,1,40
246,157,26412,2,0,L|186:148,1,40
28,94,26612,6,0,L|128:74,1,80
266,39,27012,2,0,P|210:35|176:18,1,80
342,100,27412,5,0,0:0:0:0:
431,84,27612,1,0,0:0:0:0:
339,121,27812,1,0,0:0:0:0:
499,167,28012,2,0,L|503:136,3,20
485,180,28212,6,0,P|477:220|483:245,1,40
475,335,28412,2,0,P|444:308|419:300,1,40,0|0,0:0|3:0,3:0:0:0:
345,248,28612,2,0,P|383:234|402:217,1,40,0|0,0:0|3:0,3:0:0:0:
392,224,28812,6,0,L|272:238,1,120
219,331,29212,2,0,P|206:304|175:284,1,40
122,248,29412,5,0,0:0:0:0:
92,264,29512,1,0,0:0:0:0:
61,266,29612,5,0,0:0:0:0:
69,287,29712,1,0,0:0:0:0:
63,306,29812,6,0,L|79:136,1,120.000004577637
158,146,30112,1,0,0:0:0:0:
158,146,30212,1,0,0:0:0:0:
110,61,30412,6,0,P|48:74|18:121,1,120
18,118,30812,1,0,0:0:0:0:
186,239,31012,1,0,0:0:0:0:
186,239,31212,6,0,P|262:253|323:249,1,120
395,226,31612,1,0,0:0:0:0:
262,157,31812,1,0,0:0:0:0:
389,357,32012,6,0,B|395:308|395:308|406:292|406:292|414:213,1,120
486,188,32412,2,0,P|474:156|461:141,1,40
375,126,32612,1,0,0:0:0:0:
321,207,32812,1,0,0:0:0:0:
496,329,33012,6,0,P|443:323|381:367,1,120
303,306,33412,2,0,L|165:286,1,120
105,346,33812,2,0,P|44:351|8:285,1,120
5,217,34212,2,0,P|37:222|69:243,1,40
218,186,34412,2,0,P|199:192|180:194,1,40
197,326,34812,6,0,P|185:290|159:266,1,40
30,187,35012,2,0,P|42:223|68:247,1,40
218,186,35212,2,0,L|228:59,1,120
102,40,35612,2,0,P|117:61|165:68,1,40
324,110,35812,2,0,L|356:103,6,20
361,101,36212,6,0,P|385:140|382:186,1,80
304,319,36612,2,0,L|315:215,1,80
385,173,37012,1,0,0:0:0:0:
483,303,37212,5,0,0:0:0:0:
400,319,37412,1,0,0:0:0:0:
317,335,37612,2,0,L|261:322,1,40
107,173,37812,6,0,B|83:172|52:153|52:153|132:225|179:326|179:326|185:285|204:260,1,320
108,78,38812,6,0,L|134:72,3,20
137,63,39012,5,0,0:0:0:0:
29,37,39212,1,0,0:0:0:0:
212,192,39412,6,0,L|297:174,1,80
437,139,39812,2,0,P|382:112|339:119,1,80
379,207,40212,1,0,0:0:0:0:
379,207,40412,2,0,B|411:200|411:200|431:203|431:203|473:193,2,80
272,307,41012,6,0,P|228:308|186:281,1,80
144,210,41412,2,0,L|54:226,1,80
146,373,41812,1,0,0:0:0:0:
161,200,42012,2,0,L|163:164,3,20
175,162,42262,5,0,0:0:0:0:
90,126,42412,1,0,0:0:0:0:
53,254,42612,6,0,L|62:349,1,80
146,373,43012,1,0,0:0:0:0:
256,206,43212,2,0,P|264:152|246:112,1,80
85,97,43612,2,0,L|173:103,2,80
72,111,44112,1,0,0:0:0:0:
62,124,44212,5,0,0:0:0:0:
12,33,44412,1,0,0:0:0:0:
12,33,44612,1,0,0:0:0:0:
144,274,44812,6,0,L|131:184,1,80
128,289,45212,2,0,L|122:321,3,20
111,321,45412,1,0,0:0:0:0:
225,192,45612,1,0,0:0:0:0:
309,337,45812,6,0,P|287:341|230:318,1,80
397,196,46412,6,0,L|441:187,1,40
312,233,46612,6,0,P|334:237|391:214,1,80
208,100,47212,6,0,L|164:91,1,40
293,137,47412,6,0,P|271:141|214:118,1,80
378,33,48012,6,0,L|422:24,1,40
370,52,48212,5,0,0:0:0:0:
439,123,48412,1,0,0:0:0:0:
403,215,48612,1,0,0:0:0:0:
304,224,48812,2,0,L|294:162,1,40
293,239,49012,6,0,P|228:226|187:235,1,80
64,306,49412,2,0,L|148:295,1,80
182,136,49812,1,0,0:0:0:0:
165,143,49912,1,0,0:0:0:0:
229,355,50212,2,0,L|329:366,1,80
392,324,50512,1,0,0:0:0:0:
392,324,50612,6,0,B|422:296|410:239|357:224|357:224|323:146|379:89|379:89|368:136,1,320
450,174,51512,2,0,L|504:162,1,40
424,13,51812,1,0,0:0:0:0:
281,69,52012,2,0,L|253:65,3,20
345,135,52212,5,0,0:0:0:0:
183,255,52612,6,0,P|78:223|23:251,1,160
240,332,53212,2,0,P|221:346|204:351,2,26.6666666666667
280,248,53412,6,0,P|317:242|347:251,1,40
410,256,53612,2,0,L|438:263,3,20
447,268,53812,6,0,L|431:155,1,80
275,70,54212,2,0,L|259:183,1,80
386,334,54612,1,0,0:0:0:0:
188,213,54812,2,0,B|165:221|147:217|147:217|122:213|92:226,2,80
454,111,55412,5,0,0:0:0:0:
366,92,55612,1,0,0:0:0:0:
427,273,55812,5,0,0:0:0:0:
487,206,56012,1,0,0:0:0:0:
303,168,56212,5,0,0:0:0:0:
331,253,56412,1,0,0:0:0:0:
467,94,56612,2,0,L|472:43,2,40
375,34,57012,6,0,L|275:49,1,80
161,225,57412,2,0,L|240:236,1,80
92,293,57812,1,0,0:0:0:0:
206,36,58012,2,0,P|209:77|223:98,1,40
313,133,58212,2,0,P|310:174|296:195,1,40
248,253,58412,1,0,0:0:0:0:
248,253,58612,6,0,L|244:347,1,80
478,179,59012,2,0,B|458:189|438:189|438:189|409:185|391:199,1,80
408,98,59412,1,0,0:0:0:0:
113,112,59612,2,0,P|99:135|101:173,1,40
169,208,59812,1,0,0:0:0:0:
350,319,60012,2,0,L|341:267,1,40
410,208,60212,1,0,0:0:0:0:
512,374,60412,6,0,P|447:363|417:371,2,80
499,262,61012,1,0,0:0:0:0:
311,212,61212,2,0,L|412:200,2,80
250,282,61812,1,0,0:0:0:0:
94,119,62012,5,0,0:0:0:0:
180,86,62212,1,0,0:0:0:0:
168,179,62412,1,0,0:0:0:0:
107,30,62612,1,0,0:0:0:0:
80,219,62812,5,0,0:0:0:0:
257,143,63012,1,0,0:0:0:0:
107,30,63212,1,0,0:0:0:0:
244,231,63412,5,0,0:0:0:0:
244,231,63612,2,0,L|138:225,2,80
296,316,64212,1,0,0:0:0:0:
296,316,64412,2,0,L|402:310,2,80
24,143,65012,6,0,P|85:146|122:171,1,80
172,228,65312,1,0,0:0:0:0:
172,228,65412,2,0,L|243:209,1,40
290,177,65612,2,0,P|299:200|296:243,1,40
258,303,65812,1,0,0:0:0:0:
83,160,66012,2,0,L|73:61,1,80
144,23,66412,1,0,0:0:0:0:
166,327,66612,6,0,L|69:314,1,80
257,355,67012,2,0,L|354:342,1,80
399,274,67412,1,0,0:0:0:0:
156,227,67612,2,0,P|204:205|263:212,2,80
