osu file format v14

[General]
AudioFilename: audio.mp3
AudioLeadIn: 0
PreviewTime: 61591
Countdown: 0
SampleSet: Soft
StackLeniency: 0.7
Mode: 0
LetterboxInBreaks: 0
WidescreenStoryboard: 0

[Editor]
Bookmarks: 1762,7248,29191,51134,62105,84048
DistanceSpacing: 1.1
BeatDivisor: 4
GridSize: 32
TimelineZoom: 3.400005

[Metadata]
Title:Gouin ni Mai Yeah~ (TV Size)
TitleUnicode:強引niマイYeah~ (TV Size)
Artist:Zetsubou Shoujotachi
ArtistUnicode:絶望少女達
Creator:_Yiiiii
Version:Zetsumyou
Source:さよなら絶望先生
Tags:長谷川智樹 Hasegawa Tomoki 风浦可符香 木津千里 木村卡爱拉 日塔奈美 野中蓝 井上麻里奈 小林優 くめた こうじ Magazine season1 op opening tarrasky lunala rin_sa
BeatmapID:1631774
BeatmapSetID:776630

[Difficulty]
HPDrainRate:6.5
CircleSize:4
OverallDifficulty:8
ApproachRate:9
SliderMultiplier:1.4
SliderTickRate:1

[Events]
//Background and Video events
0,0,"bg.jpg",0,0
//Break Periods
//Storyboard Layer 0 (Background)
//Storyboard Layer 1 (Fail)
//Storyboard Layer 2 (Pass)
//Storyboard Layer 3 (Foreground)
//Storyboard Layer 4 (Overlay)
//Storyboard Sound Samples

[TimingPoints]
-980,342.857142857143,4,2,1,70,1,0
1420,-57.1428571428571,4,2,1,90,0,0
1762,-200,4,2,1,70,0,0
2105,-66.6666666666667,4,2,1,70,0,0
4505,-200,4,2,1,70,0,0
4848,-66.6666666666667,4,2,1,70,0,0
7248,-133.333333333333,4,2,1,50,0,0
16677,-100,4,2,1,50,0,0
18220,-133.333333333333,4,2,1,50,0,0
27648,-80,4,2,1,50,0,0
29191,-100,4,2,1,70,0,0
34334,-80,4,2,1,70,0,0
34677,-100,4,2,1,70,0,0
47362,-133.333333333333,4,2,1,70,0,0
48391,-80,4,2,1,70,0,0
50962,-133.333333333333,4,3,1,50,0,0
59362,-100,4,2,1,70,0,0
62105,-66.6666666666667,4,2,1,80,0,1
72991,-66.6666666666667,4,2,1,80,0,0
73077,-66.6666666666667,4,2,1,80,0,1
84048,-66.6666666666667,4,2,1,80,0,0
85934,-133.333333333333,4,2,1,80,0,0
86962,-133.333333333333,4,2,1,50,0,0
88505,-133.333333333333,4,2,0,50,0,0
88677,-1000,4,2,1,80,0,0

[Colours]
Combo1 : 177,101,101
Combo2 : 255,129,68
Combo3 : 213,0,0
Combo4 : 255,203,64

[HitObjects]
211,138,220,6,0,L|222:156,3,17.5,8|8|8|8,0:1|0:1|0:1|0:1,0:0:0:0:
211,100,391,1,4,0:3:0:0:
83,301,562,5,2,0:2:0:0:
165,326,733,1,2,0:2:0:0:
246,296,904,1,2,0:2:0:0:
293,225,1076,1,2,0:2:0:0:
286,212,1162,1,2,0:2:0:0:
279,199,1248,1,2,0:2:0:0:
356,384,1420,6,0,P|436:365|453:260,1,183.750001752377,12|0,0:1|0:1,0:0:0:0:
402,235,1762,6,0,L|427:281,1,52.5,4|0,0:3|0:1,0:0:0:0:
473,186,2105,6,0,L|276:156,1,157.500006008148,10|0,0:1|0:1,0:0:0:0:
279,131,2448,1,6,0:3:0:0:
279,131,2534,1,4,0:3:0:0:
279,131,2620,2,0,L|346:112,1,52.5000020027161,6|0,0:3|0:1,0:0:0:0:
266,259,2791,1,10,0:1:0:0:
38,178,2962,6,0,P|41:113|172:69,1,210.000008010865,10|6,0:1|0:3,0:0:0:0:
135,318,3477,1,10,0:1:0:0:
90,257,3648,1,0,0:1:0:0:
358,292,3820,1,6,0:3:0:0:
211,345,3991,1,6,0:3:0:0:
306,233,4162,1,10,0:1:0:0:
289,324,4334,1,6,0:3:0:0:
300,376,4505,6,0,L|288:317,1,52.5,4|0,0:3|0:1,0:0:0:0:
394,340,4848,6,0,P|319:298|322:192,1,157.500006008148,10|0,0:1|0:1,0:0:0:0:
337,200,5191,1,6,0:3:0:0:
337,200,5277,1,8,0:3:0:0:
337,200,5362,2,0,L|392:217,1,52.5000020027161,6|0,0:3|0:1,0:0:0:0:
140,276,5534,1,10,0:1:0:0:
83,50,5705,1,10,0:1:0:0:
34,136,6048,5,2,0:1:0:0:
34,136,6105,2,2,L|150:117,1,105.000004005432,14|0,0:1|0:1,0:0:0:0:
151,128,6334,2,2,P|187:138|256:136,1,105.000004005432,14|0,0:1|0:1,0:0:0:0:
250,66,6562,2,2,P|239:147|270:218,1,157.500006008148,14|0,0:1|0:1,0:0:0:0:
366,229,6905,5,4,0:3:0:0:
366,229,6991,1,4,0:3:0:0:
366,229,7077,2,0,L|356:287,1,52.5000020027161,4|0,0:3|0:1,0:0:0:0:
430,175,7248,5,4,0:3:0:0:
430,175,7591,1,8,0:1:0:0:
255,143,7762,1,4,0:3:0:0:
329,99,7934,2,0,L|341:163,1,52.5000020027161,4|0,0:3|0:1,0:0:0:0:
248,214,8277,1,8,0:1:0:0:
208,29,8448,6,0,L|89:56,1,105.000004005432,4|4,0:3|0:3,0:0:0:0:
85,257,8962,1,8,0:1:0:0:
155,196,9134,1,4,0:3:0:0:
155,196,9305,2,0,L|92:182,1,52.5000020027161,4|0,0:3|0:1,0:0:0:0:
157,291,9648,2,0,L|220:277,1,52.5000020027161,8|0,0:1|0:1,0:0:0:0:
303,164,9991,6,0,L|294:263,1,78.7500030040742,4|0,0:3|0:1,0:0:0:0:
319,278,10334,1,8,0:1:0:0:
440,166,10505,1,4,0:3:0:0:
440,166,10677,2,0,L|385:156,1,52.5000020027161,4|0,0:3|0:1,0:0:0:0:
469,245,11020,1,8,0:1:0:0:
416,77,11191,6,0,L|316:98,1,78.7500030040742,4|0,0:3|0:1,0:0:0:0:
302,73,11534,6,0,L|298:109,1,26.2500010013581,6|0,0:3|0:1,0:0:0:0:
290,196,11705,1,8,0:1:0:0:
171,137,11877,6,0,L|175:173,1,26.2500010013581,2|0,0:3|0:1,0:0:0:0:
183,260,12048,1,4,0:3:0:0:
358,228,12220,6,0,L|354:264,1,26.2500010013581,10|0,0:1|0:1,0:0:0:0:
346,351,12391,1,6,0:3:0:0:
221,331,12562,1,4,0:3:0:0:
86,384,12734,5,6,0:3:0:0:
86,384,13077,1,8,0:1:0:0:
0,238,13248,1,4,0:3:0:0:
88,204,13420,2,0,L|75:254,1,52.5000020027161,4|0,0:3|0:1,0:0:0:0:
20,318,13762,1,8,0:1:0:0:
148,152,13934,6,0,L|129:48,1,105.000004005432,4|4,0:3|0:3,0:0:0:0:
237,187,14448,2,0,L|299:195,1,52.5000020027161,8|4,0:1|0:3,0:0:0:0:
407,147,14791,1,4,0:3:0:0:
327,111,14962,1,0,0:1:0:0:
280,289,15134,1,8,0:1:0:0:
358,361,15305,2,0,L|369:330,1,26.2500010013581,0|0,0:1|0:1,0:0:0:0:
374,312,15477,6,0,L|360:219,1,78.7500030040742,4|0,0:3|0:1,0:0:0:0:
338,210,15820,1,8,0:1:0:0:
218,333,15991,1,4,0:3:0:0:
218,333,16162,2,0,L|231:386,1,52.5000020027161,4|0,0:3|0:1,0:0:0:0:
221,244,16505,1,8,0:1:0:0:
221,244,16677,6,0,P|170:220|116:219,1,105,6|0,0:3|0:1,0:0:0:0:
84,235,17020,1,6,0:3:0:0:
326,156,17191,1,10,0:1:0:0:
314,207,17276,1,2,0:1:0:0:
303,258,17362,1,6,0:3:0:0:
461,294,17534,1,6,0:3:0:0:
427,86,17705,1,2,0:1:0:0:
457,273,17877,5,10,0:1:0:0:
449,229,17962,1,4,0:3:0:0:
442,186,18048,1,2,0:1:0:0:
435,143,18134,1,8,0:1:0:0:
428,100,18220,5,6,0:3:0:0:
428,100,18562,1,8,0:1:0:0:
291,194,18734,1,4,0:3:0:0:
362,250,18905,2,0,L|371:186,1,52.5000020027161,4|0,0:3|0:1,0:0:0:0:
339,335,19248,1,8,0:1:0:0:
189,283,19420,6,0,L|63:303,1,105.000004005432,4|4,0:3|0:3,0:0:0:0:
54,148,19934,2,0,L|120:160,1,52.5000020027161,8|4,0:1|0:3,0:0:0:0:
281,78,20277,1,4,0:3:0:0:
128,44,20448,1,4,0:3:0:0:
198,1,20620,2,0,L|209:70,1,52.5000020027161,8|0,0:1|0:1,0:0:0:0:
222,251,20962,6,0,L|234:149,1,78.7500030040742,4|0,0:3|0:1,0:0:0:0:
257,144,21305,1,8,0:1:0:0:
86,161,21477,1,4,0:3:0:0:
86,161,21648,2,0,L|76:104,1,52.5000020027161,4|0,0:3|0:1,0:0:0:0:
222,251,21991,1,8,0:1:0:0:
105,346,22162,6,0,L|121:242,1,105.000004005432,4|4,0:3|0:3,0:0:0:0:
273,239,22677,1,8,0:1:0:0:
143,158,22848,1,4,0:3:0:0:
200,239,23020,2,0,L|206:204,1,26.2500010013581,4|0,0:3|0:1,0:0:0:0:
277,77,23191,1,4,0:3:0:0:
277,77,23362,1,8,0:1:0:0:
220,129,23534,2,0,L|251:147,1,26.2500010013581,0|0,0:1|0:1,0:0:0:0:
272,157,23705,6,0,L|387:143,1,105.000004005432,4|8,0:3|0:1,0:0:0:0:
481,252,24220,1,4,0:3:0:0:
382,281,24391,1,4,0:3:0:0:
382,281,24562,2,0,L|392:229,1,52.5000020027161,0|8,0:3|0:1,0:0:0:0:
503,111,24905,6,0,L|482:4,1,105.000004005432,4|4,0:3|0:3,0:0:0:0:
376,144,25420,1,8,0:1:0:0:
321,69,25591,2,0,L|330:17,2,52.5000020027161,0|0|0,0:1|0:1|0:1,0:0:0:0:
248,272,26105,1,8,0:1:0:0:
220,178,26277,6,0,L|335:213,1,105.000004005432,4|0,0:3|0:1,0:0:0:0:
106,227,26791,1,8,0:1:0:0:
213,77,26962,1,4,0:3:0:0:
213,77,27134,6,0,L|213:104,1,26.2500010013581,4|0,0:3|0:1,0:0:0:0:
220,178,27305,2,0,L|220:205,1,26.2500010013581,2|0,0:1|0:1,0:0:0:0:
228,280,27477,1,8,0:1:0:0:
0,168,27648,6,0,P|40:130|156:165,1,175,6|6,0:3|0:3,0:0:0:0:
327,333,28162,1,10,0:1:0:0:
327,333,28248,1,4,0:3:0:0:
327,333,28334,1,6,0:3:0:0:
154,362,28505,5,6,0:3:0:0:
154,362,28591,1,0,0:0:0:0:
154,362,28677,2,0,L|171:303,1,43.75,6|0,0:3|0:1,0:0:0:0:
280,157,28848,2,0,L|297:205,1,43.75,10|0,0:1|0:1,0:0:0:0:
166,375,29020,2,0,L|183:316,1,43.75,10|0,0:1|0:1,0:0:0:0:
356,288,29191,5,14,0:3:0:0:
356,288,29534,2,0,L|405:272,1,35,10|0,0:1|0:0,0:0:0:0:
512,189,29705,1,4,0:3:0:0:
432,157,29877,2,0,L|450:258,1,70,4|2,0:3|0:1,0:0:0:0:
512,83,30220,1,8,0:1:0:0:
410,47,30391,6,0,P|365:55|296:12,1,105,6|0,0:3|0:1,0:0:0:0:
295,5,30734,2,0,L|276:48,1,35,4|0,0:3|0:1,0:0:0:0:
236,137,30905,1,4,0:3:0:0:
317,222,31077,1,8,0:1:0:0:
312,227,31248,1,4,0:3:0:0:
231,340,31420,1,8,0:1:0:0:
135,317,31591,1,8,0:1:0:0:
87,237,31762,2,0,L|113:202,1,35,4|0,0:3|0:1,0:0:0:0:
123,185,31934,6,0,L|108:62,1,105,12|0,0:3|0:1,0:0:0:0:
108,39,32277,2,0,L|159:54,1,35,10|0,0:1|0:1,0:0:0:0:
345,92,32448,1,4,0:3:0:0:
345,92,32620,1,4,0:3:0:0:
271,41,32791,2,0,L|261:93,1,35,6|0,0:3|0:1,0:0:0:0:
237,236,32962,1,8,0:1:0:0:
379,179,33134,6,0,L|396:308,1,105,6|0,0:3|0:1,0:0:0:0:
407,321,33477,2,0,L|420:271,1,35,2|0,0:1|0:1,0:0:0:0:
264,384,33648,2,0,L|251:334,1,35,10|0,0:1|0:1,0:0:0:0:
167,246,33820,1,6,0:3:0:0:
167,246,33991,1,4,0:3:0:0:
293,196,34162,2,0,L|262:235,1,35,10|0,0:1|0:1,0:0:0:0:
217,145,34334,2,0,P|271:153|340:89,1,131.25,10|0,0:1|0:1,0:0:0:0:
334,64,34677,5,12,0:3:0:0:
334,64,35020,2,0,L|346:108,1,35,10|0,0:1|0:0,0:0:0:0:
417,236,35191,1,4,0:3:0:0:
485,164,35362,2,0,L|416:151,1,70,4|2,0:3|0:1,0:0:0:0:
274,339,35705,1,8,0:1:0:0:
212,288,35877,6,0,L|76:314,1,105,6|0,0:3|0:1,0:0:0:0:
74,328,36220,1,0,0:1:0:0:
104,136,36391,1,4,0:3:0:0:
123,220,36562,1,4,0:3:0:0:
111,138,36734,1,4,0:3:0:0:
223,32,36905,1,8,0:1:0:0:
342,152,37077,1,8,0:1:0:0:
235,267,37248,2,0,L|251:215,1,35,8|0,0:1|0:1,0:0:0:0:
256,204,37420,6,0,L|289:331,1,105,12|0,0:3|0:1,0:0:0:0:
287,355,37762,2,0,L|303:303,1,35,10|0,0:1|0:1,0:0:0:0:
412,197,37934,1,4,0:3:0:0:
467,278,38105,1,4,0:3:0:0:
467,278,38277,1,4,0:3:0:0:
374,364,38448,2,0,L|368:313,1,35,8|0,0:1|0:1,0:0:0:0:
363,109,38620,6,0,L|242:129,1,105,10|0,0:1|0:1,0:0:0:0:
230,121,38962,2,0,L|222:169,1,35,4|0,0:3|0:1,0:0:0:0:
154,205,39134,2,0,L|149:163,1,35,8|0,0:1|0:1,0:0:0:0:
53,134,39305,2,0,L|67:167,1,35,10|0,0:1|0:1,0:0:0:0:
146,334,39477,1,4,0:3:0:0:
146,334,39648,2,0,L|193:325,1,35,10|0,0:1|0:1,0:0:0:0:
300,373,39820,5,10,0:1:0:0:
331,324,39905,1,4,0:1:0:0:
372,310,39991,1,4,0:3:0:0:
406,320,40077,1,4,0:3:0:0:
417,334,40162,5,12,0:3:0:0:
417,334,40505,2,0,L|426:295,1,35,10|0,0:1|0:1,0:0:0:0:
419,118,40677,1,4,0:3:0:0:
419,118,40848,1,4,0:3:0:0:
493,227,41020,2,0,L|390:215,1,70,6|8,0:3|0:1,0:0:0:0:
200,117,41362,6,2,L|334:102,1,105,6|0,0:3|0:1,0:0:0:0:
326,89,41705,2,0,L|322:144,1,35,4|0,0:3|0:1,0:0:0:0:
159,259,41877,1,8,0:1:0:0:
231,203,42048,1,4,0:3:0:0:
339,307,42220,1,4,0:3:0:0:
232,213,42391,1,8,0:1:0:0:
160,269,42562,1,8,0:1:0:0:
245,383,42734,2,0,L|237:343,1,35,4|0,0:3|0:1,0:0:0:0:
235,325,42905,6,0,L|129:350,1,105,12|0,0:3|0:1,0:0:0:0:
109,366,43248,2,0,L|68:338,1,35,10|0,0:1|0:1,0:0:0:0:
29,192,43420,1,4,0:3:0:0:
29,192,43591,1,4,0:3:0:0:
111,238,43762,2,0,L|92:271,1,35,10|0,0:1|0:1,0:0:0:0:
16,308,43934,1,8,0:1:0:0:
103,117,44105,6,2,L|235:142,1,105,6|0,0:3|0:1,0:0:0:0:
241,162,44448,1,4,0:3:0:0:
404,189,44620,1,8,0:1:0:0:
313,214,44791,1,4,0:3:0:0:
473,323,44962,6,0,L|422:316,1,35,4|0,0:3|0:1,0:0:0:0:
502,157,45134,2,0,L|444:176,1,35,8|0,0:1|0:1,0:0:0:0:
423,25,45305,2,0,L|385:51,1,35,8|0,0:1|0:1,0:0:0:0:
313,214,45477,5,4,0:3:0:0:
313,214,45562,1,8,0:1:0:0:
313,214,45648,2,0,L|290:85,1,105,12|0,0:3|0:1,0:0:0:0:
262,71,45991,2,0,L|254:117,1,35,10|0,0:1|0:1,0:0:0:0:
220,287,46162,1,4,0:3:0:0:
163,218,46334,1,4,0:3:0:0:
215,290,46505,1,0,0:1:0:0:
89,213,46677,1,8,0:1:0:0:
184,40,46848,1,14,0:3:0:0:
117,321,47191,5,8,0:1:0:0:
184,40,47362,2,0,L|194:99,1,52.5000020027161,10|0,0:1|0:1,0:0:0:0:
264,147,47705,2,0,L|274:206,1,52.5000020027161,0|0,0:2|0:1,0:0:0:0:
246,287,48048,1,4,0:3:0:0:
304,69,48220,1,4,0:3:0:0:
304,69,48305,1,4,0:3:0:0:
304,69,48391,5,12,0:3:0:0:
95,231,48562,1,2,0:1:0:0:
145,118,48734,1,10,0:1:0:0:
95,231,48905,1,6,0:3:0:0:
232,358,49077,1,6,0:3:0:0:
336,212,49248,1,0,0:1:0:0:
336,212,49420,2,0,L|292:227,1,43.75,10|0,0:1|0:1,0:0:0:0:
48,297,49592,5,6,0:3:0:0:
471,251,49934,5,10,0:1:0:0:
254,303,50105,5,4,0:3:0:0:
254,303,50191,1,4,0:3:0:0:
254,303,50277,2,0,L|247:243,1,43.75,6|0,0:3|0:1,0:0:0:0:
183,165,50448,1,4,0:3:0:0:
188,143,50533,1,4,0:3:0:0:
194,122,50619,1,6,0:3:0:0:
200,101,50705,1,4,0:3:0:0:
206,80,50791,2,0,L|199:20,1,43.75,4|0,0:3|0:1,0:0:0:0:
440,86,50962,6,0,P|412:112|296:93,1,157.500006008148,14|8,0:1|0:1,0:0:0:0:
301,99,51648,1,4,0:3:0:0:
184,232,51820,1,4,0:3:0:0:
218,167,51991,1,0,0:1:0:0:
201,95,52162,1,0,0:1:0:0:
137,57,52334,6,0,L|74:72,1,52.5000020027161,4|0,0:3|0:1,0:0:0:0:
35,240,52677,1,4,0:3:0:0:
107,275,52848,2,0,L|113:216,1,52.5000020027161,8|4,0:1|0:3,0:0:0:0:
112,222,53105,1,4,0:3:0:0:
112,222,53191,1,4,0:3:0:0:
278,283,53362,1,0,0:1:0:0:
166,328,53534,1,8,0:1:0:0:
206,261,53705,1,0,0:1:0:0:
341,350,53877,6,0,L|427:362,1,78.7500030040742,4|0,0:3|0:1,0:0:0:0:
439,347,54220,1,8,0:1:0:0:
331,237,54391,1,4,0:3:0:0:
331,237,54477,1,0,0:3:0:0:
331,237,54562,1,4,0:3:0:0:
455,246,54734,2,0,L|428:254,1,26.2500010013581,8|0,0:1|0:1,0:0:0:0:
394,142,54905,2,0,L|422:149,1,26.2500010013581,8|0,0:1|0:1,0:0:0:0:
394,64,55077,6,0,P|375:94|309:107,1,105.000004005432,4|8,0:3|0:1,0:0:0:0:
242,67,55591,1,8,0:1:0:0:
169,149,55762,1,4,0:3:0:0:
172,161,55847,1,0,0:1:0:0:
175,174,55933,1,4,0:3:0:0:
178,187,56019,1,0,0:1:0:0:
181,199,56104,1,0,0:1:0:0:
139,270,56277,2,0,L|131:307,1,26.2500010013581,8|0,0:1|0:0,0:0:0:0:
242,328,56448,5,4,0:3:0:0:
242,328,56534,1,0,0:3:0:0:
242,328,56620,2,0,L|318:318,1,52.5000020027161,4|0,0:3|0:1,0:0:0:0:
325,177,56962,1,8,0:1:0:0:
265,235,57134,1,0,0:1:0:0:
265,235,57220,1,0,0:1:0:0:
265,235,57305,2,0,L|340:254,1,52.5000020027161,4|0,0:3|0:1,0:0:0:0:
398,237,57648,1,8,0:1:0:0:
333,62,57820,6,0,L|222:82,1,105.000004005432,4|4,0:3|0:3,0:0:0:0:
144,242,58334,2,0,L|208:255,1,52.5000020027161,8|4,0:1|0:3,0:0:0:0:
195,252,58591,1,4,0:3:0:0:
195,252,58677,1,8,0:1:0:0:
28,310,58848,1,8,0:1:0:0:
28,237,59020,1,8,0:1:0:0:
28,164,59191,1,4,0:3:0:0:
28,164,59277,1,4,0:3:0:0:
27,163,59362,6,0,B|66:163|117:128|117:128|141:157|162:164|162:164|147:183|147:183|123:169|86:168,1,227.5,8|8,0:1|0:1,0:0:0:0:
117,128,60048,2,0,P|188:150|263:132,1,140,4|0,0:3|0:0,0:0:0:0:
322,70,60562,5,12,0:3:0:0:
322,70,60905,5,12,0:3:0:0:
77,208,61077,1,12,0:3:0:0:
77,208,61162,1,8,0:1:0:0:
77,208,61248,2,0,L|124:179,1,35,8|4,0:1|0:3,0:0:0:0:
190,321,61420,5,4,0:3:0:0:
210,282,61505,1,4,0:3:0:0:
244,255,61591,1,8,0:1:0:0:
285,241,61677,1,8,0:1:0:0:
329,245,61762,2,0,L|308:200,1,35,4|0,0:3|0:1,0:0:0:0:
433,203,61934,2,0,L|414:242,1,35,4|0,0:3|0:1,0:0:0:0:
286,86,62105,6,0,P|206:108|147:44,1,157.500006008148,4|0,0:3|0:1,0:0:0:0:
190,138,62448,2,0,L|127:130,1,52.5000020027161,10|0,0:1|0:1,0:0:0:0:
52,10,62620,2,0,L|-3:19,1,52.5000020027161,4|0,0:3|0:1,0:0:0:0:
54,169,62791,1,4,0:3:0:0:
54,169,62877,1,4,0:3:0:0:
54,169,62962,2,0,L|69:114,1,52.5000020027161,4|0,0:3|0:1,0:0:0:0:
133,263,63134,2,0,L|118:208,1,52.5000020027161,8|0,0:1|0:1,0:0:0:0:
11,324,63305,6,0,L|131:345,1,105.000004005432,6|0,0:3|0:1,0:0:0:0:
213,217,63648,2,0,L|263:199,1,52.5000020027161,6|0,0:3|0:0,0:0:0:0:
434,141,63820,1,8,0:1:0:0:
419,341,63991,2,0,P|333:302|326:261,1,105.000004005432,6|4,0:3|0:3,0:0:0:0:
359,221,64248,1,0,0:0:0:0:
359,221,64334,6,0,L|349:283,1,52.5000020027161,8|0,0:1|0:1,0:0:0:0:
434,141,64505,2,0,L|477:196,1,52.5000020027161,10|0,0:1|0:1,0:0:0:0:
364,23,64677,2,0,L|447:42,1,52.5000020027161,6|0,0:3|0:1,0:0:0:0:
292,153,64848,6,0,L|184:174,1,105.000004005432,4|0,0:3|0:1,0:0:0:0:
44,12,65191,2,0,L|173:39,1,105.000004005432,8|4,0:1|0:3,0:0:0:0:
219,17,65448,1,0,0:1:0:0:
219,17,65534,2,0,L|224:78,1,52.5000020027161,4|0,0:3|0:1,0:0:0:0:
50,201,65705,2,0,L|54:148,1,52.5000020027161,8|0,0:1|0:1,0:0:0:0:
160,286,65877,1,8,0:1:0:0:
160,286,65962,1,0,0:1:0:0:
160,286,66048,6,0,L|316:309,1,157.500006008148,6|0,0:3|0:1,0:0:0:0:
366,313,66391,2,0,L|346:258,1,52.5000020027161,6|0,0:3|0:1,0:0:0:0:
189,113,66562,1,10,3:1:0:0:
216,156,66648,1,0,3:1:0:0:
263,179,66733,1,4,3:3:0:0:
314,175,66819,1,0,3:1:0:0:
348,153,66905,1,4,3:3:0:0:
374,143,66991,1,0,3:1:0:0:
397,148,67077,6,0,L|384:207,1,52.5000020027161,4|0,0:3|0:1,0:0:0:0:
278,97,67248,2,0,L|266:45,1,52.5000020027161,8|0,0:1|0:1,0:0:0:0:
131,239,67420,1,4,0:3:0:0:
131,239,67505,1,0,0:1:0:0:
131,239,67591,6,0,L|290:272,1,157.500006008148,4|0,0:3|0:1,0:0:0:0:
216,318,67934,2,0,L|196:261,1,52.5000020027161,10|0,0:1|0:1,0:0:0:0:
282,179,68105,2,0,L|262:122,1,52.5000020027161,4|0,0:3|0:1,0:0:0:0:
98,81,68277,1,4,0:3:0:0:
98,81,68362,1,4,0:3:0:0:
98,81,68448,2,0,L|80:130,1,52.5000020027161,4|0,0:3|0:1,0:0:0:0:
202,19,68620,2,0,L|184:68,1,52.5000020027161,8|0,0:1|0:1,0:0:0:0:
333,109,68791,6,0,P|377:121|463:55,1,157.500006008148,4|0,0:3|0:1,0:0:0:0:
357,11,69134,2,0,L|347:74,1,52.5000020027161,4|0,0:3|0:1,0:0:0:0:
281,290,69305,1,8,0:1:0:0:
503,298,69477,1,4,3:3:0:0:
485,248,69562,1,0,3:1:0:0:
448,212,69648,1,4,3:3:0:0:
398,196,69734,1,0,3:1:0:0:
347,203,69820,5,4,0:3:0:0:
286,384,69991,1,8,0:1:0:0:
365,309,70162,1,4,0:3:0:0:
128,331,70334,6,0,L|103:192,1,105.000004005432,4|0,0:3|0:1,0:0:0:0:
221,83,70677,1,8,0:1:0:0:
221,83,70848,2,0,L|208:140,1,52.5000020027161,6|0,0:3|0:1,0:0:0:0:
275,258,71020,1,4,0:3:0:0:
275,258,71105,1,0,0:1:0:0:
275,258,71191,2,0,L|287:323,1,52.5000020027161,8|0,0:1|0:1,0:0:0:0:
409,273,71362,2,0,L|418:221,1,52.5000020027161,8|0,0:1|0:1,0:0:0:0:
470,345,71534,6,0,P|393:319|375:240,1,157.500006008148,6|0,0:3|0:1,0:0:0:0:
496,323,71877,2,0,L|436:342,1,52.5000020027161,6|0,0:3|0:1,0:0:0:0:
334,371,72048,1,8,0:1:0:0:
508,330,72220,2,0,L|448:349,1,52.5000020027161,6|0,0:3|0:1,0:0:0:0:
184,350,72391,1,8,0:1:0:0:
67,167,72562,6,0,L|105:209,1,52.5000020027161,6|0,0:3|0:1,0:0:0:0:
205,43,72734,2,0,L|195:111,1,52.5000020027161,10|0,0:1|0:1,0:0:0:0:
367,201,72905,2,0,L|310:228,1,52.5000020027161,10|0,0:1|0:1,0:0:0:0:
184,263,73077,6,0,P|201:183|297:157,1,157.500006008148,4|0,0:3|0:1,0:0:0:0:
203,240,73420,2,0,L|182:184,1,52.5000020027161,10|0,0:1|0:1,0:0:0:0:
232,47,73591,2,0,L|274:12,1,52.5000020027161,8|0,0:1|0:1,0:0:0:0:
405,136,73762,1,4,0:3:0:0:
405,136,73848,1,4,0:3:0:0:
405,136,73934,2,4,L|382:195,1,52.5000020027161,4|4,0:3|0:3,0:0:0:0:
484,49,74105,2,0,L|507:108,1,52.5000020027161,8|0,0:1|0:1,0:0:0:0:
334,225,74277,6,0,P|396:231|447:331,1,157.500006008148,4|0,0:3|0:1,0:0:0:0:
309,267,74620,2,0,L|293:203,1,52.5000020027161,6|0,0:3|0:1,0:0:0:0:
115,52,74791,1,8,0:1:0:0:
47,278,74962,2,0,P|107:296|162:258,1,105.000004005432,6|4,0:3|0:3,0:0:0:0:
216,239,75220,1,0,0:0:0:0:
216,239,75305,6,0,L|197:182,1,52.5000020027161,4|0,0:3|0:1,0:0:0:0:
328,171,75477,2,0,L|343:110,1,52.5000020027161,8|0,0:1|0:1,0:0:0:0:
232,258,75648,2,0,L|213:201,1,52.5000020027161,8|0,0:1|0:1,0:0:0:0:
341,311,75820,6,0,L|472:334,1,105.000004005432,4|0,0:3|0:1,0:0:0:0:
511,152,76162,2,0,L|407:170,1,105.000004005432,8|4,0:1|0:3,0:0:0:0:
323,207,76420,1,0,0:1:0:0:
323,207,76505,2,0,L|297:138,1,52.5000020027161,4|0,0:3|0:1,0:0:0:0:
107,264,76677,2,0,L|78:308,1,52.5000020027161,4|0,0:3|0:1,0:0:0:0:
71,78,76848,1,8,0:1:0:0:
71,78,76934,1,0,0:1:0:0:
71,78,77020,6,0,L|233:110,1,157.500006008148,4|0,0:3|0:1,0:0:0:0:
250,138,77362,2,0,L|238:81,1,52.5000020027161,4|0,0:3|0:1,0:0:0:0:
301,25,77534,1,8,3:1:0:0:
351,13,77619,1,0,3:1:0:0:
399,32,77705,1,4,3:3:0:0:
428,75,77791,1,0,3:1:0:0:
429,121,77876,1,4,3:3:0:0:
402,151,77962,1,0,3:1:0:0:
369,160,78048,6,0,L|407:214,1,52.5000020027161,4|0,0:3|0:1,0:0:0:0:
260,312,78220,2,0,L|272:384,1,52.5000020027161,8|0,0:1|0:1,0:0:0:0:
120,170,78391,2,0,L|65:229,1,52.5000020027161,8|0,0:1|0:1,0:0:0:0:
3,306,78562,6,0,L|174:259,1,157.500006008148,4|0,0:3|0:1,0:0:0:0:
99,363,78905,2,0,L|74:308,1,52.5000020027161,10|0,0:1|0:1,0:0:0:0:
0,131,79077,2,0,L|40:72,1,52.5000020027161,4|0,0:3|0:1,0:0:0:0:
196,136,79248,1,4,0:3:0:0:
196,136,79334,1,4,0:3:0:0:
196,136,79420,2,0,L|210:211,1,52.5000020027161,4|0,0:3|0:1,0:0:0:0:
367,31,79591,2,0,L|353:106,1,52.5000020027161,8|0,0:1|0:1,0:0:0:0:
492,221,79762,6,0,L|368:259,1,105.000004005432,4|0,0:3|0:1,0:0:0:0:
126,340,80105,2,0,L|203:355,1,52.5000020027161,4|0,0:3|0:1,0:0:0:0:
393,268,80277,2,0,L|341:257,1,52.5000020027161,8|0,0:1|0:1,0:0:0:0:
101,259,80448,2,0,P|20:208|17:158,1,105.000004005432,4|4,0:3|0:3,0:0:0:0:
75,63,80705,1,0,0:0:0:0:
75,63,80791,6,0,L|96:120,1,52.5000020027161,4|0,0:3|0:1,0:0:0:0:
233,187,80962,2,0,L|207:248,1,52.5000020027161,8|0,0:1|0:1,0:0:0:0:
90,332,81134,2,0,L|83:391,1,52.5000020027161,4|0,0:3|0:1,0:0:0:0:
220,180,81305,6,0,L|194:241,1,52.5000020027161,4|0,0:3|0:1,0:0:0:0:
90,332,81477,1,0,0:1:0:0:
9,181,81648,2,0,L|122:200,1,105.000004005432,8|0,0:1|0:1,0:0:0:0:
112,198,81905,1,0,0:1:0:0:
112,198,81991,2,0,L|92:143,1,52.5000020027161,4|0,0:3|0:1,0:0:0:0:
202,59,82162,2,0,L|220:108,1,52.5000020027161,10|0,0:1|0:1,0:0:0:0:
345,205,82334,1,8,0:1:0:0:
418,253,82505,5,12,0:3:0:0:
472,187,82848,1,0,0:1:0:0:
472,187,82934,1,0,0:1:0:0:
472,187,83020,2,0,L|446:122,1,52.5000020027161,4|0,0:3|0:1,0:0:0:0:
364,63,83191,1,10,0:1:0:0:
364,63,83277,1,0,0:1:0:0:
364,63,83362,5,14,0:3:0:0:
320,92,83447,1,4,0:3:0:0:
271,111,83533,1,4,0:3:0:0:
220,120,83619,1,4,0:3:0:0:
167,118,83704,1,4,0:3:0:0:
117,104,83790,1,4,0:3:0:0:
70,80,83876,1,4,0:3:0:0:
30,47,83962,1,4,0:3:0:0:
0,6,84047,1,4,0:3:0:0:
82,280,84220,5,14,0:3:0:0:
82,280,84391,2,0,L|61:174,1,105.000004005432,14|0,0:3|0:1,0:0:0:0:
230,355,84734,1,14,0:3:0:0:
230,355,84905,2,0,L|209:249,1,105.000004005432,14|0,0:3|0:1,0:0:0:0:
415,348,85248,1,14,0:3:0:0:
412,248,85420,5,2,0:0:0:0:
415,238,85591,1,2,0:0:0:0:
419,228,85762,1,2,0:0:0:0:
480,26,85934,5,10,0:1:0:0:
256,107,86105,1,8,0:3:0:0:
263,123,86191,1,8,0:3:0:0:
270,139,86277,1,4,0:3:0:0:
371,65,86448,1,8,0:0:0:0:
134,63,86620,5,8,0:3:0:0:
153,108,86706,1,8,0:3:0:0:
173,154,86792,1,2,0:1:0:0:
122,250,87048,5,8,0:3:0:0:
122,250,87134,1,4,0:3:0:0:
213,306,87305,1,8,0:3:0:0:
213,306,87391,1,4,0:3:0:0:
318,284,87562,1,8,0:3:0:0:
318,284,87648,1,4,0:3:0:0:
367,159,87820,5,8,0:1:0:0:
355,138,87905,1,8,0:1:0:0:
358,106,87991,2,0,L|372:65,1,26.2500010013581,12|8,0:3|0:3,0:0:0:0:
403,314,88162,1,12,0:3:0:0:
403,314,88505,1,2,0:2:0:0:
478,363,88677,6,0,L|471:342,1,21,14|0,0:1|0:1,0:0:0:0:
