osu file format v14

[General]
AudioFilename: audio.mp3
AudioLeadIn: 0
PreviewTime: 61591
Countdown: 0
SampleSet: Soft
StackLeniency: 0.5
Mode: 0
LetterboxInBreaks: 0
WidescreenStoryboard: 1

[Editor]
Bookmarks: 1762,7248,29191,51134,62105,84048
DistanceSpacing: 0.9
BeatDivisor: 4
GridSize: 32
TimelineZoom: 1.700006

[Metadata]
Title:Gouin ni Mai Yeah~ (TV Size)
TitleUnicode:強引niマイYeah~ (TV Size)
Artist:Zetsubou Shoujotachi
ArtistUnicode:絶望少女達
Creator:_Yiiiii
Version:Normal
Source:さよなら絶望先生
Tags:長谷川智樹 Hasegawa Tomoki 风浦可符香 木津千里 木村卡爱拉 日塔奈美 野中蓝 井上麻里奈 小林優 くめた こうじ Magazine season1 op opening tarrasky lunala rin_sa
BeatmapID:2082095
BeatmapSetID:776630

[Difficulty]
HPDrainRate:4
CircleSize:3
OverallDifficulty:4
ApproachRate:5
SliderMultiplier:1.1
SliderTickRate:1

[Events]
//Background and Video events
0,0,"bg.jpg",0,0
//Break Periods
//Storyboard Layer 0 (Background)
//Storyboard Layer 1 (Fail)
//Storyboard Layer 2 (Pass)
//Storyboard Layer 3 (Foreground)
//Storyboard Layer 4 (Overlay)
//Storyboard Sound Samples

[TimingPoints]
-980,342.857142857143,4,2,1,70,1,0
1420,-100,4,2,1,90,0,0
1762,-100,4,2,1,70,0,0
2105,-100,4,2,1,70,0,0
4505,-100,4,2,1,70,0,0
4848,-100,4,2,1,70,0,0
7248,-100,4,2,1,50,0,0
16677,-100,4,2,1,50,0,0
18220,-100,4,2,1,50,0,0
27648,-100,4,2,1,50,0,0
29191,-100,4,2,1,70,0,0
34334,-100,4,2,1,70,0,0
34677,-100,4,2,1,70,0,0
47362,-100,4,2,1,70,0,0
48391,-100,4,2,1,70,0,0
50962,-100,4,3,1,50,0,0
59362,-100,4,2,1,70,0,0
62105,-100,4,2,1,80,0,1
72991,-100,4,2,1,80,0,0
73077,-100,4,2,1,80,0,1
84048,-100,4,2,1,80,0,0
85934,-100,4,2,1,80,0,0
86962,-100,4,2,1,50,0,0
88505,-100,4,2,0,50,0,0
88677,-100,4,2,1,80,0,0

[Colours]
Combo1 : 177,101,101
Combo2 : 255,129,68
Combo3 : 213,0,0
Combo4 : 255,203,64

[HitObjects]
20,360,391,6,0,B|53:318|53:318|110:324|110:324|142:279|142:279|195:273,1,220,4|2,0:3|0:2,0:0:0:0:
279,219,1420,2,0,P|270:156|241:97,1,110,12|4,0:1|0:3,0:0:0:0:
157,81,2105,6,0,L|91:99,1,55,10|0,0:1|0:0,0:0:0:0:
64,126,2448,1,6,0:3:0:0:
21,215,2791,1,10,0:1:0:0:
21,215,2962,2,0,P|23:279|51:342,1,110,10|6,0:1|0:3,0:0:0:0:
78,351,3477,1,10,0:1:0:0:
163,303,3820,2,0,L|286:323,1,110,6|10,0:3|0:1,0:0:0:0:
306,355,4334,2,0,L|376:341,1,55,6|4,0:3|0:3,0:0:0:0:
437,282,4848,6,2,L|448:229,1,55,10|0,0:1|0:0,0:0:0:0:
434,180,5191,1,6,0:3:0:0:
335,165,5534,1,10,0:1:0:0:
335,165,5705,1,10,0:1:0:0:
272,88,6048,2,2,L|177:66,2,82.5,6|6|14,0:1|0:1|0:1,0:0:0:0:
221,173,6905,2,0,L|96:204,1,110,4|4,0:3|0:3,0:0:0:0:
41,267,7591,6,0,P|26:325|32:379,1,110,8|4,0:1|0:3,0:0:0:0:
130,376,8277,1,8,0:1:0:0:
130,376,8448,2,0,L|253:334,1,110,4|4,0:3|0:3,0:0:0:0:
265,301,8962,1,8,0:1:0:0:
361,322,9305,1,4,0:3:0:0:
423,245,9648,2,0,P|421:186|398:130,1,110,8|4,0:1|0:3,0:0:0:0:
321,82,10334,6,0,L|197:65,1,110,8|4,0:1|0:3,0:0:0:0:
129,120,11020,1,8,0:1:0:0:
129,120,11191,2,0,L|155:226,1,110,4|6,0:3|0:3,0:0:0:0:
241,275,11877,1,2,0:3:0:0:
312,206,12220,2,0,P|340:262|298:357,1,165,10|6,0:1|0:3,0:0:0:0:
206,365,13077,6,0,L|99:343,1,110,8|4,0:1|0:3,0:0:0:0:
50,256,13762,1,8,0:1:0:0:
50,256,13934,2,0,P|47:190|69:127,1,110,4|4,0:3|0:3,0:0:0:0:
98,118,14448,2,0,L|165:106,1,55,8|4,0:1|0:3,0:0:0:0:
200,118,14791,1,4,0:3:0:0:
265,192,15134,2,0,L|332:180,1,55,8|0,0:1|0:1,0:0:0:0:
367,192,15477,5,4,0:3:0:0:
464,176,15820,2,0,P|485:114|473:54,1,110,8|4,0:1|0:3,0:0:0:0:
385,38,16505,1,8,0:1:0:0:
385,38,16677,2,0,L|257:63,1,110,6|6,0:3|0:3,0:0:0:0:
244,96,17191,2,0,L|173:88,1,55,10|6,0:1|0:3,0:0:0:0:
148,62,17534,1,6,0:3:0:0:
73,127,17877,2,0,L|93:196,1,55,10|2,0:1|0:1,0:0:0:0:
129,207,18220,5,6,0:3:0:0:
144,304,18562,2,0,L|270:283,1,110,8|4,0:1|0:3,0:0:0:0:
347,315,19248,1,8,0:1:0:0:
347,315,19420,2,0,P|371:264|371:197,1,110,4|4,0:3|0:3,0:0:0:0:
356,164,19934,2,0,L|313:110,1,55,8|4,0:1|0:3,0:0:0:0:
274,104,20277,1,4,0:3:0:0:
186,150,20620,1,8,0:1:0:0:
246,228,20962,6,0,L|219:351,1,110,4|8,0:3|0:1,0:0:0:0:
126,359,21648,1,4,0:3:0:0:
80,275,21991,1,8,0:1:0:0:
80,275,22162,2,0,P|72:226|87:150,1,110,4|4,0:3|0:3,0:0:0:0:
112,129,22677,1,8,0:1:0:0:
112,129,22848,2,0,L|219:161,1,110,4|4,0:3|0:3,0:0:0:0:
267,161,23362,2,0,L|326:136,1,55,8|0,0:1|0:1,0:0:0:0:
345,98,23705,5,4,0:3:0:0:
415,167,24048,2,0,L|397:288,1,110,8|4,0:1|0:3,0:0:0:0:
317,332,24734,1,8,0:1:0:0:
317,332,24905,2,0,P|242:342|195:326,1,110,4|4,0:3|0:3,0:0:0:0:
187,288,25420,2,0,P|133:277|79:289,1,110,8|0,0:1|0:1,0:0:0:0:
29,204,26105,1,8,0:1:0:0:
29,204,26277,6,0,L|56:77,1,110,4|0,0:3|0:1,0:0:0:0:
81,56,26791,2,0,L|146:84,1,55,8|4,0:1|0:3,0:0:0:0:
181,75,27134,1,4,0:3:0:0:
248,147,27477,1,8,0:1:0:0:
248,147,27648,2,0,L|360:131,1,110,6|6,0:3|0:3,0:0:0:0:
404,145,28162,2,0,L|387:210,1,55,10|6,0:1|0:3,0:0:0:0:
353,232,28505,2,0,L|370:297,1,55,6|6,0:3|0:3,0:0:0:0:
327,315,28848,2,0,P|277:303|213:322,1,110,10|14,0:1|0:3,0:0:0:0:
141,258,29534,6,0,L|17:239,1,110,10|4,0:1|0:3,0:0:0:0:
16,143,30220,1,8,0:1:0:0:
16,143,30391,2,0,L|140:124,1,110,6|4,0:3|0:3,0:0:0:0:
166,153,30905,1,4,0:3:0:0:
253,106,31248,1,4,0:3:0:0:
327,171,31591,2,0,L|297:298,1,110,8|12,0:1|0:3,0:0:0:0:
389,325,32277,6,0,P|439:313|485:257,1,110,10|4,0:1|0:3,0:0:0:0:
417,195,32962,1,8,0:1:0:0:
417,195,33134,2,0,L|391:87,1,110,6|2,0:3|0:1,0:0:0:0:
348,69,33648,1,10,0:1:0:0:
348,69,33820,2,0,L|318:196,1,110,6|10,0:3|0:1,0:0:0:0:
309,224,34334,2,0,P|349:258|364:319,1,110,10|12,0:1|0:3,0:0:0:0:
265,312,35020,6,0,L|147:290,1,110,10|4,0:1|0:3,0:0:0:0:
108,279,35534,2,0,L|84:217,1,55,2|8,0:1|0:1,0:0:0:0:
76,179,35877,2,0,P|114:135|131:79,1,110,6|0,0:3|0:1,0:0:0:0:
127,36,36391,1,4,0:3:0:0:
225,22,36734,1,4,0:3:0:0:
289,96,37077,2,0,P|341:117|416:108,1,110,8|12,0:1|0:3,0:0:0:0:
454,193,37762,6,0,L|440:272,1,55,10|4,0:1|0:3,0:0:0:0:
418,289,38105,1,4,0:3:0:0:
332,338,38448,1,8,0:1:0:0:
332,338,38620,2,0,P|288:344|186:284,1,165,10|8,0:1|0:1,0:0:0:0:
161,244,39305,2,0,L|188:174,1,55,10|4,0:1|0:3,0:0:0:0:
224,168,39648,2,0,L|194:37,1,110,10|4,0:1|0:3,0:0:0:0:
156,35,40162,5,12,0:3:0:0:
73,89,40505,2,0,L|52:215,1,110,10|4,0:1|0:3,0:0:0:0:
26,238,41020,2,0,L|47:293,1,55,6|8,0:3|0:1,0:0:0:0:
48,338,41362,2,0,P|94:354|161:312,1,110,6|4,0:3|0:3,0:0:0:0:
166,284,41877,1,8,0:1:0:0:
238,216,42220,2,0,L|296:221,1,55,4|8,0:3|0:1,0:0:0:0:
337,199,42562,2,0,L|316:321,1,110,8|12,0:1|0:3,0:0:0:0:
387,378,43248,6,0,P|449:375|497:331,1,110,10|4,0:1|0:3,0:0:0:0:
500,299,43762,2,0,L|460:248,1,55,10|8,0:1|0:1,0:0:0:0:
427,224,44105,2,0,L|450:94,1,110,6|4,0:3|0:3,0:0:0:0:
435,66,44620,1,8,0:1:0:0:
336,55,44962,2,0,L|277:48,1,55,4|8,0:3|0:1,0:0:0:0:
246,13,45305,1,8,0:1:0:0:
246,13,45477,2,0,L|180:39,1,55,4|12,0:3|0:3,0:0:0:0:
106,76,45991,5,10,0:1:0:0:
142,167,46334,1,4,0:3:0:0:
96,254,46677,2,0,L|34:275,1,55,8|14,0:1|0:3,0:0:0:0:
110,344,47191,1,8,0:1:0:0:
110,344,47362,2,0,B|134:333|162:359|162:359|201:321|201:321|229:370|298:361,1,220,10|4,0:1|0:3,0:0:0:0:
393,362,48391,6,0,L|408:282,1,55,12|2,0:3|0:1,0:0:0:0:
371,270,48734,2,0,L|354:209,1,55,10|6,0:1|0:3,0:0:0:0:
390,181,49077,2,0,L|407:117,1,55,6|0,0:3|0:1,0:0:0:0:
358,108,49420,1,10,0:1:0:0:
358,108,49591,1,6,0:3:0:0:
270,61,49934,1,10,0:1:0:0:
199,130,50277,1,6,0:3:0:0:
199,130,50448,2,0,L|147:83,1,55,4|6,0:3|0:3,0:0:0:0:
108,87,50791,1,4,0:3:0:0:
108,87,50962,6,0,P|88:143|86:251,1,165,14|8,0:1|0:1,0:0:0:0:
141,330,51820,2,0,L|204:341,1,55,4|0,0:3|0:1,0:0:0:0:
239,361,52162,1,0,0:1:0:0:
239,361,52334,2,0,P|265:285|269:191,1,165,4|8,0:3|0:1,0:0:0:0:
264,151,53020,1,4,0:3:0:0:
264,151,53191,1,4,0:3:0:0:
354,190,53534,2,0,L|428:202,1,55,8|0,0:1|0:1,0:0:0:0:
456,187,53877,6,0,P|463:118|447:63,1,110,4|8,0:3|0:1,0:0:0:0:
420,42,54391,2,0,L|304:25,1,110,4|8,0:3|0:1,0:0:0:0:
270,116,55077,2,0,L|154:126,1,110,4|8,0:3|0:1,0:0:0:0:
118,152,55591,1,8,0:1:0:0:
106,250,55934,2,0,L|131:317,1,55,4|0,0:3|0:1,0:0:0:0:
160,342,56277,1,8,0:1:0:0:
160,342,56448,6,0,P|210:344|281:256,1,165,4|8,0:3|0:1,0:0:0:0:
216,187,57305,2,0,L|196:111,1,55,4|0,0:3|0:1,0:0:0:0:
207,84,57648,1,8,0:1:0:0:
207,84,57820,2,0,P|241:50|356:48,1,165,4|8,0:3|0:1,0:0:0:0:
386,80,58505,1,4,0:3:0:0:
386,80,58677,1,8,0:1:0:0:
419,173,59020,1,8,0:1:0:0:
374,261,59362,5,8,0:1:0:0:
374,261,60048,1,4,0:3:0:0:
268,361,60562,6,0,L|162:335,1,110,12|12,0:3|0:3,0:0:0:0:
139,290,61077,2,0,L|255:244,1,110,12|4,0:3|0:3,0:0:0:0:
280,219,61591,2,0,L|296:157,1,55,8|4,0:1|0:3,0:0:0:0:
280,117,61934,1,4,0:3:0:0:
280,117,62105,5,4,0:3:0:0:
187,82,62448,1,10,0:1:0:0:
98,127,62791,2,0,L|114:192,1,55,4|4,0:3|0:3,0:0:0:0:
113,234,63134,1,8,0:1:0:0:
113,234,63305,2,0,P|104:295|73:349,2,110,6|6|6,0:3|0:3|0:3,0:0:0:0:
203,194,64334,2,0,L|264:209,1,55,8|10,0:1|0:1,0:0:0:0:
289,244,64677,1,6,0:3:0:0:
289,244,64848,6,0,P|336:243|408:209,1,110,4|8,0:3|0:1,0:0:0:0:
442,133,65534,2,0,L|416:77,1,55,4|8,0:3|0:1,0:0:0:0:
382,49,65877,1,8,0:1:0:0:
382,49,66048,2,0,L|268:75,1,110,6|6,0:3|0:3,0:0:0:0:
231,98,66562,2,0,L|123:73,1,110,10|4,0:1|0:3,0:0:0:0:
89,110,67077,2,0,L|68:174,1,55,4|8,0:3|0:1,0:0:0:0:
67,211,67420,1,4,0:3:0:0:
67,211,67591,5,4,0:3:0:0:
85,308,67934,1,10,0:1:0:0:
174,351,68277,2,0,L|235:330,1,55,4|4,0:3|0:3,0:0:0:0:
274,314,68620,1,8,0:1:0:0:
274,314,68791,2,0,P|291:257|286:183,1,110,4|4,0:3|0:3,0:0:0:0:
266,163,69305,1,8,0:1:0:0:
222,138,69477,1,4,0:3:0:0:
127,168,69820,2,0,L|59:154,1,55,4|8,0:3|0:1,0:0:0:0:
25,142,70162,1,4,0:3:0:0:
25,142,70334,6,0,P|19:78|33:22,2,110,4|8|4,0:3|0:1|0:3,0:0:0:0:
41,188,71191,2,0,L|53:263,1,55,8|8,0:1|0:1,0:0:0:0:
79,282,71534,1,6,0:3:0:0:
162,228,71877,1,6,0:3:0:0:
259,247,72220,2,0,L|333:269,1,55,6|8,0:3|0:1,0:0:0:0:
351,292,72562,2,0,L|419:281,1,55,6|10,0:3|0:1,0:0:0:0:
443,251,72905,1,10,0:1:0:0:
443,251,73077,5,4,0:3:0:0:
446,152,73420,1,10,0:1:0:0:
377,81,73762,2,4,L|312:100,1,55,4|4,0:3|0:3,0:0:0:0:
281,116,74105,1,8,0:1:0:0:
281,116,74277,2,0,P|222:110|146:82,2,110,4|6|6,0:3|0:3|0:3,0:0:0:0:
341,194,75305,2,0,L|310:268,1,55,4|8,0:3|0:1,0:0:0:0:
289,283,75648,1,8,0:1:0:0:
289,283,75820,5,4,0:3:0:0:
190,273,76162,1,8,0:1:0:0:
98,310,76505,2,0,L|22:291,1,55,4|4,0:3|0:3,0:0:0:0:
21,259,76848,1,8,0:1:0:0:
21,259,77020,2,0,P|10:197|27:133,1,110,4|4,0:3|0:3,0:0:0:0:
61,126,77534,2,0,L|175:170,1,110,8|4,0:1|0:3,0:0:0:0:
198,201,78048,2,0,L|282:182,1,55,4|8,0:3|0:1,0:0:0:0:
295,211,78391,1,8,0:1:0:0:
295,211,78562,5,4,0:3:0:0:
314,113,78905,1,10,0:1:0:0:
264,25,79248,2,0,L|337:11,1,55,4|4,0:3|0:3,0:0:0:0:
372,24,79591,1,8,0:1:0:0:
372,24,79762,2,0,P|421:9|501:9,1,110,4|4,0:3|0:3,0:0:0:0:
502,50,80277,1,8,0:1:0:0:
498,99,80448,1,4,0:3:0:0:
428,169,80791,2,0,L|449:239,1,55,4|8,0:3|0:1,0:0:0:0:
437,270,81134,1,4,0:3:0:0:
437,270,81305,6,0,L|346:284,1,55,4|0,0:3|0:1,0:0:0:0:
345,311,81648,2,0,L|226:298,1,110,8|4,0:1|0:3,0:0:0:0:
190,278,82162,2,0,L|74:307,1,110,10|12,0:1|0:3,0:0:0:0:
83,304,83191,2,0,L|54:85,1,220,10|4,0:1|0:3,0:0:0:0:
141,38,84220,6,0,L|211:58,1,55,14|14,0:3|0:3,0:0:0:0:
270,115,84734,2,0,L|188:146,1,55,14|14,0:3|0:3,0:0:0:0:
190,224,85248,1,14,0:3:0:0:
190,224,85934,2,0,B|252:217|281:170|281:170|308:249|385:248,1,220,10|4,0:1|0:3,0:0:0:0:
393,213,86791,6,0,P|324:161|487:169,1,440,2|12,0:1|0:3,0:0:0:0:
447,281,88677,2,0,B|382:329|382:329|316:270,1,165,14|0,0:1|0:1,0:0:0:0:
