osu file format v14

[General]
AudioFilename: audio.mp3
AudioLeadIn: 0
PreviewTime: 61591
Countdown: 0
SampleSet: Soft
StackLeniency: 0.5
Mode: 0
LetterboxInBreaks: 0
WidescreenStoryboard: 1

[Editor]
Bookmarks: 1762,7248,29191,51134,62105,84048
DistanceSpacing: 1.1
BeatDivisor: 4
GridSize: 32
TimelineZoom: 1.700006

[Metadata]
Title:Gouin ni Mai Yeah~ (TV Size)
TitleUnicode:強引niマイYeah~ (TV Size)
Artist:Zetsubou Shoujotachi
ArtistUnicode:絶望少女達
Creator:_Yiiiii
Version:Easy
Source:さよなら絶望先生
Tags:長谷川智樹 Hasegawa Tomoki 风浦可符香 木津千里 木村卡爱拉 日塔奈美 野中蓝 井上麻里奈 小林優 くめた こうじ Magazine season1 op opening tarrasky lunala rin_sa
BeatmapID:2082093
BeatmapSetID:776630

[Difficulty]
HPDrainRate:2
CircleSize:2.5
OverallDifficulty:2
ApproachRate:3
SliderMultiplier:0.9
SliderTickRate:1

[Events]
//Background and Video events
0,0,"bg.jpg",0,0
//Break Periods
//Storyboard Layer 0 (Background)
//Storyboard Layer 1 (Fail)
//Storyboard Layer 2 (Pass)
//Storyboard Layer 3 (Foreground)
//Storyboard Layer 4 (Overlay)
//Storyboard Sound Samples

[TimingPoints]
-980,342.857142857143,4,2,1,70,1,0
1420,-100,4,2,1,90,0,0
1762,-100,4,2,1,70,0,0
2105,-100,4,2,1,70,0,0
4505,-100,4,2,1,70,0,0
4848,-100,4,2,1,70,0,0
7248,-100,4,2,1,50,0,0
16677,-100,4,2,1,50,0,0
18220,-100,4,2,1,50,0,0
27648,-100,4,2,1,50,0,0
29191,-100,4,2,1,70,0,0
34334,-100,4,2,1,70,0,0
34677,-100,4,2,1,70,0,0
47362,-100,4,2,1,70,0,0
48391,-100,4,2,1,70,0,0
50962,-100,4,3,1,50,0,0
59362,-100,4,2,1,70,0,0
62105,-100,4,2,1,80,0,1
72991,-100,4,2,1,80,0,0
73077,-100,4,2,1,80,0,1
84048,-100,4,2,1,80,0,0
85934,-100,4,2,1,80,0,0
86962,-100,4,2,1,50,0,0
88505,-100,4,2,0,50,0,0
88677,-100,4,2,1,80,0,0

[Colours]
Combo1 : 177,101,101
Combo2 : 255,129,68
Combo3 : 213,0,0
Combo4 : 255,203,64

[HitObjects]
30,334,391,6,0,L|312:280,1,270,4|12,0:3|0:1,0:0:0:0:
356,217,1762,6,0,P|370:150|365:91,1,90,4|10,0:3|0:1,0:0:0:0:
321,52,2448,1,6,0:3:0:0:
187,32,2962,2,0,L|40:65,1,135,10|10,0:1|0:1,0:0:0:0:
11,140,3820,2,0,L|112:170,1,90,6|10,0:3|0:1,0:0:0:0:
157,232,4505,6,2,L|275:204,1,90,4|10,0:3|0:1,0:0:0:0:
329,181,5191,2,0,P|336:114|320:36,1,135,6|10,0:3|0:1,0:0:0:0:
235,33,6048,2,2,L|151:17,2,67.5,6|6|14,0:1|0:1|0:1,0:0:0:0:
225,122,6905,2,0,L|194:207,1,90,4|4,0:3|0:3,0:0:0:0:
225,291,7591,6,0,L|320:276,1,90,8|4,0:1|0:3,0:0:0:0:
423,198,8448,2,0,P|431:145|414:61,1,135,4|8,0:3|0:1,0:0:0:0:
331,34,9305,2,0,L|232:65,1,90,4|8,0:3|0:1,0:0:0:0:
178,121,9991,6,0,L|79:91,1,90,4|8,0:3|0:1,0:0:0:0:
35,165,10677,1,4,0:3:0:0:
106,279,11191,2,0,L|209:260,1,90,4|6,0:3|0:3,0:0:0:0:
282,242,11877,1,2,0:3:0:0:
356,191,12220,2,0,P|376:122|364:56,1,135,10|6,0:1|0:3,0:0:0:0:
279,36,13077,6,0,L|179:67,1,90,8|4,0:1|0:3,0:0:0:0:
124,179,13934,2,0,P|120:244|139:314,1,135,4|8,0:3|0:1,0:0:0:0:
225,329,14791,2,0,L|325:309,1,90,4|8,0:3|0:1,0:0:0:0:
382,252,15477,5,4,0:3:0:0:
425,172,15820,2,0,P|431:98|421:71,1,90,8|4,0:1|0:3,0:0:0:0:
300,35,16677,2,0,L|156:68,1,135,6|10,0:3|0:1,0:0:0:0:
137,149,17534,2,0,L|228:180,1,90,6|10,0:3|0:1,0:0:0:0:
274,251,18220,5,6,0:3:0:0:
210,314,18562,2,0,L|122:333,1,90,8|4,0:1|0:3,0:0:0:0:
21,242,19420,2,0,P|21:150|44:97,1,135,4|8,0:3|0:1,0:0:0:0:
113,64,20277,2,0,L|212:98,1,90,4|8,0:3|0:1,0:0:0:0:
256,161,20962,5,4,0:3:0:0:
336,201,21305,2,0,L|436:184,1,90,8|4,0:1|0:3,0:0:0:0:
440,51,22162,2,0,P|376:29|293:52,1,135,4|8,0:3|0:1,0:0:0:0:
238,95,23020,2,0,L|253:197,1,90,4|8,0:3|0:1,0:0:0:0:
304,256,23705,6,0,L|283:354,1,90,4|8,0:3|0:1,0:0:0:0:
197,365,24391,1,4,0:3:0:0:
75,306,24905,2,0,P|45:239|58:161,1,135,4|8,0:3|0:1,0:0:0:0:
123,126,25762,1,0,0:1:0:0:
224,215,26277,6,0,L|370:241,1,135,4|8,0:3|0:1,0:0:0:0:
409,311,27134,1,4,0:3:0:0:
287,369,27648,2,0,P|208:354|155:313,1,135,6|10,0:3|0:1,0:0:0:0:
152,233,28505,2,0,L|179:142,1,90,6|10,0:3|0:1,0:0:0:0:
243,84,29191,5,14,0:3:0:0:
333,81,29534,2,0,L|427:109,1,90,10|4,0:1|0:3,0:0:0:0:
492,220,30391,2,0,L|335:264,1,135,6|8,0:3|0:1,0:0:0:0:
277,225,31248,2,0,L|161:190,1,90,4|8,0:3|0:1,0:0:0:0:
131,130,31934,5,12,0:3:0:0:
182,56,32277,2,0,L|273:34,1,90,10|4,0:1|0:3,0:0:0:0:
362,132,33134,2,0,B|381:176|381:176|368:237,1,90,6|2,0:3|0:1,0:0:0:0:
308,280,33820,2,0,P|334:333|406:346,1,135,6|10,0:3|0:1,0:0:0:0:
489,317,34677,5,12,0:3:0:0:
455,232,35020,2,0,L|437:137,1,90,10|4,0:1|0:3,0:0:0:0:
323,71,35877,2,2,P|240:61|192:77,1,135,6|4,0:3|0:3,0:0:0:0:
133,145,36734,2,0,L|159:253,1,90,4|8,0:3|0:1,0:0:0:0:
129,319,37420,5,12,0:3:0:0:
55,267,37762,2,0,L|33:179,1,90,10|4,0:1|0:3,0:0:0:0:
93,58,38620,2,0,B|172:17|172:17|274:50,1,180,10|10,0:1|0:1,0:0:0:0:
318,112,39648,2,0,L|283:246,1,135,10|12,0:1|0:3,0:0:0:0:
331,319,40505,6,0,P|388:338|438:330,1,90,10|4,0:1|0:3,0:0:0:0:
492,223,41362,2,0,L|457:68,1,135,6|8,0:3|0:1,0:0:0:0:
378,58,42220,2,0,L|262:86,1,90,4|8,0:3|0:1,0:0:0:0:
228,144,42905,5,12,0:3:0:0:
159,202,43248,2,0,L|26:171,1,135,10|10,0:1|0:1,0:0:0:0:
9,83,44105,2,0,L|151:53,1,135,6|8,0:3|0:1,0:0:0:0:
230,64,44962,2,0,L|318:88,1,90,4|8,0:3|0:1,0:0:0:0:
373,157,45648,6,0,P|375:238|367:263,1,90,12|10,0:3|0:1,0:0:0:0:
298,296,46334,2,0,L|146:322,1,135,4|14,0:3|0:3,0:0:0:0:
30,324,47362,2,0,B|-23:177|141:226|33:53,1,270,10|12,0:1|0:3,0:0:0:0:
117,20,48734,6,0,L|224:55,1,90,10|6,0:1|0:3,0:0:0:0:
307,132,49591,2,0,L|411:101,2,90,6|10|6,0:3|0:1|0:3,0:0:0:0:
228,175,50620,1,6,0:3:0:0:
148,215,50962,6,0,P|127:292|152:349,1,135,14|8,0:1|0:1,0:0:0:0:
229,375,51820,1,4,0:3:0:0:
338,296,52334,2,0,P|361:233|354:157,1,135,4|8,0:3|0:1,0:0:0:0:
277,120,53191,2,0,L|183:142,1,90,4|8,0:3|0:1,0:0:0:0:
128,207,53877,5,4,0:3:0:0:
236,287,54391,2,0,L|246:377,2,90,4|8|4,0:3|0:1|0:3,0:0:0:0:
296,220,55420,2,0,P|354:172|370:89,1,135,8|4,0:1|0:3,0:0:0:0:
490,180,56448,6,0,P|508:249|491:328,1,135,4|8,0:3|0:1,0:0:0:0:
419,354,57305,1,4,0:3:0:0:
286,328,57820,2,0,P|268:259|285:180,1,135,4|8,0:3|0:1,0:0:0:0:
357,154,58677,2,0,L|322:42,1,90,8|8,0:1|0:1,0:0:0:0:
248,30,59362,5,8,0:1:0:0:
67,33,60048,2,0,P|58:113|72:170,1,135,4|12,0:3|0:3,0:0:0:0:
188,230,61077,1,12,0:3:0:0:
264,182,61420,2,0,L|282:292,1,90,4|4,0:3|0:3,0:0:0:0:
311,354,62105,5,4,0:3:0:0:
377,291,62448,2,0,L|396:195,1,90,10|4,0:1|0:3,0:0:0:0:
383,67,63305,1,6,0:3:0:0:
301,28,63648,1,6,0:3:0:0:
218,64,63991,2,0,L|255:150,1,90,6|8,0:3|0:1,0:0:0:0:
203,270,64848,6,0,P|156:284|82:286,1,90,4|8,0:3|0:1,0:0:0:0:
31,257,65534,1,4,0:3:0:0:
0,124,66048,2,0,P|15:44|43:-1,1,135,6|10,0:3|0:1,0:0:0:0:
131,16,66905,2,0,L|241:58,1,90,4|8,0:3|0:1,0:0:0:0:
260,125,67591,5,4,0:3:0:0:
338,169,67934,2,0,L|445:149,1,90,10|4,0:1|0:3,0:0:0:0:
491,272,68791,2,0,P|465:344|416:379,1,135,4|8,0:3|0:1,0:0:0:0:
330,366,69648,2,0,L|219:335,1,90,4|8,0:3|0:1,0:0:0:0:
178,278,70334,5,4,0:3:0:0:
223,200,70677,1,8,0:1:0:0:
193,114,71020,1,4,0:3:0:0:
59,97,71534,2,0,P|35:180|44:246,1,135,6|8,0:3|0:1,0:0:0:0:
102,291,72391,2,0,L|204:317,1,90,8|10,0:1|0:1,0:0:0:0:
263,364,73077,5,4,0:3:0:0:
351,379,73420,2,0,P|397:365|438:340,1,90,10|4,0:1|0:3,0:0:0:0:
508,231,74277,1,4,0:3:0:0:
480,145,74620,1,6,0:3:0:0:
401,101,74962,2,0,L|294:121,1,90,6|4,0:3|0:3,0:0:0:0:
180,88,75820,6,0,L|81:103,1,90,4|8,0:3|0:1,0:0:0:0:
70,189,76505,1,4,0:3:0:0:
159,289,77020,2,0,P|239:315|309:301,1,135,4|8,0:3|0:1,0:0:0:0:
340,235,77877,2,0,L|306:120,1,90,4|8,0:3|0:1,0:0:0:0:
234,106,78562,5,4,0:3:0:0:
261,20,78905,2,0,P|312:12|361:12,1,90,10|4,0:1|0:3,0:0:0:0:
461,89,79762,2,0,P|464:168|446:238,1,135,4|8,0:3|0:1,0:0:0:0:
374,269,80620,2,0,L|281:258,1,90,4|8,0:3|0:1,0:0:0:0:
207,211,81305,5,4,0:3:0:0:
117,224,81648,1,8,0:1:0:0:
108,315,81991,2,0,B|166:346|166:346|239:322,1,135,4|12,0:3|0:3,0:0:0:0:
349,188,83191,2,0,B|339:160|339:160|365:41|365:41|341:-13,1,180,10|4,0:1|0:3,0:0:0:0:
265,40,84220,6,0,L|199:51,1,45,14|14,0:3|0:3,0:0:0:0:
179,127,84734,2,0,L|256:150,1,45,14|14,0:3|0:3,0:0:0:0:
265,218,85248,2,0,P|318:198|286:286,1,180,14|10,0:3|0:1,0:0:0:0:
93,283,86791,6,0,P|64:148|223:10,1,360,2|12,0:1|0:3,0:0:0:0:
343,51,88677,2,0,L|310:196,1,135,14|0,0:1|0:1,0:0:0:0:
