osu file format v14

[General]
AudioFilename: audio.mp3
AudioLeadIn: 0
PreviewTime: -1
Countdown: 1
SampleSet: Normal
StackLeniency: 0.2
Mode: 0
LetterboxInBreaks: 0
WidescreenStoryboard: 0

[Editor]
Bookmarks: 74903,152338,233542,233620
DistanceSpacing: 1
BeatDivisor: 4
GridSize: 16
TimelineZoom: 3.399999

[Metadata]
Title:Ice
TitleUnicode:Ice - ็ตถ
Artist:Zetsu
ArtistUnicode:Zetsu
Creator:[ amb1d3x ]
Version:Extra
Source:Team Grimoire
Tags:
BeatmapID:1304729
BeatmapSetID:618939

[Difficulty]
HPDrainRate:2.5
CircleSize:4.2
OverallDifficulty:9
ApproachRate:9.6
SliderMultiplier:2.99999990463257
SliderTickRate:1

[Events]
//Background and Video events
0,0,"bg.jpg",0,0
//Break Periods
//Storyboard Layer 0 (Background)
//Storyboard Layer 1 (Fail)
//Storyboard Layer 2 (Pass)
//Storyboard Layer 3 (Foreground)
//Storyboard Sound Samples

[TimingPoints]
39249,314.13612565445,4,1,0,100,1,0
39327,-100,4,1,0,5,0,0
41448,-181.818181818182,4,1,0,30,0,0
42233,-181.818181818182,4,1,0,50,0,0
43646,-100,4,1,0,50,0,0
43961,-181.818181818182,4,1,0,50,0,0
45374,-100,4,1,0,50,0,0
45531,-181.818181818182,4,1,0,50,0,0
46317,-100,4,1,0,20,0,0
46474,-181.818181818182,4,1,0,50,0,0
46946,-133.333333333333,4,1,0,50,0,0
47259,-133.333333333333,4,1,0,60,0,0
47887,-133.333333333333,4,1,0,70,0,0
48516,-133.333333333333,4,1,0,80,0,0
49144,-133.333333333333,4,1,0,50,0,0
50243,-100,4,1,0,100,0,0
50244,-100,4,1,0,20,0,0
50557,-100,4,1,0,50,0,0
51815,-200,4,1,0,35,0,0
55427,-133.333333333333,4,1,0,35,0,0
55584,-200,4,1,0,40,0,0
55898,-200,4,1,0,50,0,0
56212,-200,4,1,0,60,0,0
56526,-200,4,1,0,70,0,0
56840,-200,4,1,0,50,0,0
58097,-200,4,1,0,40,0,0
61866,-200,4,1,0,50,0,0
68149,-200,4,1,0,55,0,0
68463,-200,4,1,0,60,0,0
68777,-200,4,1,0,65,0,0
69091,-200,4,1,0,70,0,0
69406,-200,4,1,0,50,0,0
70034,-200,4,1,0,35,0,0
70662,-200,4,1,0,45,0,0
71290,-200,4,1,0,35,0,0
71369,-200,4,1,0,36,0,0
71447,-200,4,1,0,37,0,0
71526,-200,4,1,0,38,0,0
71605,-200,4,1,0,39,0,0
71683,-200,4,1,0,40,0,0
71762,-200,4,1,0,41,0,0
71840,-200,4,1,0,42,0,0
75688,-200,4,1,0,45,0,0
76002,-200,4,1,0,50,0,0
76317,-200,4,1,0,55,0,0
76631,-200,4,1,0,45,0,0
80557,-133.333333333333,4,1,0,45,0,0
80950,-200,4,1,0,45,0,0
81186,-200,4,1,0,50,0,0
81343,-133.333333333333,4,1,0,50,0,0
81578,-200,4,1,0,50,0,0
81972,-133.333333333333,4,1,0,60,0,0
83228,-133.333333333333,4,1,0,65,0,0
83542,-133.333333333333,4,1,0,65,0,0
83856,-133.333333333333,4,1,0,65,0,0
84170,-133.333333333333,4,1,0,65,0,0
84484,-133.333333333333,4,1,0,65,0,0
86997,-133.333333333333,4,1,0,70,0,0
87468,-200,4,1,0,50,0,0
87940,-133.333333333333,4,1,0,40,0,0
88882,-133.333333333333,4,1,0,50,0,0
89510,-133.333333333333,4,1,0,60,0,0
92023,-200,4,1,0,45,0,0
101762,-133.333333333333,4,1,0,50,0,0
102076,-133.333333333333,4,1,0,65,0,0
104118,-133.333333333333,4,1,0,45,0,0
104589,-133.333333333333,4,1,0,65,0,0
106631,-133.333333333333,4,1,0,45,0,0
107102,-133.333333333333,4,1,0,70,0,0
111814,-142.857142857143,4,1,0,70,0,1
112285,-76.9230769230769,4,1,0,70,0,1
112756,-153.846153846154,4,1,0,70,0,1
113385,-76.9230769230769,4,1,0,70,0,1
113856,-153.846153846154,4,1,0,70,0,1
114641,-117.647058823529,4,1,0,70,0,1
114955,-95.2380952380952,4,1,0,70,0,1
115269,-80,4,1,0,70,0,1
115898,-415,4,1,0,70,0,1
116369,-153.846153846154,4,1,0,70,0,1
116840,-153.846153846154,4,1,0,45,0,1
117154,-153.846153846154,4,1,0,70,0,1
121866,-153.846153846154,4,1,0,45,0,1
122180,-153.846153846154,4,1,0,70,0,1
122338,-76.9230769230769,4,1,0,70,0,1
122652,-153.846153846154,4,1,0,70,0,1
123437,-76.9230769230769,4,1,0,70,0,1
123751,-153.846153846154,4,1,0,70,0,1
124694,-153.846153846154,4,1,0,75,0,1
126421,-153.846153846154,4,1,0,70,0,1
127207,-153.846153846154,4,1,0,90,0,1
127521,-153.846153846154,4,1,0,70,0,1
127835,-153.846153846154,4,1,0,90,0,1
128149,-153.846153846154,4,1,0,70,0,1
128463,-153.846153846154,4,1,0,90,0,1
128777,-153.846153846154,4,1,0,70,0,1
131212,-153.846153846154,4,1,0,55,0,1
132233,-200,4,1,0,55,0,0
132547,-153.846153846154,4,1,0,90,0,0
132783,-153.846153846154,4,1,0,55,0,0
133175,-700,4,1,0,55,0,0
133803,-153.846153846154,4,1,0,90,0,0
134039,-153.846153846154,4,1,0,55,0,0
134432,-700,4,1,0,100,0,0
135060,-153.846153846154,4,1,0,90,0,0
135296,-153.846153846154,4,1,0,55,0,0
135688,-200,4,1,0,55,0,0
136317,-153.846153846154,4,1,0,90,0,0
136552,-153.846153846154,4,1,0,55,0,0
136945,-200,4,1,0,55,0,0
137573,-153.846153846154,4,1,0,90,0,0
137809,-153.846153846154,4,1,0,55,0,0
138201,-200,4,1,0,55,0,0
138830,-153.846153846154,4,1,0,90,0,0
139065,-153.846153846154,4,1,0,55,0,0
139458,-200,4,1,0,55,0,0
140086,-153.846153846154,4,1,0,90,0,0
140322,-153.846153846154,4,1,0,55,0,0
140714,-200,4,1,0,55,0,0
141343,-153.846153846154,4,1,0,90,0,0
141578,-153.846153846154,4,1,0,55,0,0
142285,-153.846153846154,4,1,0,70,0,0
146997,-153.846153846154,4,1,0,50,0,0
147311,-153.846153846154,4,1,0,80,0,0
152338,-200,4,1,0,70,0,0
152809,-200,4,1,0,65,0,0
153280,-200,4,1,0,60,0,0
153751,-200,4,1,0,55,0,0
153987,-1000,4,1,0,50,0,0
157364,-300,4,1,0,45,0,0
161133,-300,4,1,0,55,0,0
177468,-222.222222222222,4,1,0,70,0,0
177940,-222.222222222222,4,1,0,55,0,0
195060,-666.666666666667,4,1,0,40,0,0
196866,-666.666666666667,4,1,0,5,0,0
197259,-666.666666666667,4,1,0,15,0,0
198830,-666.666666666667,4,1,0,20,0,0
200086,-666.666666666667,4,1,0,21,0,0
200400,-666.666666666667,4,1,0,22,0,0
200714,-666.666666666667,4,1,0,23,0,0
201029,-666.666666666667,4,1,0,24,0,0
201343,-666.666666666667,4,1,0,25,0,0
201814,-666.666666666667,4,1,0,15,0,0
202599,-666.666666666667,4,1,0,20,0,0
208882,-666.666666666667,4,1,0,25,0,0
216421,-100,4,1,0,65,0,0
217364,-166.666666666667,4,1,0,70,0,1
217835,-76.9230769230769,4,1,0,70,0,1
218306,-166.666666666667,4,1,0,70,0,1
218934,-76.9230769230769,4,1,0,70,0,1
219248,-166.666666666667,4,1,0,70,0,1
220505,-151.515151515152,4,1,0,70,0,1
220819,-111.111111111111,4,1,0,70,0,1
221447,-700,4,1,0,70,0,1
221919,-166.666666666667,4,1,0,70,0,1
223961,-153.846153846154,4,1,0,70,0,1
224275,-166.666666666667,4,1,0,70,0,1
225531,-151.515151515152,4,1,0,70,0,1
225845,-111.111111111111,4,1,0,70,0,1
226159,-166.666666666667,4,1,0,70,0,1
227887,-76.9230769230769,4,1,0,70,0,1
228358,-166.666666666667,4,1,0,70,0,1
228987,-76.9230769230769,4,1,0,70,0,1
229615,-166.666666666667,4,1,0,70,0,1
230243,-166.666666666667,4,1,0,80,0,1
232442,-166.666666666667,4,1,0,70,0,1
232756,-166.666666666667,4,1,0,90,0,1
233070,-166.666666666667,4,1,0,70,0,1
233385,-166.666666666667,4,1,0,90,0,1
233699,-166.666666666667,4,1,0,70,0,1
234013,-166.666666666667,4,1,0,90,0,1
234327,-166.666666666667,4,1,0,70,0,1
236526,-166.666666666667,4,1,0,70,0,0
237154,-600,4,1,0,50,0,0
237783,-100,4,1,0,80,0,1
238254,-600,4,1,0,80,0,1
238411,-90.9090909090909,4,1,0,80,0,1
238568,-600,4,1,0,80,0,1
238725,-90.9090909090909,4,1,0,80,0,1
238882,-600,4,1,0,80,0,1
239039,-700,4,1,0,80,0,1
239667,-90.9090909090909,4,1,0,80,0,1
239824,-600,4,1,0,80,0,1
239981,-90.9090909090909,4,1,0,80,0,1
240139,-600,4,1,0,80,0,1
240296,-100,4,1,0,80,0,1
240610,-83.3333333333333,4,1,0,80,0,1
240924,-71.4285714285714,4,1,0,80,0,1
241238,-62.5,4,1,0,80,0,1
241552,-90.9090909090909,4,1,0,80,0,1
242966,-200,4,1,0,80,0,1
243437,-90.9090909090909,4,1,0,80,0,1
245322,-90.9090909090909,4,1,0,70,0,1
246578,-90.9090909090909,4,1,0,80,0,1
248306,-200,4,1,0,80,0,1
248463,-90.9090909090909,4,1,0,80,0,1
248620,-600,4,1,0,80,0,1
248777,-90.9090909090909,4,1,0,80,0,1
248934,-600,4,1,0,80,0,1
249091,-90.9090909090909,4,1,0,80,0,1
249877,-600,4,1,0,80,0,1
250034,-90.9090909090909,4,1,0,80,0,1
250191,-600,4,1,0,80,0,1
250348,-90.9090909090909,4,1,0,95,0,0
251605,-90.9090909090909,4,1,0,80,0,0
252547,-90.9090909090909,4,1,0,80,0,1
252861,-90.9090909090909,4,1,0,90,0,1
253175,-90.9090909090909,4,1,0,80,0,1
253489,-90.9090909090909,4,1,0,90,0,1
253803,-90.9090909090909,4,1,0,80,0,1
254118,-90.9090909090909,4,1,0,90,0,1
254432,-90.9090909090909,4,1,0,80,0,1
256002,-200,4,1,0,70,0,0
256631,-90.9090909090909,4,1,0,70,0,0
257573,-181.818181818182,4,1,0,70,0,0
259772,-100,4,1,0,70,0,0
260086,-181.818181818182,4,1,0,70,0,0
261500,-100,4,1,0,70,0,0
261657,-181.818181818182,4,1,0,70,0,0
262442,-100,4,1,0,70,0,0
265269,-133.333333333333,4,1,0,70,0,0
266369,-100,4,1,0,70,0,0
266683,-100,4,1,0,70,0,0
267625,-181.818181818182,4,1,0,70,0,0
269824,-100,4,1,0,70,0,0
270139,-181.818181818182,4,1,0,70,0,0
271552,-100,4,1,0,70,0,0
271709,-181.818181818182,4,1,0,70,0,0
272495,-100,4,1,0,70,0,0
275165,-133.333333333333,4,1,0,70,0,0
276421,-100,4,1,0,100,0,0
284196,-100,4,1,0,5,0,0

[HitObjects]
256,192,39249,12,0,41133,0:0:0:0:
416,208,41447,5,0,0:0:0:0:
400,240,41526,1,0,0:0:0:0:
371,268,41605,1,0,0:0:0:0:
331,280,41683,1,0,0:0:0:0:
290,280,41762,2,0,L|208:272,1,82.5000025177003,0|0,0:0|0:0,0:0:0:0:
222,104,42233,6,0,L|292:110,1,41.2500012588501,0|0,0:0|0:0,0:0:0:0:
304,128,42390,2,0,L|297:198,1,41.2500012588501,0|0,0:0|0:0,0:0:0:0:
240,240,42547,1,0,0:0:0:0:
178,240,42625,1,0,0:0:0:0:
115,240,42704,2,0,L|112:176,1,41.2500012588501,0|0,0:0|0:0,0:0:0:0:
112,112,42861,1,0,0:0:0:0:
40,173,43018,5,0,0:0:0:0:
115,240,43175,1,0,0:0:0:0:
256,320,43489,6,0,L|326:326,1,41.2500012588501,0|0,0:0|0:0,0:0:0:0:
399,255,43646,2,0,L|421:253,12,18.75,0|0|0|0|0|0|0|0|0|0|0|0|0,0:0|0:0|0:0|0:0|0:0|0:0|0:0|0:0|0:0|0:0|0:0|0:0|0:0,0:0:0:0:
299,169,43961,2,0,L|306:99,1,41.2500012588501,0|0,0:0|0:0,0:0:0:0:
395,137,44118,2,0,L|388:67,1,41.2500012588501,0|0,0:0|0:0,0:0:0:0:
213,215,44275,5,0,0:0:0:0:
320,256,44432,1,0,0:0:0:0:
96,176,44589,1,0,0:0:0:0:
240,80,44746,1,0,0:0:0:0:
256,320,44903,1,0,0:0:0:0:
331,128,45060,1,0,0:0:0:0:
125,279,45217,1,0,0:0:0:0:
400,80,45374,2,0,L|416:67,4,18.7499994039536,0|0|0|0|0,0:0|0:0|0:0|0:0|0:0,0:0:0:0:
288,32,45531,6,0,L|224:48,1,41.2500012588501,0|0,0:0|0:0,0:0:0:0:
176,96,45688,1,0,0:0:0:0:
128,160,45767,1,0,0:0:0:0:
112,240,45845,6,0,L|128:288,1,41.2500012588501,0|0,0:0|0:0,0:0:0:0:
128,160,46002,1,0,0:0:0:0:
176,96,46081,1,0,0:0:0:0:
247,42,46159,2,0,L|288:32,1,41.2500012588501,0|0,0:0|0:0,0:0:0:0:
400,80,46317,2,0,L|423:91,4,18.7499994039536,0|0|0|0|0,0:0|0:0|0:0|0:0|0:0,0:0:0:0:
288,160,46474,1,0,0:0:0:0:
432,240,46631,1,0,0:0:0:0:
288,160,46788,5,0,0:0:0:0:
125,279,46945,1,0,0:0:0:0:
125,279,47259,1,0,0:0:0:0:
247,42,47416,1,0,0:0:0:0:
432,240,47573,1,0,0:0:0:0:
432,240,47887,5,0,0:0:0:0:
190,357,48044,1,0,0:0:0:0:
158,89,48201,1,0,0:0:0:0:
158,89,48516,5,0,0:0:0:0:
425,61,48673,1,0,0:0:0:0:
363,324,48830,1,0,0:0:0:0:
363,324,49144,6,0,L|320:267,1,56.2500021457673,0|0,0:0|0:0,0:0:0:0:
279,208,49301,1,0,0:0:0:0:
125,279,49458,1,0,0:0:0:0:
73,235,49536,1,0,0:0:0:0:
23,188,49615,1,0,0:0:0:0:
69,141,49694,1,0,0:0:0:0:
121,97,49772,1,0,0:0:0:0:
175,54,49851,1,0,0:0:0:0:
186,97,49929,5,0,0:0:0:0:
177,140,50008,1,0,0:0:0:0:
190,183,50086,1,0,0:0:0:0:
180,226,50165,1,0,0:0:0:0:
193,271,50243,2,0,L|203:293,12,18.75
432,240,50557,1,0,0:0:0:0:
256,96,51814,5,0,0:0:0:0:
336,112,51971,2,0,L|320:192,1,74.9999976158143,0|0,0:0|0:0,0:0:0:0:
395,194,52285,1,0,0:0:0:0:
224,240,52442,2,0,L|240:320,1,74.9999976158143,0|0,0:0|0:0,0:0:0:0:
322,300,52756,1,0,0:0:0:0:
322,300,52835,1,0,0:0:0:0:
322,300,52913,1,0,0:0:0:0:
130,211,53070,6,0,L|36:187,1,74.9999976158143,0|0,0:0|0:0,0:0:0:0:
72,119,53385,1,0,0:0:0:0:
115,288,53542,1,0,0:0:0:0:
191,148,53699,2,0,L|241:53,1,74.9999976158143,0|0,0:0|0:0,0:0:0:0:
298,137,54013,1,0,0:0:0:0:
298,137,54091,1,0,0:0:0:0:
298,137,54170,1,0,0:0:0:0:
432,176,54327,6,0,L|448:96,2,74.9999976158143,0|0|0,0:0|0:0|0:0,0:0:0:0:
416,272,54798,2,0,L|432:352,2,74.9999976158143,0|0|0,0:0|0:0|0:0,0:0:0:0:
300,186,55269,1,0,0:0:0:0:
188,202,55427,1,0,0:0:0:0:
104,160,55584,6,0,L|83:54,1,74.9999976158143,0|0,0:0|0:0,0:0:0:0:
188,202,55898,2,0,L|201:113,1,74.9999976158143,0|0,0:0|0:0,0:0:0:0:
288,269,56212,2,0,L|278:178,1,74.9999976158143,0|0,0:0|0:0,0:0:0:0:
372,301,56526,2,0,L|383:218,1,74.9999976158143,0|0,0:0|0:0,0:0:0:0:
481,130,56840,6,0,P|425:158|464:64,1,224.999992847443,0|0,0:0|0:0,0:0:0:0:
432,256,57468,2,0,P|481:333|389:331,1,224.999992847443,0|0,0:0|0:0,0:0:0:0:
288,269,58097,6,0,L|278:178,1,74.9999976158143,0|0,0:0|0:0,0:0:0:0:
188,202,58411,1,0,0:0:0:0:
272,80,58568,1,0,0:0:0:0:
272,80,58646,1,0,0:0:0:0:
272,80,58725,1,0,0:0:0:0:
112,144,58882,1,0,0:0:0:0:
180,54,59039,1,0,0:0:0:0:
96,224,59196,5,0,0:0:0:0:
80,256,59275,1,0,0:0:0:0:
64,288,59353,2,0,L|19:372,2,74.9999976158143,0|0|0,0:0|0:0|0:0,0:0:0:0:
192,240,59824,1,0,0:0:0:0:
289,230,59981,6,0,L|304:304,1,74.9999976158143,0|0,0:0|0:0,0:0:0:0:
368,368,60296,1,0,0:0:0:0:
400,288,60453,1,0,0:0:0:0:
400,86,60610,5,0,0:0:0:0:
398,70,60924,5,0,0:0:0:0:
397,54,61238,5,0,0:0:0:0:
395,38,61552,5,0,0:0:0:0:
409,197,61709,1,0,0:0:0:0:
412,229,61788,1,0,0:0:0:0:
415,261,61866,2,0,L|421:340,2,74.9999976158143,0|0|0,0:0|0:0|0:0,0:0:0:0:
316,237,62338,2,0,L|309:157,2,74.9999976158143,0|0|0,0:0|0:0|0:0,0:0:0:0:
244,324,62809,1,0,0:0:0:0:
209,307,62887,1,0,0:0:0:0:
176,288,62966,1,0,0:0:0:0:
147,263,63044,1,0,0:0:0:0:
124,232,63123,5,0,0:0:0:0:
123,216,63437,5,0,0:0:0:0:
121,200,63751,5,0,0:0:0:0:
120,184,64065,5,0,0:0:0:0:
106,31,64222,1,0,0:0:0:0:
142,28,64301,1,0,0:0:0:0:
179,24,64379,2,0,L|264:16,2,74.9999976158143,0|0|0,0:0|0:0|0:0,0:0:0:0:
321,108,64851,2,0,L|235:115,2,74.9999976158143,0|0|0,0:0|0:0|0:0,0:0:0:0:
425,196,65322,1,0,0:0:0:0:
394,218,65400,1,0,0:0:0:0:
365,243,65479,1,0,0:0:0:0:
340,272,65557,1,0,0:0:0:0:
324,307,65636,5,0,0:0:0:0:
325,321,65950,5,0,0:0:0:0:
327,337,66264,5,0,0:0:0:0:
328,352,66578,5,0,0:0:0:0:
227,133,66735,1,0,0:0:0:0:
230,170,66814,1,0,0:0:0:0:
233,206,66892,2,0,L|240:291,2,74.9999976158143,0|0|0,0:0|0:0|0:0,0:0:0:0:
133,157,67364,1,0,0:0:0:0:
136,283,67521,2,0,L|112:362,1,74.9999976158143,0|0,0:0|0:0,0:0:0:0:
239,280,67835,5,0,0:0:0:0:
265,253,67913,1,0,0:0:0:0:
291,226,67992,1,0,0:0:0:0:
317,199,68070,1,0,0:0:0:0:
343,172,68149,2,0,L|367:99,1,74.9999976158143,0|0,0:0|0:0,0:0:0:0:
447,259,68463,2,0,L|431:163,1,74.9999976158143,0|0,0:0|0:0,0:0:0:0:
351,339,68777,2,0,L|362:256,1,74.9999976158143,0|0,0:0|0:0,0:0:0:0:
271,243,69091,2,0,L|255:163,1,74.9999976158143,0|0,0:0|0:0,0:0:0:0:
160,64,69406,6,0,P|128:160|160:144,1,262.49999165535,0|0,0:0|0:0,0:0:0:0:
157,146,70034,5,0,0:0:0:0:
128,133,70112,1,0,0:0:0:0:
91,138,70191,1,0,0:0:0:0:
68,169,70269,1,0,0:0:0:0:
66,207,70348,1,0,0:0:0:0:
91,235,70427,1,0,0:0:0:0:
127,244,70505,1,0,0:0:0:0:
160,228,70584,1,0,0:0:0:0:
187,202,70662,6,0,P|163:238|155:298,1,74.9999976158143,0|0,0:0|0:0,0:0:0:0:
247,270,70976,1,0,0:0:0:0:
85,318,71133,1,0,0:0:0:0:
256,287,71290,5,0,0:0:0:0:
289,269,71369,1,0,0:0:0:0:
316,245,71447,1,0,0:0:0:0:
339,215,71526,1,0,0:0:0:0:
360,184,71605,5,0,0:0:0:0:
380,215,71683,1,0,0:0:0:0:
398,248,71762,1,0,0:0:0:0:
422,275,71840,1,0,0:0:0:0:
452,298,71919,2,0,P|410:292|362:309,2,74.9999976158143,0|0|0,0:0|0:0|0:0,0:0:0:0:
419,373,72390,5,0,0:0:0:0:
419,208,72547,2,0,P|400:160|368:128,1,74.9999976158143,0|0,0:0|0:0,0:0:0:0:
336,208,72861,1,0,0:0:0:0:
300,197,72940,1,0,0:0:0:0:
265,181,73018,1,0,0:0:0:0:
237,155,73097,1,0,0:0:0:0:
218,122,73175,6,0,P|209:167|175:206,2,74.9999976158143,0|0|0,0:0|0:0|0:0,0:0:0:0:
134,124,73646,1,0,0:0:0:0:
254,248,73803,2,0,P|223:282|174:299,2,74.9999976158143,0|0|0,0:0|0:0|0:0,0:0:0:0:
339,299,74275,1,0,0:0:0:0:
316,328,74353,1,0,0:0:0:0:
285,350,74432,1,0,0:0:0:0:
339,299,74903,1,0,0:0:0:0:
355,33,75374,5,0,0:0:0:0:
372,34,75453,1,0,0:0:0:0:
389,41,75531,1,0,0:0:0:0:
403,52,75610,1,0,0:0:0:0:
412,68,75688,2,0,L|410:179,1,74.9999976158143,0|0,0:0|0:0,0:0:0:0:
315,117,76002,2,0,L|334:209,1,74.9999976158143,0|0,0:0|0:0,0:0:0:0:
239,172,76317,2,0,L|228:259,1,74.9999976158143,0|0,0:0|0:0,0:0:0:0:
134,278,76631,5,0,0:0:0:0:
147,265,76709,1,0,0:0:0:0:
148,246,76788,1,0,0:0:0:0:
143,227,76866,1,0,0:0:0:0:
128,214,76945,2,0,P|100:177|94:126,2,74.9999976158143,0|0|0,0:0|0:0|0:0,0:0:0:0:
182,143,77416,6,0,P|210:106|216:55,1,74.9999976158143,0|0,0:0|0:0,0:0:0:0:
264,44,77652,1,0,0:0:0:0:
249,56,77730,1,0,0:0:0:0:
306,134,77887,1,0,0:0:0:0:
360,59,78044,1,0,0:0:0:0:
432,144,78201,6,0,P|404:181|398:232,1,74.9999976158143,0|0,0:0|0:0,0:0:0:0:
350,243,78437,1,0,0:0:0:0:
363,229,78516,2,0,P|318:214|268:225,1,74.9999976158143,0|0,0:0|0:0,0:0:0:0:
314,311,78830,2,0,P|283:345|234:361,1,74.9999976158143,0|0,0:0|0:0,0:0:0:0:
171,340,79144,1,0,0:0:0:0:
399,356,79301,1,0,0:0:0:0:
239,279,79458,6,0,P|196:260|165:219,1,74.9999976158143,0|0,0:0|0:0,0:0:0:0:
118,234,79694,1,0,0:0:0:0:
137,237,79772,1,0,0:0:0:0:
248,190,79929,1,0,0:0:0:0:
139,342,80086,1,0,0:0:0:0:
139,342,80165,2,0,P|96:323|65:282,1,74.9999976158143,0|0,0:0|0:0,0:0:0:0:
84,269,80400,1,0,0:0:0:0:
314,311,80557,1,0,0:0:0:0:
461,152,80714,6,0,B|445:120|452:91|452:91|425:68|420:40,1,112.500000715256,0|0,0:0|0:0,0:0:0:0:
366,130,80950,2,0,P|361:167|381:223,1,74.9999976158143,0|0,0:0|0:0,0:0:0:0:
394,231,81186,2,0,P|376:209|350:190,1,37.4999988079071,0|0,0:0|0:0,0:0:0:0:
266,171,81343,2,0,B|282:203|275:232|275:232|302:255|307:283,1,112.500000715256,0|0,0:0|0:0,0:0:0:0:
225,306,81578,2,0,B|183:286|183:286|136:304,1,74.9999976158143,0|0,0:0|0:0,0:0:0:0:
163,261,81814,2,0,B|163:288|163:288|138:320,1,37.4999988079071,0|0,0:0|0:0,0:0:0:0:
74,186,81971,6,0,L|101:129,4,37.4999988079071,0|0|0|0|0,0:0|0:0|0:0|0:0|0:0,0:0:0:0:
324,208,82442,6,0,L|292:150,4,56.2500003576279,0|0|0|0|0,0:0|0:0|0:0|0:0|0:0,0:0:0:0:
460,87,82913,5,0,0:0:0:0:
460,131,82992,1,0,0:0:0:0:
460,175,83070,1,0,0:0:0:0:
460,220,83149,1,0,0:0:0:0:
460,264,83228,1,0,0:0:0:0:
460,304,83306,5,0,0:0:0:0:
445,261,83385,1,0,0:0:0:0:
423,221,83463,1,0,0:0:0:0:
392,188,83542,1,0,0:0:0:0:
323,190,83620,1,0,0:0:0:0:
279,175,83699,1,0,0:0:0:0:
240,153,83777,1,0,0:0:0:0:
207,122,83856,5,0,0:0:0:0:
207,166,83934,1,0,0:0:0:0:
207,211,84013,1,0,0:0:0:0:
207,255,84091,1,0,0:0:0:0:
207,300,84170,1,0,0:0:0:0:
268,343,84248,1,0,0:0:0:0:
311,328,84327,1,0,0:0:0:0:
351,306,84406,1,0,0:0:0:0:
385,283,84484,6,0,B|417:258|417:258|375:232|377:166,1,112.500000715256,0|0,0:0|0:0,0:0:0:0:
387,116,84720,1,0,0:0:0:0:
346,154,84798,1,0,0:0:0:0:
190,93,84955,2,0,B|128:96|128:96|128:128|64:160,1,112.500000715256,0|0,0:0|0:0,0:0:0:0:
176,176,85191,2,0,L|240:272,1,112.500000715256,0|0,0:0|0:0,0:0:0:0:
347,339,85427,2,0,L|281:314,1,56.2500003576279,0|0,0:0|0:0,0:0:0:0:
292,352,85584,2,0,L|347:339,1,56.2500003576279,0|0,0:0|0:0,0:0:0:0:
477,233,85741,6,0,L|359:192,1,112.500000715256,0|0,0:0|0:0,0:0:0:0:
297,171,85976,1,0,0:0:0:0:
269,241,86055,1,0,0:0:0:0:
500,122,86212,1,0,0:0:0:0:
269,241,86369,2,0,L|151:282,1,112.500000715256,0|0,0:0|0:0,0:0:0:0:
89,303,86605,1,0,0:0:0:0:
61,233,86683,1,0,0:0:0:0:
292,352,86840,1,0,0:0:0:0:
61,299,86997,5,0,0:0:0:0:
61,233,87075,1,0,0:0:0:0:
61,169,87154,1,0,0:0:0:0:
61,103,87232,1,0,0:0:0:0:
61,38,87311,1,0,0:0:0:0:
269,241,87468,6,0,L|230:208,4,37.4999988079071,0|0|0|0|0,0:0|0:0|0:0|0:0|0:0,0:0:0:0:
181,70,87940,5,0,0:0:0:0:
181,70,88018,1,0,0:0:0:0:
183,75,88097,1,0,0:0:0:0:
185,79,88175,1,0,0:0:0:0:
186,84,88254,5,0,0:0:0:0:
192,76,88332,1,0,0:0:0:0:
199,69,88411,1,0,0:0:0:0:
208,66,88489,1,0,0:0:0:0:
218,66,88568,5,0,0:0:0:0:
210,79,88646,1,0,0:0:0:0:
204,92,88725,1,0,0:0:0:0:
201,106,88803,1,0,0:0:0:0:
199,121,88882,5,0,0:0:0:0:
206,145,88961,1,0,0:0:0:0:
220,166,89039,1,0,0:0:0:0:
238,183,89118,1,0,0:0:0:0:
258,197,89196,5,0,0:0:0:0:
251,157,89275,1,0,0:0:0:0:
262,118,89353,1,0,0:0:0:0:
282,82,89432,1,0,0:0:0:0:
312,55,89510,5,0,0:0:0:0:
303,105,89589,1,0,0:0:0:0:
311,154,89667,1,0,0:0:0:0:
332,200,89746,1,0,0:0:0:0:
366,236,89824,5,0,0:0:0:0:
306,223,89903,1,0,0:0:0:0:
245,222,89981,1,0,0:0:0:0:
185,232,90060,1,0,0:0:0:0:
126,251,90139,5,0,0:0:0:0:
161,190,90217,1,0,0:0:0:0:
221,151,90296,1,0,0:0:0:0:
286,127,90374,1,0,0:0:0:0:
368,112,90453,2,0,P|405:108|458:123,1,56.2500003576279,0|0,0:0|0:0,0:0:0:0:
437,246,90610,2,0,P|400:250|347:235,1,56.2500003576279,0|0,0:0|0:0,0:0:0:0:
244,203,90767,2,0,P|267:174|315:147,1,56.2500003576279,0|0,0:0|0:0,0:0:0:0:
381,247,90924,2,0,P|357:275|309:302,1,56.2500003576279,0|0,0:0|0:0,0:0:0:0:
117,269,91081,2,0,P|113:232|128:179,1,56.2500003576279,0|0,0:0|0:0,0:0:0:0:
244,203,91238,2,0,P|247:239|232:293,1,56.2500003576279,0|0,0:0|0:0,0:0:0:0:
45,141,91395,2,0,L|89:142,1,28.125000178814,0|0,0:0|0:0,0:0:0:0:
60,110,91474,2,0,L|103:118,1,28.125000178814,0|0,0:0|0:0,0:0:0:0:
81,82,91552,2,0,L|122:97,1,28.125000178814,0|0,0:0|0:0,0:0:0:0:
106,58,91631,2,0,L|143:80,1,28.125000178814,0|0,0:0|0:0,0:0:0:0:
134,39,91709,2,0,L|167:68,1,28.125000178814,0|0,0:0|0:0,0:0:0:0:
166,26,91788,2,0,L|193:60,1,28.125000178814,0|0,0:0|0:0,0:0:0:0:
200,18,91866,2,0,L|221:56,1,28.125000178814,0|0,0:0|0:0,0:0:0:0:
234,17,91945,2,0,L|248:58,1,28.125000178814,0|0,0:0|0:0,0:0:0:0:
306,90,92023,6,0,P|353:92|403:139,1,112.499996423721,0|0,0:0|0:0,0:0:0:0:
322,171,92338,2,0,P|293:176|263:161,1,37.4999988079071,0|0,0:0|0:0,0:0:0:0:
224,115,92495,2,0,P|221:65|267:15,1,112.499996423721,0|0,0:0|0:0,0:0:0:0:
306,90,92809,2,0,P|311:117|300:148,1,37.4999988079071,0|0,0:0|0:0,0:0:0:0:
259,194,92966,2,0,P|207:202|150:164,1,112.499996423721,0|0,0:0|0:0,0:0:0:0:
224,115,93280,2,0,P|248:109|279:122,1,37.4999988079071,0|0,0:0|0:0,0:0:0:0:
342,164,93437,2,0,P|345:209|306:257,1,74.9999976158143,0|0,0:0|0:0,0:0:0:0:
131,174,93751,5,0,0:0:0:0:
259,194,93908,1,0,0:0:0:0:
130,72,94065,1,0,0:0:0:0:
258,90,94222,1,0,0:0:0:0:
121,234,94379,2,0,P|113:208|112:182,1,37.4999988079071,0|0,0:0|0:0,0:0:0:0:
105,117,94536,5,0,0:0:0:0:
119,82,94615,1,0,0:0:0:0:
140,51,94694,1,0,0:0:0:0:
168,26,94772,1,0,0:0:0:0:
202,9,94851,2,0,L|219:6,4,9.37499970197678,0|0|0|0|0,0:0|0:0|0:0|0:0|0:0,0:0:0:0:
333,29,95008,6,0,L|413:113,1,112.499996423721,0|0,0:0|0:0,0:0:0:0:
341,177,95322,2,0,L|319:127,1,37.4999988079071,0|0,0:0|0:0,0:0:0:0:
424,191,95479,2,0,L|396:337,1,112.499996423721,0|0,0:0|0:0,0:0:0:0:
314,369,95793,2,0,L|334:338,1,37.4999988079071,0|0,0:0|0:0,0:0:0:0:
334,258,95950,2,0,L|237:220,1,74.9999976158143,0|0,0:0|0:0,0:0:0:0:
127,181,96264,5,0,0:0:0:0:
295,130,96421,1,0,0:0:0:0:
168,294,96578,1,0,0:0:0:0:
203,107,96735,1,0,0:0:0:0:
86,296,96892,2,0,L|109:236,1,37.4999988079071,0|0,0:0|0:0,0:0:0:0:
127,181,97050,1,0,0:0:0:0:
144,144,97128,1,0,0:0:0:0:
160,112,97207,1,0,0:0:0:0:
176,80,97285,1,0,0:0:0:0:
192,48,97364,2,0,L|199:34,4,9.37499970197678,0|0|0|0|0,0:0|0:0|0:0|0:0|0:0,0:0:0:0:
260,105,97521,6,0,P|245:149|270:213,1,112.499996423721,0|0,0:0|0:0,0:0:0:0:
333,152,97835,2,0,P|357:146|379:121,1,37.4999988079071,0|0,0:0|0:0,0:0:0:0:
413,214,97992,2,0,P|376:243|363:310,1,112.499996423721,0|0,0:0|0:0,0:0:0:0:
293,346,98306,2,0,P|284:322|255:304,1,37.4999988079071,0|0,0:0|0:0,0:0:0:0:
211,253,98463,2,0,P|245:238|270:189,1,74.9999976158143,0|0,0:0|0:0,0:0:0:0:
309,82,98777,5,0,0:0:0:0:
188,175,98934,1,0,0:0:0:0:
338,93,99091,1,0,0:0:0:0:
163,166,99248,1,0,0:0:0:0:
361,105,99406,2,0,L|375:144,1,37.4999988079071,0|0,0:0|0:0,0:0:0:0:
405,217,99563,1,0,0:0:0:0:
414,245,99641,1,0,0:0:0:0:
426,274,99720,1,0,0:0:0:0:
437,305,99798,1,0,0:0:0:0:
449,335,99877,2,0,L|454:349,4,9.37499970197678,0|0|0|0|0,0:0|0:0|0:0|0:0|0:0,0:0:0:0:
365,338,100034,6,0,L|318:217,1,112.499996423721,0|0,0:0|0:0,0:0:0:0:
273,330,100348,2,0,L|265:266,1,37.4999988079071,0|0,0:0|0:0,0:0:0:0:
186,326,100505,2,0,L|204:183,1,112.499996423721,0|0,0:0|0:0,0:0:0:0:
113,295,100819,2,0,L|101:244,1,37.4999988079071,0|0,0:0|0:0,0:0:0:0:
18,283,100976,2,0,L|31:195,1,74.9999976158143,0|0,0:0|0:0,0:0:0:0:
55,112,101290,5,0,0:0:0:0:
125,56,101447,1,0,0:0:0:0:
136,167,101605,1,0,0:0:0:0:
240,64,101762,1,0,0:0:0:0:
288,64,101840,1,0,0:0:0:0:
344,64,101919,1,0,0:0:0:0:
399,64,101997,1,0,0:0:0:0:
455,64,102076,2,0,L|455:171,1,56.2500003576279,0|0,0:0|0:0,0:0:0:0:
455,229,102233,5,0,0:0:0:0:
455,229,102311,1,0,0:0:0:0:
455,229,102390,2,0,L|375:219,1,56.2500003576279,0|0,0:0|0:0,0:0:0:0:
277,335,102547,2,0,L|357:345,1,56.2500003576279,0|0,0:0|0:0,0:0:0:0:
280,238,102704,5,0,0:0:0:0:
280,238,102783,1,0,0:0:0:0:
280,238,102861,2,0,L|228:202,1,56.2500003576279,0|0,0:0|0:0,0:0:0:0:
107,240,103018,2,0,L|159:276,1,56.2500003576279,0|0,0:0|0:0,0:0:0:0:
67,149,103175,5,0,0:0:0:0:
108,110,103254,1,0,0:0:0:0:
158,86,103332,1,0,0:0:0:0:
214,81,103411,1,0,0:0:0:0:
267,96,103489,2,0,L|361:140,1,56.2500003576279,0|0,0:0|0:0,0:0:0:0:
434,218,103646,5,0,0:0:0:0:
434,218,103725,1,0,0:0:0:0:
434,218,103803,2,0,L|403:270,1,56.2500003576279,0|0,0:0|0:0,0:0:0:0:
277,335,103961,2,0,L|308:283,1,56.2500003576279,0|0,0:0|0:0,0:0:0:0:
323,194,104118,1,0,0:0:0:0:
312,168,104196,1,0,0:0:0:0:
296,137,104275,1,0,0:0:0:0:
272,106,104353,1,0,0:0:0:0:
235,79,104432,1,0,0:0:0:0:
185,68,104510,1,0,0:0:0:0:
129,78,104589,6,0,P|95:100|68:137,1,56.2500003576279,0|0,0:0|0:0,0:0:0:0:
73,245,104746,1,0,0:0:0:0:
117,211,104824,1,0,0:0:0:0:
168,187,104903,2,0,P|206:174|252:176,1,56.2500003576279,0|0,0:0|0:0,0:0:0:0:
392,273,105060,2,0,P|353:260|307:262,1,56.2500003576279,0|0,0:0|0:0,0:0:0:0:
155,321,105217,1,0,0:0:0:0:
205,294,105296,1,0,0:0:0:0:
247,257,105374,2,0,P|273:226|289:183,1,56.2500003576279,0|0,0:0|0:0,0:0:0:0:
257,48,105531,2,0,P|230:78|214:121,1,56.2500003576279,0|0,0:0|0:0,0:0:0:0:
247,257,105688,5,0,0:0:0:0:
284,299,105767,1,0,0:0:0:0:
329,330,105845,1,0,0:0:0:0:
381,351,105924,1,0,0:0:0:0:
436,349,106002,2,0,P|470:342|505:307,1,56.2500003576279,0|0,0:0|0:0,0:0:0:0:
486,237,106159,1,0,0:0:0:0:
486,180,106238,1,0,0:0:0:0:
486,123,106317,1,0,0:0:0:0:
486,67,106395,1,0,0:0:0:0:
486,10,106474,2,0,P|462:38|408:60,1,56.2500003576279,0|0,0:0|0:0,0:0:0:0:
297,64,106631,5,0,0:0:0:0:
242,76,106709,1,0,0:0:0:0:
197,111,106788,1,0,0:0:0:0:
163,155,106866,1,0,0:0:0:0:
137,205,106945,1,0,0:0:0:0:
123,259,107023,1,0,0:0:0:0:
133,314,107102,6,0,L|189:257,1,56.2500003576279,0|0,0:0|0:0,0:0:0:0:
379,70,107259,2,0,L|322:126,1,56.2500003576279,0|0,0:0|0:0,0:0:0:0:
256,321,107416,2,0,L|256:241,1,56.2500003576279,0|0,0:0|0:0,0:0:0:0:
256,63,107573,2,0,L|256:143,1,56.2500003576279,0|0,0:0|0:0,0:0:0:0:
379,314,107730,2,0,L|322:257,1,56.2500003576279,0|0,0:0|0:0,0:0:0:0:
133,70,107887,2,0,L|189:126,1,56.2500003576279,0|0,0:0|0:0,0:0:0:0:
385,192,108044,2,0,L|305:192,1,56.2500003576279,0|0,0:0|0:0,0:0:0:0:
127,192,108201,2,0,L|207:192,1,56.2500003576279,0|0,0:0|0:0,0:0:0:0:
385,192,108358,6,0,L|441:192,1,56.2500003576279,0|0,0:0|0:0,0:0:0:0:
127,192,108516,2,0,L|70:192,1,56.2500003576279,0|0,0:0|0:0,0:0:0:0:
256,63,108673,2,0,L|256:6,1,56.2500003576279,0|0,0:0|0:0,0:0:0:0:
256,321,108830,2,0,L|256:377,1,56.2500003576279,0|0,0:0|0:0,0:0:0:0:
379,70,108987,2,0,L|419:30,1,56.2500003576279,0|0,0:0|0:0,0:0:0:0:
133,314,109144,2,0,L|93:354,1,56.2500003576279,0|0,0:0|0:0,0:0:0:0:
379,314,109301,2,0,L|418:353,1,56.2500003576279,0|0,0:0|0:0,0:0:0:0:
133,70,109458,2,0,L|93:30,1,56.2500003576279,0|0,0:0|0:0,0:0:0:0:
230,229,109615,5,0,0:0:0:0:
259,277,109694,1,0,0:0:0:0:
311,273,109772,1,0,0:0:0:0:
338,227,109851,1,0,0:0:0:0:
311,181,109929,1,0,0:0:0:0:
257,180,110008,1,0,0:0:0:0:
230,229,110086,5,0,0:0:0:0:
259,277,110165,1,0,0:0:0:0:
311,273,110243,1,0,0:0:0:0:
338,227,110322,1,0,0:0:0:0:
311,181,110400,1,0,0:0:0:0:
257,180,110479,1,0,0:0:0:0:
210,210,110557,5,0,0:0:0:0:
147,210,110636,1,0,0:0:0:0:
87,180,110714,1,0,0:0:0:0:
34,128,110793,1,0,0:0:0:0:
11,50,110872,1,0,0:0:0:0:
221,24,111814,5,0,0:0:0:0:
276,56,111892,1,0,0:0:0:0:
331,88,111971,1,0,0:0:0:0:
387,120,112050,1,0,0:0:0:0:
440,151,112128,2,0,L|509:190,1,52.4999967288972
340,215,112285,2,0,B|285:182|285:182|249:179|249:179|230:149|230:149|161:107,1,194.999984874726,0|0,0:0|0:0,0:0:0:0:
264,265,112599,1,0,0:0:0:0:
333,52,112756,2,0,P|367:39|418:43,1,48.7499962186815,0|0,0:0|0:0,0:0:0:0:
432,121,112913,2,0,P|467:126|510:155,1,48.7499962186815,0|0,0:0|0:0,0:0:0:0:
449,230,113070,2,0,P|477:252|499:299,1,48.7499962186815,0|0,0:0|0:0,0:0:0:0:
393,325,113228,2,0,P|405:359|402:410,1,48.7499962186815,0|0,0:0|0:0,0:0:0:0:
179,118,113385,6,0,B|233:150|233:150|269:153|269:153|288:183|288:183|357:225,1,194.999984874726
258,68,113699,1,0,0:0:0:0:
224,238,113856,1,0,0:0:0:0:
327,342,114013,2,0,B|354:356|354:356|412:351,1,48.7499962186815,0|0,0:0|0:0,0:0:0:0:
426,271,114170,2,0,B|458:271|458:271|504:236,1,48.7499962186815,0|0,0:0|0:0,0:0:0:0:
443,164,114327,2,0,B|470:144|470:144|493:94,1,48.7499962186815,0|0,0:0|0:0,0:0:0:0:
387,69,114484,2,0,B|403:40|403:40|396:-16,1,48.7499962186815,0|0,0:0|0:0,0:0:0:0:
187,162,114641,6,0,B|158:219|182:256|182:256|138:260|107:320,1,191.249997568131,0|0,0:0|0:0,0:0:0:0:
196,347,114955,6,0,B|249:312|279:387|351:322|351:322|352:264|268:223,1,236.249985280038,0|0,0:0|0:0,0:0:0:0:
258,207,115269,6,0,B|280:157|263:127|263:127|236:82|255:27|296:17|334:21|367:35|365:82,1,281.249991059303,0|0,0:0|0:0,0:0:0:0:
375,144,115584,6,0,B|321:118|258:206|258:206|225:128|225:128|183:143|165:218,1,281.249991059303,0|0,0:0|0:0,0:0:0:0:
181,254,115898,6,0,P|163:291|119:324,1,89.9999971389771,0|0,0:0|0:0,0:0:0:0:
35,221,116369,6,0,P|22:187|29:134,1,48.7499962186815,0|0,0:0|0:0,0:0:0:0:
82,102,116526,2,0,P|87:66|120:24,1,48.7499962186815,0|0,0:0|0:0,0:0:0:0:
194,31,116683,1,0,0:0:0:0:
445,90,116840,1,0,0:0:0:0:
463,150,116919,1,0,0:0:0:0:
461,212,116997,1,0,0:0:0:0:
437,271,117076,1,0,0:0:0:0:
397,319,117154,5,0,0:0:0:0:
181,254,117311,1,0,0:0:0:0:
375,144,117468,1,0,0:0:0:0:
272,348,117625,1,0,0:0:0:0:
113,129,117783,2,0,P|136:112|166:100,1,48.7499962186815,0|0,0:0|0:0,0:0:0:0:
304,117,117940,2,0,P|281:134|251:146,1,48.7499962186815,0|0,0:0|0:0,0:0:0:0:
74,180,118097,2,0,P|102:175|131:163,1,48.7499962186815,0|0,0:0|0:0,0:0:0:0:
330,68,118254,2,0,P|301:72|272:84,1,48.7499962186815,0|0,0:0|0:0,0:0:0:0:
181,254,118411,6,0,B|177:289|195:303|195:303|222:295|249:311,1,97.4999924373631,0|0,0:0|0:0,0:0:0:0:
353,352,118725,1,0,0:0:0:0:
451,259,118882,2,0,P|430:238|402:222,1,48.7499962186815,0|0,0:0|0:0,0:0:0:0:
283,226,119039,2,0,P|303:246|331:262,1,48.7499962186815,0|0,0:0|0:0,0:0:0:0:
498,219,119196,1,0,0:0:0:0:
350,167,119353,1,0,0:0:0:0:
293,136,119432,1,0,0:0:0:0:
240,101,119510,1,0,0:0:0:0:
196,54,119589,1,0,0:0:0:0:
180,12,119667,6,0,B|168:73|107:79|107:79|78:90|70:137,1,146.249988656045,0|0,0:0|0:0,0:0:0:0:
0,86,119981,2,0,P|12:156|107:182,1,146.249988656045,0|0,0:0|0:0,0:0:0:0:
148,155,120296,2,0,B|172:191|145:238|145:238|139:281|206:290,1,146.249988656045,0|0,0:0|0:0,0:0:0:0:
297,221,120610,2,0,P|276:233|259:251,1,48.7499962186815,0|0,0:0|0:0,0:0:0:0:
368,327,120767,2,0,P|347:314|330:296,1,48.7499962186815,0|0,0:0|0:0,0:0:0:0:
378,366,120924,6,0,L|480:302,1,97.4999924373631,0|0,0:0|0:0,0:0:0:0:
466,259,121159,1,0,0:0:0:0:
466,195,121238,1,0,0:0:0:0:
319,195,121395,1,0,0:0:0:0:
255,195,121474,1,0,0:0:0:0:
192,195,121552,1,0,0:0:0:0:
371,122,121709,1,0,0:0:0:0:
276,313,121866,5,0,0:0:0:0:
213,313,121945,1,0,0:0:0:0:
149,313,122023,1,0,0:0:0:0:
85,313,122102,1,0,0:0:0:0:
21,313,122180,6,0,P|45:285|57:233,1,48.7499962186815,0|0,0:0|0:0,0:0:0:0:
179,118,122338,6,0,B|233:150|233:150|269:153|269:153|288:183|288:183|357:225,1,194.999984874726,0|0,0:0|0:0,0:0:0:0:
254,63,122652,1,0,0:0:0:0:
56,150,122809,2,0,P|83:125|135:113,1,48.7499962186815,0|0,0:0|0:0,0:0:0:0:
107,255,122966,2,0,P|118:220|157:183,1,48.7499962186815,0|0,0:0|0:0,0:0:0:0:
200,326,123123,2,0,P|192:290|207:239,1,48.7499962186815,0|0,0:0|0:0,0:0:0:0:
323,340,123280,2,0,P|298:312|286:260,1,48.7499962186815,0|0,0:0|0:0,0:0:0:0:
340,215,123437,6,0,B|285:182|285:182|249:179|249:179|230:149|230:149|161:107,1,194.999984874726,0|0,0:0|0:0,0:0:0:0:
276,273,123751,1,0,0:0:0:0:
297,98,123908,1,0,0:0:0:0:
323,340,124065,2,0,P|298:312|286:260,1,48.7499962186815,0|0,0:0|0:0,0:0:0:0:
200,326,124222,2,0,P|192:290|207:239,1,48.7499962186815,0|0,0:0|0:0,0:0:0:0:
107,255,124379,2,0,P|118:220|157:183,1,48.7499962186815,0|0,0:0|0:0,0:0:0:0:
56,150,124536,2,0,P|83:125|135:113,1,48.7499962186815,0|0,0:0|0:0,0:0:0:0:
297,98,124694,5,0,0:0:0:0:
121,331,124929,5,0,0:0:0:0:
396,231,125165,5,0,0:0:0:0:
204,196,125322,1,0,0:0:0:0:
456,49,125557,5,0,0:0:0:0:
428,340,125793,5,0,0:0:0:0:
306,187,125950,1,0,0:0:0:0:
420,147,126107,1,0,0:0:0:0:
328,66,126264,1,0,0:0:0:0:
396,231,126421,1,0,0:0:0:0:
346,271,126500,1,0,0:0:0:0:
287,291,126578,1,0,0:0:0:0:
143,262,126735,1,0,0:0:0:0:
287,291,126892,1,0,0:0:0:0:
346,271,126971,1,0,0:0:0:0:
396,231,127050,1,0,0:0:0:0:
435,180,127128,1,0,0:0:0:0:
470,127,127207,6,0,P|491:95|496:42,1,48.7499962186815,0|0,0:0|0:0,0:0:0:0:
363,56,127364,2,0,P|341:87|336:140,1,48.7499962186815,0|0,0:0|0:0,0:0:0:0:
481,256,127521,1,0,0:0:0:0:
441,305,127599,1,0,0:0:0:0:
389,343,127678,1,0,0:0:0:0:
328,366,127756,1,0,0:0:0:0:
264,358,127835,6,0,P|228:342|197:299,1,48.7499962186815,0|0,0:0|0:0,0:0:0:0:
220,198,127992,2,0,P|255:213|286:256,1,48.7499962186815,0|0,0:0|0:0,0:0:0:0:
120,250,128149,1,0,0:0:0:0:
126,186,128228,1,0,0:0:0:0:
151,128,128306,1,0,0:0:0:0:
202,90,128385,1,0,0:0:0:0:
260,66,128463,6,0,P|294:51|346:56,1,48.7499962186815,0|0,0:0|0:0,0:0:0:0:
386,156,128620,2,0,P|351:170|299:165,1,48.7499962186815,0|0,0:0|0:0,0:0:0:0:
452,77,128777,1,0,0:0:0:0:
483,132,128856,1,0,0:0:0:0:
483,194,128934,2,0,L|478:216,4,12.1874990546704,0|0|0|0|0,0:0|0:0|0:0|0:0|0:0,0:0:0:0:
377,320,129091,6,0,P|350:347|300:365,1,48.7499962186815,0|0,0:0|0:0,0:0:0:0:
276,285,129248,2,0,P|239:296|187:286,1,48.7499962186815,0|0,0:0|0:0,0:0:0:0:
207,203,129406,1,0,0:0:0:0:
187,144,129484,1,0,0:0:0:0:
195,80,129563,2,0,L|199:57,4,12.1874990546704,0|0|0|0|0,0:0|0:0|0:0|0:0|0:0,0:0:0:0:
452,77,129720,6,0,P|427:106|378:126,1,48.7499962186815,0|0,0:0|0:0,0:0:0:0:
298,188,129877,2,0,P|322:158|370:137,1,48.7499962186815,0|0,0:0|0:0,0:0:0:0:
422,23,130034,2,0,P|410:59|418:111,1,48.7499962186815,0|0,0:0|0:0,0:0:0:0:
333,244,130191,2,0,P|344:207|336:155,1,48.7499962186815,0|0,0:0|0:0,0:0:0:0:
322,64,130348,1,0,0:0:0:0:
265,34,130427,1,0,0:0:0:0:
202,36,130505,1,0,0:0:0:0:
157,81,130584,1,0,0:0:0:0:
152,143,130662,1,0,0:0:0:0:
177,201,130741,1,0,0:0:0:0:
186,263,130819,1,0,0:0:0:0:
158,320,130898,1,0,0:0:0:0:
105,354,130976,5,0,0:0:0:0:
173,55,131212,1,0,0:0:0:0:
252,335,131447,1,0,0:0:0:0:
292,118,131605,1,0,0:0:0:0:
162,263,131762,1,0,0:0:0:0:
345,197,131919,1,0,0:0:0:0:
168,113,132076,1,0,0:0:0:0:
331,49,132233,6,0,L|388:51,2,37.4999988079071,0|0|0,0:0|0:0|0:0,0:0:0:0:
181,335,132547,2,0,L|70:324,1,97.4999924373631,0|0,0:0|0:0,0:0:0:0:
63,246,132783,1,0,0:0:0:0:
63,246,132861,1,0,0:0:0:0:
156,254,133018,1,0,0:0:0:0:
181,335,133175,2,0,L|258:341,1,74.9999976158143,0|0,0:0|0:0,0:0:0:0:
331,335,133803,6,0,L|442:324,1,97.4999924373631,0|0,0:0|0:0,0:0:0:0:
449,246,134039,1,0,0:0:0:0:
449,246,134118,1,0,0:0:0:0:
356,254,134275,1,0,0:0:0:0:
331,335,134432,2,0,L|253:341,1,74.9999976158143,0|0,0:0|0:0,0:0:0:0:
256,256,135060,6,0,L|256:144,1,97.4999924373631,0|0,0:0|0:0,0:0:0:0:
172,129,135296,1,0,0:0:0:0:
172,129,135374,1,0,0:0:0:0:
339,85,135531,1,0,0:0:0:0:
172,129,135688,2,0,L|136:139,4,37.4999988079071
329,237,136317,6,0,L|273:140,1,97.4999924373631,0|0,0:0|0:0,0:0:0:0:
337,84,136552,1,0,0:0:0:0:
337,84,136631,1,0,0:0:0:0:
171,130,136788,1,0,0:0:0:0:
336,84,136945,2,0,L|373:75,4,37.4999988079071
100,334,137573,6,0,P|140:294|141:224,1,97.4999924373631,0|0,0:0|0:0,0:0:0:0:
218,208,137809,1,0,0:0:0:0:
218,208,137887,1,0,0:0:0:0:
388,337,138044,1,0,0:0:0:0:
388,122,138201,2,0,L|388:51,4,37.4999988079071,0|0|0|0|0,0:0|0:0|0:0|0:0|0:0,0:0:0:0:
392,243,138830,6,0,P|337:257|301:317,1,97.4999924373631,0|0,0:0|0:0,0:0:0:0:
227,294,139065,1,0,0:0:0:0:
227,294,139144,1,0,0:0:0:0:
213,64,139301,1,0,0:0:0:0:
53,181,139458,2,0,L|-6:224,4,37.4999988079071,0|0|0|0|0,0:0|0:0|0:0|0:0|0:0,0:0:0:0:
116,322,140086,6,0,P|155:282|226:280,1,97.4999924373631,0|0,0:0|0:0,0:0:0:0:
242,204,140322,1,0,0:0:0:0:
242,204,140400,1,0,0:0:0:0:
112,34,140557,1,0,0:0:0:0:
328,34,140714,2,0,L|398:34,4,37.4999988079071,0|0|0|0|0,0:0|0:0|0:0|0:0|0:0,0:0:0:0:
247,81,141343,6,0,P|286:121|357:123,1,97.4999924373631,0|0,0:0|0:0,0:0:0:0:
373,199,141578,5,0,0:0:0:0:
288,231,141657,6,0,P|249:191|178:189,1,97.4999924373631,0|0,0:0|0:0,0:0:0:0:
211,271,141892,2,0,P|172:311|101:313,1,97.4999924373631,0|0,0:0|0:0,0:0:0:0:
133,233,142128,1,0,0:0:0:0:
417,104,142285,5,0,0:0:0:0:
452,194,142442,1,0,0:0:0:0:
315,142,142599,1,0,0:0:0:0:
389,281,142756,1,0,0:0:0:0:
355,314,142835,1,0,0:0:0:0:
321,348,142913,1,0,0:0:0:0:
321,249,143070,5,0,0:0:0:0:
423,348,143228,1,0,0:0:0:0:
321,348,143385,1,0,0:0:0:0:
355,314,143463,1,0,0:0:0:0:
389,281,143542,1,0,0:0:0:0:
423,348,143699,5,0,0:0:0:0:
321,249,143856,1,0,0:0:0:0:
321,348,144013,1,0,0:0:0:0:
273,347,144092,1,0,0:0:0:0:
225,347,144170,1,0,0:0:0:0:
321,249,144327,5,0,0:0:0:0:
423,348,144484,1,0,0:0:0:0:
225,347,144641,1,0,0:0:0:0:
273,347,144719,1,0,0:0:0:0:
321,348,144798,1,0,0:0:0:0:
423,348,144955,5,0,0:0:0:0:
321,249,145112,1,0,0:0:0:0:
225,347,145269,1,0,0:0:0:0:
191,312,145348,1,0,0:0:0:0:
157,278,145426,1,0,0:0:0:0:
321,249,145584,5,0,0:0:0:0:
423,348,145741,1,0,0:0:0:0:
157,278,145898,1,0,0:0:0:0:
191,312,145976,1,0,0:0:0:0:
225,347,146055,1,0,0:0:0:0:
423,348,146212,5,0,0:0:0:0:
321,249,146369,1,0,0:0:0:0:
157,278,146526,1,0,0:0:0:0:
157,229,146605,1,0,0:0:0:0:
157,181,146683,1,0,0:0:0:0:
321,249,146840,5,0,0:0:0:0:
334,159,146997,1,0,0:0:0:0:
334,159,147076,1,0,0:0:0:0:
334,159,147154,1,0,0:0:0:0:
334,159,147233,1,0,0:0:0:0:
334,159,147311,6,0,L|285:205,1,48.7499962186815,0|0,0:0|0:0,0:0:0:0:
178,225,147468,2,0,L|227:179,1,48.7499962186815,0|0,0:0|0:0,0:0:0:0:
359,168,147625,2,0,L|288:214,1,48.7499962186815,0|0,0:0|0:0,0:0:0:0:
152,215,147783,2,0,L|223:169,1,48.7499962186815,0|0,0:0|0:0,0:0:0:0:
388,185,147940,2,0,L|299:223,1,48.7499962186815,0|0,0:0|0:0,0:0:0:0:
123,198,148097,2,0,L|207:163,1,48.7499962186815,0|0,0:0|0:0,0:0:0:0:
420,212,148254,2,0,L|332:232,1,48.7499962186815,0|0,0:0|0:0,0:0:0:0:
91,171,148411,2,0,L|180:150,1,48.7499962186815,0|0,0:0|0:0,0:0:0:0:
461,74,148568,6,0,L|419:105,1,48.7499962186815,0|0,0:0|0:0,0:0:0:0:
469,151,148725,2,0,L|421:144,1,48.7499962186815,0|0,0:0|0:0,0:0:0:0:
420,212,148882,2,0,L|388:170,1,48.7499962186815,0|0,0:0|0:0,0:0:0:0:
342,221,149039,2,0,L|354:126,1,48.7499962186815,0|0,0:0|0:0,0:0:0:0:
281,172,149196,2,0,L|354:115,1,48.7499962186815,0|0,0:0|0:0,0:0:0:0:
273,94,149353,2,0,L|327:101,1,48.7499962186815,0|0,0:0|0:0,0:0:0:0:
322,33,149510,2,0,L|351:71,1,48.7499962186815,0|0,0:0|0:0,0:0:0:0:
400,25,149667,2,0,L|393:74,1,48.7499962186815,0|0,0:0|0:0,0:0:0:0:
302,313,149824,5,0,0:0:0:0:
244,339,149903,1,0,0:0:0:0:
181,343,149981,1,0,0:0:0:0:
123,315,150060,1,0,0:0:0:0:
99,255,150139,1,0,0:0:0:0:
86,192,150217,1,0,0:0:0:0:
141,161,150296,1,0,0:0:0:0:
188,204,150374,1,0,0:0:0:0:
163,261,150453,5,0,0:0:0:0:
99,255,150531,1,0,0:0:0:0:
86,192,150610,1,0,0:0:0:0:
141,161,150688,1,0,0:0:0:0:
188,204,150767,1,0,0:0:0:0:
233,258,150845,1,0,0:0:0:0:
300,306,150924,1,0,0:0:0:0:
386,303,151002,1,0,0:0:0:0:
447,44,151081,6,0,L|461:113,1,48.7499962186815,0|0,0:0|0:0,0:0:0:0:
457,344,151238,2,0,L|435:281,1,48.7499962186815,0|0,0:0|0:0,0:0:0:0:
345,52,151395,2,0,L|335:108,1,48.7499962186815,0|0,0:0|0:0,0:0:0:0:
328,348,151552,2,0,L|325:284,1,48.7499962186815,0|0,0:0|0:0,0:0:0:0:
218,52,151709,2,0,L|221:63,4,12.1874990546704,0|0|0|0|0,0:0|0:0|0:0|0:0|0:0,0:0:0:0:
212,351,151866,2,0,L|215:338,4,12.1874990546704,0|0|0|0|0,0:0|0:0|0:0|0:0|0:0,0:0:0:0:
106,47,152023,2,0,L|103:64,4,12.1874990546704
101,343,152180,2,0,L|99:331,4,12.1874990546704,0|0|0|0|0,0:0|0:0|0:0|0:0|0:0,0:0:0:0:
159,119,152338,6,0,L|227:193,1,74.9999976158143
209,174,152573,2,0,L|144:103,1,74.9999976158143
158,118,152809,6,0,P|196:149|226:192,1,74.9999976158143,0|0,0:0|0:0,0:0:0:0:
212,169,153044,2,0,P|174:138|144:95,1,74.9999976158143,0|0,0:0|0:0,0:0:0:0:
157,117,153280,6,0,P|198:145|225:191,1,74.9999976158143,0|0,0:0|0:0,0:0:0:0:
213,164,153516,2,0,P|172:136|145:90,1,74.9999976158143,0|0,0:0|0:0,0:0:0:0:
157,117,153751,6,0,P|193:89|243:84,1,74.9999976158143,0|0,0:0|0:0,0:0:0:0:
336,85,153987,6,0,P|369:159|321:93,1,239.999992370606
347,124,156578,2,0,L|342:121,18,3.74999988079071,0|0|0|0|0|0|0|0|0|0|0|0|0|0|0|0|0|0|0,0:0|0:0|0:0|0:0|0:0|0:0|0:0|0:0|0:0|0:0|0:0|0:0|0:0|0:0|0:0|0:0|0:0|0:0|0:0,0:0:0:0:
416,222,157364,6,0,L|377:274,1,49.9999984105428,0|0,0:0|0:0,0:0:0:0:
308,263,157678,1,0,0:0:0:0:
228,264,157835,2,0,L|168:289,1,49.9999984105428,0|0,0:0|0:0,0:0:0:0:
91,266,158149,2,0,L|110:311,1,49.9999984105428,0|0,0:0|0:0,0:0:0:0:
150,202,158463,1,0,0:0:0:0:
246,94,158620,6,0,L|186:126,2,49.9999984105428,0|0|0,0:0|0:0|0:0,0:0:0:0:
341,93,159091,2,0,L|401:125,1,49.9999984105428,0|0,0:0|0:0,0:0:0:0:
355,201,159406,2,0,L|390:258,1,49.9999984105428,0|0,0:0|0:0,0:0:0:0:
302,288,159720,2,0,L|303:330,1,24.9999992052714,0|0,0:0|0:0,0:0:0:0:
440,322,159877,6,0,L|475:264,1,49.9999984105428,0|0,0:0|0:0,0:0:0:0:
466,180,160191,1,0,0:0:0:0:
385,116,160348,2,0,L|327:80,1,49.9999984105428,0|0,0:0|0:0,0:0:0:0:
355,201,160662,2,0,L|318:199,1,24.9999992052714,0|0,0:0|0:0,0:0:0:0:
273,138,160819,2,0,L|240:155,3,24.9999992052714,0|0|0|0,0:0|0:0|0:0|0:0,0:0:0:0:
181,189,161133,5,0,0:0:0:0:
342,89,161447,5,0,0:0:0:0:
245,240,161762,5,0,0:0:0:0:
254,61,162076,5,0,0:0:0:0:
98,93,162390,6,0,L|72:151,1,49.9999984105428,0|0,0:0|0:0,0:0:0:0:
76,238,162704,1,0,0:0:0:0:
160,185,162861,2,0,L|166:248,1,49.9999984105428,0|0,0:0|0:0,0:0:0:0:
166,334,163175,1,0,0:0:0:0:
246,275,163332,2,0,L|283:326,1,49.9999984105428,0|0,0:0|0:0,0:0:0:0:
289,163,163646,6,0,L|248:192,2,49.9999984105428,0|0|0,0:0|0:0|0:0,0:0:0:0:
313,60,164118,2,0,L|288:62,2,24.9999992052714,0|0|0,0:0|0:0|0:0,0:0:0:0:
417,52,164432,1,0,0:0:0:0:
394,149,164589,1,0,0:0:0:0:
490,120,164746,1,0,0:0:0:0:
383,238,164903,6,0,L|350:248,3,24.9999992052714,0|0|0|0,0:0|0:0|0:0|0:0,0:0:0:0:
314,307,165217,2,0,L|280:299,3,24.9999992052714,0|0|0|0,0:0|0:0|0:0|0:0,0:0:0:0:
197,341,165531,2,0,L|171:317,3,24.9999992052714,0|0|0|0,0:0|0:0|0:0|0:0,0:0:0:0:
75,303,165845,2,0,L|64:270,3,24.9999992052714,0|0|0|0,0:0|0:0|0:0|0:0,0:0:0:0:
359,245,166159,5,0,0:0:0:0:
289,301,166474,1,0,0:0:0:0:
178,324,166788,1,0,0:0:0:0:
67,279,167102,1,0,0:0:0:0:
181,101,167416,6,0,L|192:157,1,49.9999984105428,0|0,0:0|0:0,0:0:0:0:
264,217,167730,1,0,0:0:0:0:
313,130,167887,2,0,L|257:141,1,49.9999984105428,0|0,0:0|0:0,0:0:0:0:
187,231,168201,1,0,0:0:0:0:
344,204,168358,2,0,L|355:260,1,49.9999984105428,0|0,0:0|0:0,0:0:0:0:
196,280,168673,6,0,L|185:224,1,49.9999984105428,0|0,0:0|0:0,0:0:0:0:
166,132,168987,1,0,0:0:0:0:
60,213,169144,2,0,L|116:202,1,49.9999984105428,0|0,0:0|0:0,0:0:0:0:
252,175,169458,1,0,0:0:0:0:
109,203,169615,1,0,0:0:0:0:
252,175,169772,1,0,0:0:0:0:
371,49,169929,6,0,L|415:98,1,49.9999984105428,0|0,0:0|0:0,0:0:0:0:
391,185,170243,1,0,0:0:0:0:
478,136,170400,2,0,L|491:200,1,49.9999984105428,0|0,0:0|0:0,0:0:0:0:
434,269,170714,2,0,L|421:308,1,24.9999992052714,0|0,0:0|0:0,0:0:0:0:
337,296,170872,2,0,L|305:323,3,24.9999992052714,0|0|0|0,0:0|0:0|0:0|0:0,0:0:0:0:
252,176,171500,5,0,0:0:0:0:
478,136,171814,5,0,0:0:0:0:
318,312,172128,5,0,0:0:0:0:
385,100,172442,6,0,L|325:78,2,49.9999984105428,0|0|0,0:0|0:0|0:0,0:0:0:0:
230,160,172913,2,0,L|290:138,1,49.9999984105428,0|0,0:0|0:0,0:0:0:0:
385,100,173228,1,0,0:0:0:0:
230,160,173385,2,0,L|183:177,1,49.9999984105428,0|0,0:0|0:0,0:0:0:0:
127,284,173699,6,0,L|187:306,2,49.9999984105428,0|0|0,0:0|0:0|0:0,0:0:0:0:
295,223,174170,2,0,L|235:245,1,49.9999984105428,0|0,0:0|0:0,0:0:0:0:
127,284,174484,1,0,0:0:0:0:
295,223,174641,1,0,0:0:0:0:
127,284,174798,1,0,0:0:0:0:
79,167,174955,5,0,0:0:0:0:
94,146,175034,1,0,0:0:0:0:
113,130,175112,1,0,0:0:0:0:
134,116,175191,1,0,0:0:0:0:
216,160,175269,6,0,P|232:156|246:156,3,24.9999992052714,0|0|0|0,0:0|0:0|0:0|0:0,0:0:0:0:
295,223,175584,5,0,0:0:0:0:
320,224,175662,1,0,0:0:0:0:
343,232,175741,1,0,0:0:0:0:
366,244,175819,1,0,0:0:0:0:
369,331,175898,6,0,P|386:348|394:364,3,24.9999992052714,0|0|0|0,0:0|0:0|0:0|0:0,0:0:0:0:
474,317,176212,2,0,L|474:268,3,24.9999992052714,0|0|0|0,0:0|0:0|0:0|0:0,0:0:0:0:
468,189,176526,5,0,0:0:0:0:
453,164,176605,1,0,0:0:0:0:
428,138,176683,1,0,0:0:0:0:
402,121,176762,1,0,0:0:0:0:
295,47,176840,6,0,P|276:44|254:48,3,24.9999992052714,0|0|0|0,0:0|0:0|0:0|0:0,0:0:0:0:
158,94,177154,5,0,0:0:0:0:
158,143,177233,1,0,0:0:0:0:
158,190,177311,1,0,0:0:0:0:
159,237,177390,1,0,0:0:0:0:
236,279,177468,6,0,P|252:208|317:177,1,134.999991588593,0|0,0:0|0:0,0:0:0:0:
331,272,177940,2,0,P|329:317|295:344,1,67.4999957942964,0|0,0:0|0:0,0:0:0:0:
158,237,178254,1,0,0:0:0:0:
302,178,178411,1,0,0:0:0:0:
187,337,178568,5,0,0:0:0:0:
62,249,178725,2,0,P|65:282|88:307,1,67.4999957942964,0|0,0:0|0:0,0:0:0:0:
92,109,179039,1,0,0:0:0:0:
158,237,179196,2,0,P|184:199|173:157,1,67.4999957942964,0|0,0:0|0:0,0:0:0:0:
154,39,179510,1,0,0:0:0:0:
102,185,179667,1,0,0:0:0:0:
272,87,179824,1,0,0:0:0:0:
424,293,179981,5,0,0:0:0:0:
424,293,180296,1,0,0:0:0:0:
399,294,180610,5,0,0:0:0:0:
409,109,180767,1,0,0:0:0:0:
375,290,180924,1,0,0:0:0:0:
433,113,181081,1,0,0:0:0:0:
163,240,181238,6,0,L|248:262,1,67.4999957942964,0|0,0:0|0:0,0:0:0:0:
345,191,181552,1,0,0:0:0:0:
263,169,181709,1,0,0:0:0:0:
320,284,181866,2,0,L|298:369,1,67.4999957942964,0|0,0:0|0:0,0:0:0:0:
26,191,182180,5,0,0:0:0:0:
256,192,182495,5,0,0:0:0:0:
256,192,182809,1,0,0:0:0:0:
354,100,182966,1,0,0:0:0:0:
263,54,183123,1,0,0:0:0:0:
331,170,183280,1,0,0:0:0:0:
206,117,183437,1,0,0:0:0:0:
164,245,183594,1,0,0:0:0:0:
107,160,183751,6,0,L|128:92,1,67.4999957942964,0|0,0:0|0:0,0:0:0:0:
30,247,184065,1,0,0:0:0:0:
164,245,184222,1,0,0:0:0:0:
207,117,184379,1,0,0:0:0:0:
252,207,184536,1,0,0:0:0:0:
372,144,184694,1,0,0:0:0:0:
417,234,184851,1,0,0:0:0:0:
372,144,185008,6,0,L|330:66,1,67.4999957942964,0|0,0:0|0:0,0:0:0:0:
252,207,185322,1,0,0:0:0:0:
325,276,185479,1,0,0:0:0:0:
191,276,185636,1,0,0:0:0:0:
96,181,185793,1,0,0:0:0:0:
191,86,185950,1,0,0:0:0:0:
325,86,186107,1,0,0:0:0:0:
420,181,186264,5,0,0:0:0:0:
420,181,186421,1,0,0:0:0:0:
325,86,186578,1,0,0:0:0:0:
191,86,186735,1,0,0:0:0:0:
96,181,186892,1,0,0:0:0:0:
420,181,187207,1,0,0:0:0:0:
96,181,187521,6,0,L|155:240,1,67.4999957942964,0|0,0:0|0:0,0:0:0:0:
191,86,187835,1,0,0:0:0:0:
143,228,187992,1,0,0:0:0:0:
325,86,188149,6,0,L|332:124,3,33.7499978971482,0|0|0|0,0:0|0:0|0:0|0:0,0:0:0:0:
391,174,188463,2,0,L|378:210,3,33.7499978971482,0|0|0|0,0:0|0:0|0:0|0:0,0:0:0:0:
286,205,188777,2,0,L|274:173,3,33.7499978971482,0|0|0|0,0:0|0:0|0:0|0:0,0:0:0:0:
214,75,189091,2,0,L|180:68,3,33.7499978971482,0|0|0|0,0:0|0:0|0:0|0:0,0:0:0:0:
96,181,189406,2,0,L|89:214,3,33.7499978971482,0|0|0|0,0:0|0:0|0:0|0:0,0:0:0:0:
191,340,189720,2,0,L|224:346,3,33.7499978971482,0|0|0|0,0:0|0:0|0:0|0:0,0:0:0:0:
452,178,190034,6,0,L|439:214,3,33.7499978971482,0|0|0|0,0:0|0:0|0:0|0:0,0:0:0:0:
193,209,190348,2,0,L|182:178,3,33.7499978971482,0|0|0|0,0:0|0:0|0:0|0:0,0:0:0:0:
306,331,190662,2,0,L|342:318,3,33.7499978971482,0|0|0|0,0:0|0:0|0:0|0:0,0:0:0:0:
338,72,190976,2,0,L|306:60,3,33.7499978971482,0|0|0|0,0:0|0:0|0:0|0:0,0:0:0:0:
202,104,191290,6,0,L|219:66,3,33.7499978971482,0|0|0|0,0:0|0:0|0:0|0:0,0:0:0:0:
195,308,191605,2,0,L|238:328,3,33.7499978971482,0|0|0|0,0:0|0:0|0:0|0:0,0:0:0:0:
458,304,191919,2,0,L|414:324,3,33.7499978971482,0|0|0|0,0:0|0:0|0:0|0:0,0:0:0:0:
450,110,192233,2,0,L|432:72,3,33.7499978971482,0|0|0|0,0:0|0:0|0:0|0:0,0:0:0:0:
320,161,192547,6,0,L|320:128,3,33.7499978971482,0|0|0|0,0:0|0:0|0:0|0:0,0:0:0:0:
257,203,192861,2,0,L|251:266,3,33.7499978971482,0|0|0|0,0:0|0:0|0:0|0:0,0:0:0:0:
184,269,193175,2,0,L|172:332,3,33.7499978971482,0|0|0|0,0:0|0:0|0:0|0:0,0:0:0:0:
112,343,193489,2,0,L|95:404,3,33.7499978971482,0|0|0|0,0:0|0:0|0:0|0:0,0:0:0:0:
64,194,193803,5,0,0:0:0:0:
64,194,193882,1,0,0:0:0:0:
64,194,193961,1,0,0:0:0:0:
64,194,194039,1,0,0:0:0:0:
73,161,194118,1,0,0:0:0:0:
89,132,194196,1,0,0:0:0:0:
115,110,194275,1,0,0:0:0:0:
145,95,194353,1,0,0:0:0:0:
244,67,194432,2,0,L|245:91,1,16.8749989485741,0|0,0:0|0:0,0:0:0:0:
276,73,194510,2,0,L|274:96,1,16.8749989485741,0|0,0:0|0:0,0:0:0:0:
306,88,194589,2,0,L|302:111,1,16.8749989485741,0|0,0:0|0:0,0:0:0:0:
327,113,194667,2,0,L|321:136,1,16.8749989485741,0|0,0:0|0:0,0:0:0:0:
342,143,194746,2,0,L|334:165,1,16.8749989485741,0|0,0:0|0:0,0:0:0:0:
350,175,194824,2,0,L|340:197,1,16.8749989485741,0|0,0:0|0:0,0:0:0:0:
358,207,194903,2,0,L|346:228,1,16.8749989485741,0|0,0:0|0:0,0:0:0:0:
363,240,194981,2,0,L|350:260,1,16.8749989485741,0|0,0:0|0:0,0:0:0:0:
288,322,195060,6,0,B|246:329|246:329|218:274|135:348|106:260|106:260|70:315,1,269.999983177186,0|0,0:0|0:0,0:0:0:0:
189,69,197259,5,0,0:0:0:0:
199,63,197338,1,0,0:0:0:0:
209,59,197416,1,0,0:0:0:0:
220,56,197495,1,0,0:0:0:0:
231,57,197573,1,0,0:0:0:0:
376,246,198044,5,0,0:0:0:0:
308,268,198201,1,0,0:0:0:0:
248,227,198358,1,0,0:0:0:0:
248,227,198516,1,0,0:0:0:0:
307,268,198673,1,0,0:0:0:0:
376,246,198830,1,0,0:0:0:0:
64,32,199301,5,0,0:0:0:0:
64,110,199458,1,0,0:0:0:0:
64,188,199615,1,0,0:0:0:0:
64,266,199772,1,0,0:0:0:0:
64,344,199929,1,0,0:0:0:0:
188,280,200086,5,0,0:0:0:0:
389,174,200400,5,0,0:0:0:0:
189,69,200714,5,0,0:0:0:0:
64,188,201029,5,0,0:0:0:0:
64,344,201343,1,0,0:0:0:0:
64,110,201814,5,0,0:0:0:0:
64,32,201971,1,0,0:0:0:0:
231,57,202285,5,0,0:0:0:0:
220,56,202364,1,0,0:0:0:0:
209,59,202442,1,0,0:0:0:0:
199,63,202521,1,0,0:0:0:0:
189,69,202599,5,0,0:0:0:0:
356,232,203070,1,0,0:0:0:0:
350,123,203227,1,0,0:0:0:0:
410,172,203384,1,0,0:0:0:0:
401,62,203542,1,0,0:0:0:0:
461,111,203699,1,0,0:0:0:0:
296,183,203855,5,0,0:0:0:0:
464,343,204327,1,0,0:0:0:0:
464,343,204484,1,0,0:0:0:0:
308,315,204798,5,0,0:0:0:0:
288,315,204877,1,0,0:0:0:0:
268,315,204955,1,0,0:0:0:0:
248,315,205034,1,0,0:0:0:0:
228,315,205112,5,0,0:0:0:0:
116,202,205427,1,0,0:0:0:0:
273,202,205741,1,0,0:0:0:0:
161,88,206055,1,0,0:0:0:0:
161,315,206369,5,0,0:0:0:0:
116,202,206997,1,0,0:0:0:0:
228,315,207311,5,0,0:0:0:0:
248,315,207390,1,0,0:0:0:0:
268,315,207468,1,0,0:0:0:0:
288,315,207547,1,0,0:0:0:0:
308,315,207625,5,0,0:0:0:0:
366,225,208097,1,0,0:0:0:0:
351,112,208254,1,0,0:0:0:0:
411,161,208411,1,0,0:0:0:0:
402,51,208569,1,0,0:0:0:0:
462,100,208726,1,0,0:0:0:0:
306,176,208882,5,0,0:0:0:0:
240,64,209353,1,0,0:0:0:0:
161,64,209510,1,0,0:0:0:0:
82,64,209667,1,0,0:0:0:0:
3,64,209824,1,0,0:0:0:0:
35,134,209981,1,0,0:0:0:0:
240,64,210139,5,0,0:0:0:0:
136,237,210374,1,0,0:0:0:0:
408,215,210610,1,0,0:0:0:0:
305,255,210767,1,0,0:0:0:0:
402,51,211002,1,0,0:0:0:0:
232,167,211238,1,0,0:0:0:0:
82,64,211395,5,0,0:0:0:0:
161,64,211866,1,0,0:0:0:0:
127,134,212023,1,0,0:0:0:0:
240,64,212338,5,0,0:0:0:0:
136,237,212652,1,0,0:0:0:0:
136,237,212730,1,0,0:0:0:0:
136,237,212809,1,0,0:0:0:0:
136,237,213123,5,0,0:0:0:0:
234,303,213280,1,0,0:0:0:0:
234,303,213358,1,0,0:0:0:0:
234,303,213437,1,0,0:0:0:0:
234,303,213751,5,0,0:0:0:0:
360,147,213908,1,0,0:0:0:0:
360,147,213987,1,0,0:0:0:0:
360,147,214065,1,0,0:0:0:0:
360,147,214379,5,0,0:0:0:0:
250,192,214536,1,0,0:0:0:0:
250,192,214615,1,0,0:0:0:0:
250,192,214694,1,0,0:0:0:0:
250,192,215008,5,0,0:0:0:0:
250,192,215165,1,0,0:0:0:0:
82,64,215479,1,0,0:0:0:0:
93,61,215557,1,0,0:0:0:0:
105,60,215636,1,0,0:0:0:0:
117,61,215714,1,0,0:0:0:0:
129,63,215793,5,0,0:0:0:0:
140,68,215872,1,0,0:0:0:0:
150,74,215950,1,0,0:0:0:0:
160,81,216029,1,0,0:0:0:0:
169,89,216107,5,0,0:0:0:0:
177,98,216186,1,0,0:0:0:0:
184,108,216264,1,0,0:0:0:0:
190,118,216343,1,0,0:0:0:0:
194,127,216421,2,0,B|212:169|177:199|177:199|184:240|264:254,1,149.999995231629,0|0,0:0|0:0,0:0:0:0:
288,184,216657,6,0,B|359:166|359:166|275:141,1,149.999995231629,0|0,0:0|0:0,0:0:0:0:
305,266,216892,2,0,L|389:244,1,74.9999976158143,0|0,0:0|0:0,0:0:0:0:
381,83,217050,2,0,L|297:61,1,74.9999976158143,0|0,0:0|0:0,0:0:0:0:
464,48,217364,5,0,0:0:0:0:
464,106,217442,1,0,0:0:0:0:
464,164,217521,1,0,0:0:0:0:
464,222,217599,1,0,0:0:0:0:
464,280,217678,2,0,L|464:336,1,44.9999971961976,0|0,0:0|0:0,0:0:0:0:
338,236,217835,6,0,B|287:198|242:204|242:204|236:159|170:107,1,194.999984874726,0|0,0:0|0:0,0:0:0:0:
269,292,218149,1,0,0:0:0:0:
149,201,218306,2,0,P|115:188|65:202,1,44.9999971961976,0|0,0:0|0:0,0:0:0:0:
194,128,218463,2,0,P|178:95|134:69,1,44.9999971961976,0|0,0:0|0:0,0:0:0:0:
287,162,218620,2,0,P|299:128|285:78,1,44.9999971961976,0|0,0:0|0:0,0:0:0:0:
337,234,218777,2,0,P|369:218|395:174,1,44.9999971961976,0|0,0:0|0:0,0:0:0:0:
194,127,218934,6,0,B|244:164|289:158|289:158|295:203|361:255,1,194.999984874726,0|0,0:0|0:0,0:0:0:0:
255,63,219248,1,0,0:0:0:0:
301,327,219406,1,0,0:0:0:0:
373,139,219563,2,0,P|378:104|413:66,1,44.9999971961976,0|0,0:0|0:0,0:0:0:0:
468,172,219720,2,0,P|502:177|540:212,1,44.9999971961976,0|0,0:0|0:0,0:0:0:0:
431,265,219877,2,0,P|425:299|390:337,1,44.9999971961976,0|0,0:0|0:0,0:0:0:0:
337,234,220034,2,0,P|302:228|264:193,1,44.9999971961976,0|0,0:0|0:0,0:0:0:0:
188,122,220191,6,0,L|73:235,1,134.999991588593,0|0,0:0|0:0,0:0:0:0:
91,216,220505,6,0,B|126:191|131:143|131:143|174:140|188:122,1,148.499994826126,0|0,0:0|0:0,0:0:0:0:
188,122,220819,6,0,P|108:114|106:228,1,202.499987382889,0|0,0:0|0:0,0:0:0:0:
91,214,221133,6,0,P|171:222|173:108,1,202.499987382889,0|0,0:0|0:0,0:0:0:0:
187,121,221447,2,0,P|207:144|233:151,1,53.5714268684387,0|0,0:0|0:0,0:0:0:0:
427,73,221919,2,0,L|405:137,1,44.9999971961976,0|0,0:0|0:0,0:0:0:0:
323,172,222076,2,0,L|345:236,1,44.9999971961976,0|0,0:0|0:0,0:0:0:0:
420,274,222233,1,0,0:0:0:0:
301,327,222390,5,0,0:0:0:0:
242,327,222468,1,0,0:0:0:0:
183,327,222547,1,0,0:0:0:0:
124,327,222625,1,0,0:0:0:0:
65,327,222704,5,0,0:0:0:0:
193,201,222861,1,0,0:0:0:0:
13,201,223018,1,0,0:0:0:0:
141,327,223175,1,0,0:0:0:0:
382,95,223332,6,0,P|417:100|455:135,1,44.9999971961976,0|0,0:0|0:0,0:0:0:0:
511,181,223489,2,0,P|506:215|471:253,1,44.9999971961976,0|0,0:0|0:0,0:0:0:0:
420,308,223646,2,0,P|386:302|348:267,1,44.9999971961976,0|0,0:0|0:0,0:0:0:0:
293,223,223803,2,0,P|299:188|334:150,1,44.9999971961976,0|0,0:0|0:0,0:0:0:0:
398,200,223961,6,0,P|324:189|280:168,1,97.4999924373631,0|0,0:0|0:0,0:0:0:0:
292,46,224275,1,0,0:0:0:0:
228,159,224432,2,0,P|216:193|175:224,1,44.9999971961976,0|0,0:0|0:0,0:0:0:0:
116,268,224589,2,0,P|128:235|169:204,1,44.9999971961976,0|0,0:0|0:0,0:0:0:0:
197,124,224746,1,0,0:0:0:0:
147,297,224903,1,0,0:0:0:0:
105,337,224981,1,0,0:0:0:0:
46,339,225060,1,0,0:0:0:0:
11,291,225139,1,0,0:0:0:0:
13,232,225217,6,0,L|107:135,1,134.999991588593,0|0,0:0|0:0,0:0:0:0:
107,135,225531,6,0,B|89:149|86:192|86:192|38:197|13:232,1,148.499994826126,0|0,0:0|0:0,0:0:0:0:
14,232,225845,6,0,P|105:227|107:135,1,202.499987382889,0|0,0:0|0:0,0:0:0:0:
106,134,226159,2,0,P|125:152|182:155,1,44.9999971961976,0|0,0:0|0:0,0:0:0:0:
199,250,226317,2,0,P|181:268|178:325,1,44.9999971961976,0|0,0:0|0:0,0:0:0:0:
92,263,226474,2,0,P|68:240|-2:236,1,89.9999943923952,0|0,0:0|0:0,0:0:0:0:
13,231,226709,5,0,0:0:0:0:
17,290,226788,1,0,0:0:0:0:
142,159,226945,1,0,0:0:0:0:
200,159,227023,1,0,0:0:0:0:
258,159,227102,1,0,0:0:0:0:
174,286,227259,1,0,0:0:0:0:
214,128,227416,5,0,0:0:0:0:
257,87,227495,1,0,0:0:0:0:
313,72,227573,1,0,0:0:0:0:
371,64,227652,1,0,0:0:0:0:
428,74,227730,2,0,P|462:83|496:122,1,44.9999971961976,0|0,0:0|0:0,0:0:0:0:
358,236,227887,6,0,B|308:199|263:205|263:205|257:160|191:108,1,194.999984874726,0|0,0:0|0:0,0:0:0:0:
282,304,228201,1,0,0:0:0:0:
129,42,228358,2,0,P|95:53|64:94,1,44.9999971961976,0|0,0:0|0:0,0:0:0:0:
132,127,228516,2,0,P|102:146|82:194,1,44.9999971961976,0|0,0:0|0:0,0:0:0:0:
173,219,228673,2,0,P|157:250|163:301,1,44.9999971961976,0|0,0:0|0:0,0:0:0:0:
282,304,228830,2,0,P|301:333|349:353,1,44.9999971961976,0|0,0:0|0:0,0:0:0:0:
214,128,228987,6,0,B|264:165|309:159|309:159|315:204|381:256,1,194.999984874726,0|0,0:0|0:0,0:0:0:0:
132,127,229301,1,0,0:0:0:0:
282,304,229458,1,0,0:0:0:0:
414,62,229615,2,0,P|446:75|475:118,1,44.9999971961976,0|0,0:0|0:0,0:0:0:0:
405,146,229772,2,0,P|433:167|449:216,1,44.9999971961976,0|0,0:0|0:0,0:0:0:0:
357,235,229929,2,0,P|370:267|360:318,1,44.9999971961976,0|0,0:0|0:0,0:0:0:0:
243,312,230086,2,0,P|221:340|172:356,1,44.9999971961976,0|0,0:0|0:0,0:0:0:0:
297,98,230243,5,0,0:0:0:0:
121,331,230479,5,0,0:0:0:0:
396,231,230714,5,0,0:0:0:0:
204,196,230872,5,0,0:0:0:0:
456,49,231107,5,0,0:0:0:0:
428,340,231343,5,0,0:0:0:0:
243,312,231500,5,0,0:0:0:0:
303,191,231657,1,0,0:0:0:0:
173,219,231814,1,0,0:0:0:0:
299,265,231971,1,0,0:0:0:0:
357,265,232050,1,0,0:0:0:0:
415,265,232128,1,0,0:0:0:0:
334,350,232285,1,0,0:0:0:0:
479,190,232442,5,0,0:0:0:0:
421,191,232521,1,0,0:0:0:0:
362,191,232599,1,0,0:0:0:0:
303,191,232678,1,0,0:0:0:0:
244,191,232756,2,0,B|215:191|215:191|168:171,1,44.9999971961976,0|0,0:0|0:0,0:0:0:0:
271,88,232913,2,0,B|300:88|300:88|347:108,1,44.9999971961976,0|0,0:0|0:0,0:0:0:0:
421,191,233070,5,0,0:0:0:0:
429,249,233149,1,0,0:0:0:0:
413,305,233228,1,0,0:0:0:0:
376,349,233306,1,0,0:0:0:0:
319,366,233385,2,0,B|290:371|290:371|240:360,1,44.9999971961976,0|0,0:0|0:0,0:0:0:0:
196,273,233542,2,0,B|224:267|224:267|274:278,1,44.9999971961976,0|0,0:0|0:0,0:0:0:0:
125,359,233699,5,0,0:0:0:0:
73,331,233777,1,0,0:0:0:0:
37,284,233856,1,0,0:0:0:0:
16,229,233934,1,0,0:0:0:0:
4,171,234013,2,0,B|2:141|2:141|19:93,1,44.9999971961976,0|0,0:0|0:0,0:0:0:0:
111,60,234170,2,0,B|113:88|113:88|96:136,1,44.9999971961976,0|0,0:0|0:0,0:0:0:0:
144,210,234327,5,0,0:0:0:0:
174,159,234406,1,0,0:0:0:0:
207,111,234484,2,0,L|215:100,4,11.2499992990494,0|0|0|0|0,0:0|0:0|0:0|0:0|0:0,0:0:0:0:
328,73,234641,2,0,B|356:80|356:80|397:111,1,44.9999971961976,0|0,0:0|0:0,0:0:0:0:
328,189,234798,2,0,B|348:209|348:209|368:257,1,44.9999971961976,0|0,0:0|0:0,0:0:0:0:
242,294,234955,5,0,0:0:0:0:
195,257,235034,1,0,0:0:0:0:
152,217,235112,2,0,L|142:207,4,11.2499992990494,0|0|0|0|0,0:0|0:0|0:0|0:0|0:0,0:0:0:0:
97,103,235269,2,0,B|118:83|118:83|167:66,1,44.9999971961976,0|0,0:0|0:0,0:0:0:0:
313,103,235427,2,0,B|291:83|291:83|242:66,1,44.9999971961976,0|0,0:0|0:0,0:0:0:0:
87,205,235584,2,0,B|112:189|112:189|162:180,1,44.9999971961976,0|0,0:0|0:0,0:0:0:0:
323,205,235741,2,0,B|297:189|297:189|247:180,1,44.9999971961976,0|0,0:0|0:0,0:0:0:0:
205,37,235898,5,0,0:0:0:0:
205,72,235976,1,0,0:0:0:0:
205,108,236055,1,0,0:0:0:0:
205,143,236133,1,0,0:0:0:0:
205,179,236212,1,0,0:0:0:0:
205,214,236290,1,0,0:0:0:0:
205,250,236369,1,0,0:0:0:0:
205,285,236447,1,0,0:0:0:0:
205,321,236526,1,0,0:0:0:0:
322,253,236762,5,0,0:0:0:0:
238,358,236997,1,0,0:0:0:0:
238,358,237154,2,0,L|282:338,1,37.4999988079071,0|0,0:0|0:0,0:0:0:0:
322,253,237468,6,0,L|324:251,12,3.12499990065893,0|0|0|0|0|0|0|0|0|0|0|0|0,0:0|0:0|0:0|0:0|0:0|0:0|0:0|0:0|0:0|0:0|0:0|0:0|0:0,0:0:0:0:
446,231,237783,2,0,B|426:212|433:172|433:172|404:146|404:146|363:156|327:124,1,149.999995231629,0|0,0:0|0:0,0:0:0:0:
334,140,238018,1,0,0:0:0:0:
334,140,238097,1,0,0:0:0:0:
185,73,238254,1,0,0:0:0:0:
185,266,238411,6,0,B|164:204|164:204|185:133,1,82.4999998950959,0|0,0:0|0:0,0:0:0:0:
185,73,238568,2,0,L|185:89,1,12.4999996026357,0|0,0:0|0:0,0:0:0:0:
185,266,238725,2,0,B|206:204|206:204|185:133,1,82.4999998950959,0|0,0:0|0:0,0:0:0:0:
185,85,238882,2,0,L|185:73,1,12.4999996026357,0|0,0:0|0:0,0:0:0:0:
339,61,239039,6,0,L|317:49,2,21.4285707473755,0|0|0,0:0|0:0|0:0,0:0:0:0:
202,188,239510,1,0,0:0:0:0:
417,145,239667,6,0,B|428:189|428:189|396:298,1,82.4999998950959,0|0,0:0|0:0,0:0:0:0:
320,334,239824,2,0,L|320:318,1,12.4999996026357,0|0,0:0|0:0,0:0:0:0:
417,224,239981,6,0,B|428:189|428:189|417:145,1,82.4999998950959,0|0,0:0|0:0,0:0:0:0:
320,50,240139,2,0,L|320:66,1,12.4999996026357,0|0,0:0|0:0,0:0:0:0:
227,215,240296,2,0,P|200:187|219:200,1,224.999992847443,0|0,0:0|0:0,0:0:0:0:
227,215,240610,6,0,P|193:179|218:197,1,269.999983177186,0|0,0:0|0:0,0:0:0:0:
227,215,240924,6,0,P|187:173|215:192,1,314.999980373383,0|0,0:0|0:0,0:0:0:0:
227,215,241238,6,0,P|182:169|213:190,1,359.999988555908,0|0,0:0|0:0,0:0:0:0:
268,131,241552,2,0,P|296:162|341:177,1,82.4999998950959,0|0,0:0|0:0,0:0:0:0:
345,332,241709,1,0,0:0:0:0:
345,332,241788,1,0,0:0:0:0:
345,332,241866,2,0,B|325:306|308:295|308:295|321:269|323:237,1,82.4999998950959,0|0,0:0|0:0,0:0:0:0:
202,85,242023,2,0,P|240:99|267:130,1,82.4999998950959,0|0,0:0|0:0,0:0:0:0:
222,296,242180,2,0,B|214:324|214:324|136:243|136:243|233:216,1,164.999999790192,0|0,0:0|0:0,0:0:0:0:
471,176,242495,5,0,0:0:0:0:
416,115,242573,1,0,0:0:0:0:
350,64,242652,1,0,0:0:0:0:
271,40,242730,1,0,0:0:0:0:
188,34,242809,2,0,B|140:35|140:35|88:73,1,82.4999998950959,0|0,0:0|0:0,0:0:0:0:
178,128,242966,2,0,L|178:165,2,37.4999988079071,0|0|0,0:0|0:0|0:0,0:0:0:0:
108,240,243280,1,0,0:0:0:0:
267,130,243437,6,0,P|308:161|307:227,1,82.4999998950959,0|0,0:0|0:0,0:0:0:0:
242,324,243594,2,0,P|201:293|202:227,1,82.4999998950959,0|0,0:0|0:0,0:0:0:0:
310,274,243751,2,0,L|368:332,1,82.4999998950959,0|0,0:0|0:0,0:0:0:0:
396,231,243908,2,0,P|427:190|493:191,1,82.4999998950959,0|0,0:0|0:0,0:0:0:0:
236,203,244065,2,0,B|203:192|187:140|187:140|171:192|140:206,2,164.999999790192,0|0|0,0:0|0:0|0:0,0:0:0:0:
241,335,244536,2,0,P|200:304|201:238,1,82.4999998950959,0|0,0:0|0:0,0:0:0:0:
267,130,244694,2,0,P|308:161|307:227,1,82.4999998950959,0|0,0:0|0:0,0:0:0:0:
102,134,244851,1,0,0:0:0:0:
271,40,245008,5,0,0:0:0:0:
350,64,245086,1,0,0:0:0:0:
416,115,245165,1,0,0:0:0:0:
471,176,245243,1,0,0:0:0:0:
503,252,245322,2,0,B|512:297|512:297|503:335,2,82.4999998950959,0|0|0,0:0|0:0|0:0,0:0:0:0:
418,295,245636,2,0,B|373:304|373:304|334:295,2,82.4999998950959,0|0|0,0:0|0:0|0:0,0:0:0:0:
241,335,245950,2,0,B|232:290|232:290|241:251,2,82.4999998950959,0|0|0,0:0|0:0|0:0,0:0:0:0:
328,200,246264,2,0,B|373:209|373:209|412:200,2,82.4999998950959,0|0|0,0:0|0:0|0:0,0:0:0:0:
176,74,246578,6,0,B|101:108|101:108|84:196,1,164.999999790192,0|0,0:0|0:0,0:0:0:0:
166,167,246814,1,0,0:0:0:0:
101,108,246892,1,0,0:0:0:0:
157,295,247050,1,0,0:0:0:0:
237,281,247128,1,0,0:0:0:0:
318,266,247207,1,0,0:0:0:0:
242,119,247364,1,0,0:0:0:0:
479,237,247521,1,0,0:0:0:0:
398,252,247599,1,0,0:0:0:0:
318,266,247678,1,0,0:0:0:0:
237,281,247756,1,0,0:0:0:0:
157,295,247835,6,0,P|107:282|82:221,1,82.4999998950959,0|0,0:0|0:0,0:0:0:0:
188,139,247992,2,0,P|159:167|153:207,1,82.4999998950959,0|0,0:0|0:0,0:0:0:0:
216,360,248149,1,0,0:0:0:0:
418,171,248306,6,0,L|480:160,1,37.4999988079071,0|0,0:0|0:0,0:0:0:0:
428,327,248463,2,0,B|357:342|357:342|325:330,1,82.4999998950959,0|0,0:0|0:0,0:0:0:0:
272,183,248620,2,0,L|275:196,1,12.4999996026357,0|0,0:0|0:0,0:0:0:0:
184,380,248777,2,0,B|255:365|255:365|275:342,1,82.4999998950959,0|0,0:0|0:0,0:0:0:0:
275,196,248934,2,0,L|272:183,1,12.4999996026357,0|0,0:0|0:0,0:0:0:0:
121,88,249091,6,0,B|102:138|56:155|56:155|53:206|122:258,2,164.999999790192,0|0|0,0:0|0:0|0:0,0:0:0:0:
169,246,249563,1,0,0:0:0:0:
243,99,249720,2,0,P|281:84|319:97,1,82.4999998950959,0|0,0:0|0:0,0:0:0:0:
243,288,249877,2,0,L|227:288,1,12.4999996026357,0|0,0:0|0:0,0:0:0:0:
319,97,250034,2,0,P|281:84|243:99,1,82.4999998950959,0|0,0:0|0:0,0:0:0:0:
320,286,250191,2,0,L|336:286,1,12.4999996026357,0|0,0:0|0:0,0:0:0:0:
465,90,250348,5,0,0:0:0:0:
95,129,250584,5,0,0:0:0:0:
404,332,250819,5,0,0:0:0:0:
319,97,250976,1,0,0:0:0:0:
45,349,251212,5,0,0:0:0:0:
400,246,251447,5,0,0:0:0:0:
166,152,251605,2,0,P|84:163|132:116,1,164.999999790192,0|0,0:0|0:0,0:0:0:0:
147,66,251840,1,0,0:0:0:0:
147,66,251919,1,0,0:0:0:0:
426,66,252076,1,0,0:0:0:0:
426,147,252154,1,0,0:0:0:0:
426,229,252233,1,0,0:0:0:0:
166,152,252390,1,0,0:0:0:0:
485,90,252547,5,0,0:0:0:0:
426,147,252625,1,0,0:0:0:0:
367,205,252704,1,0,0:0:0:0:
308,265,252783,1,0,0:0:0:0:
250,323,252861,2,0,B|200:332|200:332|188:296|130:251,1,82.4999998950959,0|0,0:0|0:0,0:0:0:0:
175,221,253018,2,0,B|225:212|225:212|237:248|295:293,1,82.4999998950959,0|0,0:0|0:0,0:0:0:0:
93,303,253175,5,0,0:0:0:0:
83,220,253254,1,0,0:0:0:0:
118,145,253332,1,0,0:0:0:0:
197,121,253411,1,0,0:0:0:0:
273,149,253489,2,0,B|310:178|310:178|309:142,1,82.4999998950959,0|0,0:0|0:0,0:0:0:0:
281,57,253646,2,0,B|244:28|244:28|245:64,1,82.4999998950959,0|0,0:0|0:0,0:0:0:0:
401,199,253803,5,0,0:0:0:0:
469,151,253882,1,0,0:0:0:0:
438,73,253961,1,0,0:0:0:0:
356,73,254039,1,0,0:0:0:0:
309,142,254118,2,0,B|309:178|309:178|248:212,1,82.4999998950959,0|0,0:0|0:0,0:0:0:0:
185,193,254275,2,0,B|185:157|185:157|246:123,1,82.4999998950959,0|0,0:0|0:0,0:0:0:0:
343,271,254432,5,0,0:0:0:0:
264,293,254510,1,0,0:0:0:0:
181,285,254589,2,0,L|159:275,4,20.624999973774,0|0|0|0|0,0:0|0:0|0:0|0:0|0:0,0:0:0:0:
13,315,254746,2,0,B|13:268|13:268|13:267|13:267|9:259|9:259|13:257|13:257|13:257|13:257|13:257|13:257|13:219,1,82.4999998950959,0|0,0:0|0:0,0:0:0:0:
90,128,254903,2,0,B|90:175|90:175|90:176|90:176|94:184|94:184|90:186|90:186|90:186|90:186|90:186|90:186|90:224,1,82.4999998950959,0|0,0:0|0:0,0:0:0:0:
185,193,255060,5,0,0:0:0:0:
257,153,255139,1,0,0:0:0:0:
311,92,255217,2,0,L|325:69,4,20.624999973774,0|0|0|0|0,0:0|0:0|0:0|0:0|0:0,0:0:0:0:
122,52,255374,1,0,0:0:0:0:
264,254,255531,1,0,0:0:0:0:
419,61,255688,1,0,0:0:0:0:
177,114,255845,1,0,0:0:0:0:
420,160,256002,6,0,L|486:143,3,37.4999988079071,0|0|0|0,0:0|0:0|0:0|0:0,0:0:0:0:
398,263,256317,2,0,L|332:246,3,37.4999988079071,0|0|0|0,0:0|0:0|0:0|0:0,0:0:0:0:
146,91,256631,2,0,P|85:147|86:255,1,164.999999790192,0|0,0:0|0:0,0:0:0:0:
146,91,256866,2,0,P|101:160|130:264,1,164.999999790192,0|0,0:0|0:0,0:0:0:0:
244,232,257102,2,0,P|194:202|173:158,1,82.4999998950959,0|0,0:0|0:0,0:0:0:0:
270,155,257259,2,0,B|270:100|354:125|354:125|309:93|309:93|386:98|429:42,1,247.499999685288,0|0,0:0|0:0,0:0:0:0:
416,208,257573,5,0,0:0:0:0:
400,240,257652,1,0,0:0:0:0:
371,268,257730,1,0,0:0:0:0:
331,280,257809,1,0,0:0:0:0:
290,280,257887,2,0,L|208:272,1,82.5000025177003,0|0,0:0|0:0,0:0:0:0:
290,104,258358,6,0,L|220:110,1,41.2500012588501,0|0,0:0|0:0,0:0:0:0:
208,128,258516,2,0,L|215:198,1,41.2500012588501,0|0,0:0|0:0,0:0:0:0:
272,240,258673,1,0,0:0:0:0:
334,240,258751,1,0,0:0:0:0:
397,240,258830,2,0,L|400:176,1,41.2500012588501,0|0,0:0|0:0,0:0:0:0:
400,112,258987,1,0,0:0:0:0:
472,173,259144,5,0,0:0:0:0:
397,240,259301,1,0,0:0:0:0:
256,320,259615,6,0,L|186:326,1,41.2500012588501,0|0,0:0|0:0,0:0:0:0:
113,255,259772,2,0,L|91:253,12,18.75,0|0|0|0|0|0|0|0|0|0|0|0|0,0:0|0:0|0:0|0:0|0:0|0:0|0:0|0:0|0:0|0:0|0:0|0:0|0:0,0:0:0:0:
213,169,260086,2,0,L|206:99,1,41.2500012588501,0|0,0:0|0:0,0:0:0:0:
117,137,260243,2,0,L|124:67,1,41.2500012588501,0|0,0:0|0:0,0:0:0:0:
299,215,260400,5,0,0:0:0:0:
192,256,260557,1,0,0:0:0:0:
416,176,260714,1,0,0:0:0:0:
272,80,260872,1,0,0:0:0:0:
256,320,261029,1,0,0:0:0:0:
181,128,261186,1,0,0:0:0:0:
387,279,261343,1,0,0:0:0:0:
112,80,261500,2,0,L|96:67,4,18.7499994039536,0|0|0|0|0,0:0|0:0|0:0|0:0|0:0,0:0:0:0:
224,32,261657,6,0,L|288:48,1,41.2500012588501,0|0,0:0|0:0,0:0:0:0:
336,96,261814,1,0,0:0:0:0:
384,160,261892,1,0,0:0:0:0:
400,240,261971,6,0,L|384:288,1,41.2500012588501,0|0,0:0|0:0,0:0:0:0:
384,160,262128,1,0,0:0:0:0:
336,96,262207,1,0,0:0:0:0:
265,42,262285,2,0,L|224:32,1,41.2500012588501,0|0,0:0|0:0,0:0:0:0:
112,80,262442,2,0,L|89:91,4,18.7499994039536,0|0|0|0|0,0:0|0:0|0:0|0:0|0:0,0:0:0:0:
224,160,262599,1,0,0:0:0:0:
80,240,262756,1,0,0:0:0:0:
224,160,262913,5,0,0:0:0:0:
387,279,263070,1,0,0:0:0:0:
387,279,263385,1,0,0:0:0:0:
265,42,263542,1,0,0:0:0:0:
80,240,263699,1,0,0:0:0:0:
80,240,264013,5,0,0:0:0:0:
322,357,264170,1,0,0:0:0:0:
354,89,264327,1,0,0:0:0:0:
354,89,264641,5,0,0:0:0:0:
87,61,264798,1,0,0:0:0:0:
149,324,264955,1,0,0:0:0:0:
149,324,265269,6,0,L|192:267,1,56.2500021457673,0|0,0:0|0:0,0:0:0:0:
233,208,265427,1,0,0:0:0:0:
387,279,265584,1,0,0:0:0:0:
439,235,265662,1,0,0:0:0:0:
489,188,265741,1,0,0:0:0:0:
443,141,265819,1,0,0:0:0:0:
391,97,265898,1,0,0:0:0:0:
337,54,265976,1,0,0:0:0:0:
326,97,266055,5,0,0:0:0:0:
335,140,266133,1,0,0:0:0:0:
322,183,266212,1,0,0:0:0:0:
332,226,266290,1,0,0:0:0:0:
319,271,266369,2,0,L|309:293,12,18.75,0|0|0|0|0|0|0|0|0|0|0|0|0,0:0|0:0|0:0|0:0|0:0|0:0|0:0|0:0|0:0|0:0|0:0|0:0|0:0,0:0:0:0:
80,240,266683,1,0,0:0:0:0:
391,97,266919,5,0,0:0:0:0:
149,324,267154,5,0,0:0:0:0:
217,109,267311,2,0,B|182:127|165:146|165:146|154:120|154:120|135:151|92:155,1,149.999995231629,0|0,0:0|0:0,0:0:0:0:
416,208,267625,5,0,0:0:0:0:
400,240,267704,1,0,0:0:0:0:
371,268,267783,1,0,0:0:0:0:
331,280,267861,1,0,0:0:0:0:
290,280,267940,2,0,L|208:272,1,82.5000025177003,0|0,0:0|0:0,0:0:0:0:
290,104,268411,6,0,L|220:110,1,41.2500012588501,0|0,0:0|0:0,0:0:0:0:
208,128,268568,2,0,L|215:198,1,41.2500012588501,0|0,0:0|0:0,0:0:0:0:
272,240,268725,1,0,0:0:0:0:
334,240,268803,1,0,0:0:0:0:
397,240,268882,2,0,L|400:176,1,41.2500012588501,0|0,0:0|0:0,0:0:0:0:
400,112,269039,1,0,0:0:0:0:
323,167,269196,5,0,0:0:0:0:
397,240,269353,1,0,0:0:0:0:
256,320,269667,6,0,L|186:326,1,41.2500012588501,0|0,0:0|0:0,0:0:0:0:
113,255,269824,2,0,L|91:253,12,18.75,0|0|0|0|0|0|0|0|0|0|0|0|0,0:0|0:0|0:0|0:0|0:0|0:0|0:0|0:0|0:0|0:0|0:0|0:0|0:0,0:0:0:0:
213,169,270139,2,0,L|206:99,1,41.2500012588501,0|0,0:0|0:0,0:0:0:0:
117,137,270296,2,0,L|124:67,1,41.2500012588501,0|0,0:0|0:0,0:0:0:0:
299,215,270453,5,0,0:0:0:0:
192,256,270610,1,0,0:0:0:0:
416,176,270767,1,0,0:0:0:0:
325,313,270924,1,0,0:0:0:0:
416,176,271081,1,0,0:0:0:0:
181,128,271238,1,0,0:0:0:0:
416,176,271395,1,0,0:0:0:0:
112,80,271552,2,0,L|94:75,4,18.7499994039536
224,32,271709,6,0,L|288:48,1,41.2500012588501,0|0,0:0|0:0,0:0:0:0:
336,96,271866,1,0,0:0:0:0:
384,160,271945,1,0,0:0:0:0:
400,240,272023,6,0,L|384:288,1,41.2500012588501,0|0,0:0|0:0,0:0:0:0:
384,160,272180,1,0,0:0:0:0:
336,96,272259,1,0,0:0:0:0:
265,42,272338,2,0,L|224:32,1,41.2500012588501,0|0,0:0|0:0,0:0:0:0:
112,80,272495,2,0,L|89:91,4,18.7499994039536,0|0|0|0|0,0:0|0:0|0:0|0:0|0:0,0:0:0:0:
224,160,272652,1,0,0:0:0:0:
80,240,272809,1,0,0:0:0:0:
224,160,272966,5,0,0:0:0:0:
387,279,273123,1,0,0:0:0:0:
387,279,273437,1,0,0:0:0:0:
265,42,273594,1,0,0:0:0:0:
80,240,273751,1,0,0:0:0:0:
80,240,274065,5,0,0:0:0:0:
322,357,274222,1,0,0:0:0:0:
354,89,274379,1,0,0:0:0:0:
354,89,274694,5,0,0:0:0:0:
87,61,274851,1,0,0:0:0:0:
149,324,275008,1,0,0:0:0:0:
149,324,275322,6,0,L|192:267,1,56.2500021457673,0|0,0:0|0:0,0:0:0:0:
233,208,275479,1,0,0:0:0:0:
433,149,275636,1,0,0:0:0:0:
373,106,275714,1,0,0:0:0:0:
310,67,275793,1,0,0:0:0:0:
310,140,275872,5,0,0:0:0:0:
373,175,275950,1,0,0:0:0:0:
436,211,276029,1,0,0:0:0:0:
368,237,276107,5,0,0:0:0:0:
304,199,276186,1,0,0:0:0:0:
244,158,276264,1,0,0:0:0:0:
240,231,276343,5,0,0:0:0:0:
299,278,276421,2,0,L|289:300,12,18.75,0|0|0|0|0|0|0|0|0|0|0|0|0,0:0|0:0|0:0|0:0|0:0|0:0|0:0|0:0|0:0|0:0|0:0|0:0|0:0,0:0:0:0:
80,240,276735,1,0,0:0:0:0:
256,192,277992,5,0,0:0:0:0:
192,144,279248,5,0,0:0:0:0:
256,192,279406,12,0,284275,0:0:0:0:
