osu file format v14

[General]
AudioFilename: audio.mp3
AudioLeadIn: 0
PreviewTime: 88506
Countdown: 0
SampleSet: Soft
StackLeniency: 0.7
Mode: 3
LetterboxInBreaks: 0
SpecialStyle: 0
WidescreenStoryboard: 0

[Editor]
DistanceSpacing: 1.3
BeatDivisor: 4
GridSize: 16
TimelineZoom: 1.7

[Metadata]
Title:Invitation
TitleUnicode:Invitation
Artist:Zeron
ArtistUnicode:Zeron
Creator:Benzopirene
Version:lnvite
Source:O2Jam
Tags:
BeatmapID:2007822
BeatmapSetID:959017

[Difficulty]
HPDrainRate:8
CircleSize:4
OverallDifficulty:8
ApproachRate:5
SliderMultiplier:1.4
SliderTickRate:1

[Events]
//Background and Video events
0,0,"InvitationBG.jpg",0,0
//Break Periods
//Storyboard Layer 0 (Background)
//Storyboard Layer 1 (Fail)
//Storyboard Layer 2 (Pass)
//Storyboard Layer 3 (Foreground)
//Storyboard Sound Samples

[TimingPoints]
666,480,4,2,0,20,1,0
48666,-111.111111111111,4,2,0,20,0,0
49146,-125,4,2,0,20,0,0
49626,-142.857142857143,4,2,0,20,0,0
50106,-153.846153846154,4,2,0,20,0,0
50346,-166.666666666667,4,2,0,20,0,0
52026,-142.857142857143,4,2,0,20,0,0
52266,-153.846153846154,4,2,0,20,0,0
53946,-142.857142857143,4,2,0,20,0,0
54186,-166.666666666667,4,2,0,20,0,0
55866,-153.846153846154,4,2,0,20,0,0
56106,-181.818181818182,4,2,0,20,0,0
57066,-166.666666666667,4,2,0,20,0,0
57306,-153.846153846154,4,2,0,20,0,0
57546,-142.857142857143,4,2,0,20,0,0
57786,-76.9230769230769,4,2,0,20,0,0
57906,-142.857142857143,4,2,0,20,0,0
58146,-76.9230769230769,4,2,0,20,0,0
58266,-142.857142857143,4,2,0,20,0,0
58506,-76.9230769230769,4,2,0,20,0,0
58626,-142.857142857143,4,2,0,20,0,0
58746,-76.9230769230769,4,2,0,20,0,0
58866,-142.857142857143,4,2,0,20,0,0
58986,-76.9230769230769,4,2,0,20,0,0
59106,-142.857142857143,4,2,0,20,0,0
59226,-76.9230769230769,4,2,0,20,0,0
59346,-142.857142857143,4,2,0,20,0,0
59466,-76.9230769230769,4,2,0,20,0,0
59586,-142.857142857143,4,2,0,20,0,0
59706,-76.9230769230769,4,2,0,20,0,0
59826,-142.857142857143,4,2,0,20,0,0
60066,-76.9230769230769,4,2,0,20,0,0
60186,-142.857142857143,4,2,0,20,0,0
60426,-76.9230769230769,4,2,0,20,0,0
60546,-142.857142857143,4,2,0,20,0,0
60666,-68.9655172413793,4,2,0,20,0,0
60786,-181.818181818182,4,2,0,20,0,0
60906,-68.9655172413793,4,2,0,20,0,0
61026,-181.818181818182,4,2,0,20,0,0
61146,-68.9655172413793,4,2,0,20,0,0
61266,-181.818181818182,4,2,0,20,0,0
61386,-68.9655172413793,4,2,0,20,0,0
61506,-181.818181818182,4,2,0,20,0,0
61626,-142.857142857143,4,2,0,20,0,0
61866,-166.666666666667,4,2,0,20,0,0
63546,-133.333333333333,4,2,0,20,0,0
63786,-153.846153846154,4,2,0,20,0,0
64746,-142.857142857143,4,2,0,20,0,0
64986,-133.333333333333,4,2,0,20,0,0
65226,-125,4,2,0,20,0,0
65466,-133.333333333333,4,2,0,20,0,0
65706,-142.857142857143,4,2,0,20,0,0
67386,-125,4,2,0,20,0,0
67626,-142.857142857143,4,2,0,20,0,0
69306,-76.9230769230769,4,2,0,20,0,0
69426,-142.857142857143,4,2,0,20,0,0
69666,-76.9230769230769,4,2,0,20,0,0
69786,-142.857142857143,4,2,0,20,0,0
70026,-76.9230769230769,4,2,0,20,0,0
70146,-142.857142857143,4,2,0,20,0,0
70266,-76.9230769230769,4,2,0,20,0,0
70386,-142.857142857143,4,2,0,20,0,0
70506,-76.9230769230769,4,2,0,20,0,0
70626,-142.857142857143,4,2,0,20,0,0
70746,-76.9230769230769,4,2,0,20,0,0
70866,-142.857142857143,4,2,0,20,0,0
70986,-76.9230769230769,4,2,0,20,0,0
71106,-142.857142857143,4,2,0,20,0,0
71226,-76.9230769230769,4,2,0,20,0,0
71346,-142.857142857143,4,2,0,20,0,0
71586,-76.9230769230769,4,2,0,20,0,0
71706,-142.857142857143,4,2,0,20,0,0
71946,-76.9230769230769,4,2,0,20,0,0
72066,-142.857142857143,4,2,0,20,0,0
72186,-100,4,2,0,20,0,0
73146,-142.857142857143,4,2,0,20,0,0
80826,-117.647058823529,4,2,0,20,0,0
81186,-133.333333333333,4,2,0,20,0,0
82746,-117.647058823529,4,2,0,20,0,0
83106,-133.333333333333,4,2,0,20,0,0
84666,-117.647058823529,4,2,0,20,0,0
85026,-133.333333333333,4,2,0,20,0,0
86106,-125,4,2,0,20,0,0
86586,-120.481927710843,4,2,0,20,0,0
87066,-116.279069767442,4,2,0,20,0,0
87546,-111.111111111111,4,2,0,20,0,0
87906,-107.52688172043,4,2,0,20,0,0
88266,-103.092783505155,4,2,0,20,0,0
88506,-100,4,2,0,20,0,0
119226,-76.9230769230769,4,2,0,20,0,0
119346,-142.857142857143,4,2,0,20,0,0
119586,-76.9230769230769,4,2,0,20,0,0
119706,-142.857142857143,4,2,0,20,0,0
119946,-76.9230769230769,4,2,0,20,0,0
120066,-142.857142857143,4,2,0,20,0,0
120186,-76.9230769230769,4,2,0,20,0,0
120306,-142.857142857143,4,2,0,20,0,0
120546,-76.9230769230769,4,2,0,20,0,0
120666,-142.857142857143,4,2,0,20,0,0
120906,-76.9230769230769,4,2,0,20,0,0
121026,-142.857142857143,4,2,0,20,0,0
121146,-76.9230769230769,4,2,0,20,0,0
121266,-142.857142857143,4,2,0,20,0,0
121386,-76.9230769230769,4,2,0,20,0,0
121506,-142.857142857143,4,2,0,20,0,0
121626,-76.9230769230769,4,2,0,20,0,0
121746,-142.857142857143,4,2,0,20,0,0
121866,-76.9230769230769,4,2,0,20,0,0
121986,-142.857142857143,4,2,0,20,0,0
122106,-80,4,2,0,20,0,0
122226,-133.333333333333,4,2,0,20,0,0
122346,-80,4,2,0,20,0,0
122466,-133.333333333333,4,2,0,20,0,0
122586,-80,4,2,0,20,0,0
122706,-133.333333333333,4,2,0,20,0,0
122826,-80,4,2,0,20,0,0
122946,-133.333333333333,4,2,0,20,0,0
123066,-100,4,2,0,20,0,0
125586,-99.009900990099,4,2,0,20,0,0
125706,-94.3396226415094,4,2,0,20,0,0
125826,-88.495575221239,4,2,0,20,0,0
125946,-81.9672131147541,4,2,0,20,0,0
126066,-74.0740740740741,4,2,0,20,0,0
126186,-66.6666666666667,4,2,0,20,0,0
126306,-59.5238095238095,4,2,0,20,0,0
126426,-52.9100529100529,4,2,0,20,0,0
126546,-46.9483568075117,4,2,0,20,0,0
126666,-41.8410041841004,4,2,0,20,0,0
126786,-37.3134328358209,4,2,0,20,0,0
126906,-33.3333333333333,4,2,0,20,0,0

[HitObjects]
64,192,666,128,0,1146:0:0:0:0:
192,192,1146,128,0,1626:0:0:0:0:
320,192,1626,128,0,2106:0:0:0:0:
192,192,2106,128,0,2346:0:0:0:0:
448,192,2106,128,0,2586:0:0:0:0:
320,192,2346,128,0,2826:0:0:0:0:
192,192,2586,128,0,3066:0:0:0:0:
64,192,2826,128,0,3786:0:0:0:0:
320,192,3306,128,0,3546:0:0:0:0:
448,192,3546,128,0,3786:0:0:0:0:
192,192,3786,128,0,4026:0:0:0:0:
64,192,4026,128,0,4266:0:0:0:0:
448,192,4026,128,0,4506:0:0:0:0:
320,192,4266,128,0,4746:0:0:0:0:
192,192,4506,128,0,4986:0:0:0:0:
64,192,4746,128,0,5706:0:0:0:0:
448,192,5226,128,0,5466:0:0:0:0:
192,192,5466,128,0,5706:0:0:0:0:
320,192,5706,128,0,5946:0:0:0:0:
448,192,5946,1,0,0:0:0:0:
64,192,5946,128,0,6306:0:0:0:0:
448,192,6186,1,0,0:0:0:0:
192,192,6186,128,0,6546:0:0:0:0:
448,192,6426,1,0,0:0:0:0:
64,192,6426,128,0,6786:0:0:0:0:
448,192,6666,1,0,0:0:0:0:
448,192,6906,1,0,0:0:0:0:
192,192,6906,128,0,7266:0:0:0:0:
320,192,7146,1,0,0:0:0:0:
64,192,7146,128,0,7506:0:0:0:0:
448,192,7386,1,0,0:0:0:0:
192,192,7386,128,0,7746:0:0:0:0:
320,192,7626,1,0,0:0:0:0:
64,192,7866,128,0,8106:0:0:0:0:
192,192,7866,1,0,0:0:0:0:
192,192,8106,128,0,8346:0:0:0:0:
320,192,8346,128,0,8586:0:0:0:0:
448,192,8586,128,0,8826:0:0:0:0:
192,192,8826,128,0,9546:0:0:0:0:
64,192,9786,1,0,0:0:0:0:
320,192,9786,128,0,10026:0:0:0:0:
448,192,10026,128,0,10266:0:0:0:0:
192,192,10146,1,0,0:0:0:0:
64,192,10266,128,0,10746:0:0:0:0:
320,192,10506,1,0,0:0:0:0:
448,192,10746,1,0,0:0:0:0:
192,192,10746,128,0,10986:0:0:0:0:
64,192,10986,128,0,11226:0:0:0:0:
320,192,11106,1,0,0:0:0:0:
448,192,11226,128,0,11706:0:0:0:0:
192,192,11466,1,0,0:0:0:0:
64,192,11706,1,0,0:0:0:0:
320,192,11706,128,0,11946:0:0:0:0:
448,192,11946,128,0,12186:0:0:0:0:
192,192,12066,1,0,0:0:0:0:
64,192,12186,128,0,12666:0:0:0:0:
320,192,12426,1,0,0:0:0:0:
448,192,12666,1,0,0:0:0:0:
192,192,12666,128,0,13146:0:0:0:0:
448,192,12906,128,0,13146:0:0:0:0:
320,192,13146,128,0,13386:0:0:0:0:
64,192,13386,1,0,0:0:0:0:
192,192,13506,1,0,0:0:0:0:
320,192,13626,1,0,0:0:0:0:
64,192,13626,128,0,13866:0:0:0:0:
320,192,13866,1,0,0:0:0:0:
192,192,13866,128,0,14106:0:0:0:0:
320,192,14106,1,0,0:0:0:0:
64,192,14106,128,0,15306:0:0:0:0:
320,192,14346,1,0,0:0:0:0:
320,192,14586,1,0,0:0:0:0:
448,192,14826,1,0,0:0:0:0:
320,192,15066,1,0,0:0:0:0:
192,192,15306,1,0,0:0:0:0:
320,192,15546,1,0,0:0:0:0:
64,192,15546,128,0,15786:0:0:0:0:
192,192,15786,128,0,16026:0:0:0:0:
320,192,16026,128,0,16266:0:0:0:0:
448,192,16266,128,0,16506:0:0:0:0:
192,192,16506,128,0,17946:0:0:0:0:
64,192,17946,128,0,18066:0:0:0:0:
192,192,18426,128,0,18546:0:0:0:0:
320,192,18906,128,0,19026:0:0:0:0:
448,192,19386,128,0,19506:0:0:0:0:
64,192,19386,128,0,21306:0:0:0:0:
320,192,19626,128,0,20346:0:0:0:0:
192,192,20586,128,0,20706:0:0:0:0:
320,192,20826,128,0,20946:0:0:0:0:
448,192,21066,128,0,21186:0:0:0:0:
448,192,21306,128,0,21426:0:0:0:0:
320,192,21306,128,0,23226:0:0:0:0:
192,192,21546,128,0,22266:0:0:0:0:
64,192,22506,128,0,22626:0:0:0:0:
64,192,22746,128,0,22866:0:0:0:0:
192,192,22986,128,0,23106:0:0:0:0:
64,192,23226,128,0,24186:0:0:0:0:
448,192,23226,128,0,23346:0:0:0:0:
448,192,23466,128,0,23586:0:0:0:0:
448,192,23706,128,0,23826:0:0:0:0:
448,192,23946,128,0,24066:0:0:0:0:
448,192,24186,128,0,25146:0:0:0:0:
320,192,24186,128,0,24306:0:0:0:0:
192,192,24426,128,0,24546:0:0:0:0:
320,192,24666,128,0,24786:0:0:0:0:
64,192,24906,128,0,25026:0:0:0:0:
192,192,25146,128,0,25866:0:0:0:0:
320,192,25146,128,0,25626:0:0:0:0:
320,192,25866,128,0,27066:0:0:0:0:
192,192,26346,128,0,26466:0:0:0:0:
64,192,26586,128,0,26706:0:0:0:0:
192,192,26826,128,0,26946:0:0:0:0:
64,192,27066,128,0,28986:0:0:0:0:
448,192,27066,128,0,27186:0:0:0:0:
320,192,27306,128,0,28026:0:0:0:0:
192,192,28266,128,0,28386:0:0:0:0:
320,192,28506,128,0,28626:0:0:0:0:
320,192,28746,128,0,28866:0:0:0:0:
448,192,28986,128,0,30906:0:0:0:0:
192,192,28986,128,0,29106:0:0:0:0:
320,192,29226,128,0,29946:0:0:0:0:
192,192,30186,128,0,30306:0:0:0:0:
64,192,30426,128,0,30546:0:0:0:0:
320,192,30666,128,0,30786:0:0:0:0:
192,192,30906,128,0,31866:0:0:0:0:
64,192,30906,128,0,31026:0:0:0:0:
64,192,31146,128,0,31266:0:0:0:0:
320,192,31386,128,0,31506:0:0:0:0:
448,192,31626,128,0,31746:0:0:0:0:
320,192,31866,128,0,32826:0:0:0:0:
448,192,31866,128,0,31986:0:0:0:0:
448,192,32106,128,0,32226:0:0:0:0:
192,192,32346,128,0,32466:0:0:0:0:
192,192,32586,128,0,32706:0:0:0:0:
192,192,32826,128,0,34266:0:0:0:0:
64,192,32826,128,0,33546:0:0:0:0:
320,192,33786,1,0,0:0:0:0:
64,192,33906,1,0,0:0:0:0:
448,192,34026,1,0,0:0:0:0:
320,192,34086,1,0,0:0:0:0:
448,192,34146,1,0,0:0:0:0:
64,192,34266,1,0,0:0:0:0:
320,192,34386,1,0,0:0:0:0:
448,192,34506,1,0,0:0:0:0:
448,192,34626,1,0,0:0:0:0:
64,192,34746,128,0,34986:0:0:0:0:
192,192,34746,1,0,0:0:0:0:
320,192,34746,128,0,34866:0:0:0:0:
192,192,34986,128,0,35106:0:0:0:0:
448,192,34986,1,0,0:0:0:0:
64,192,35106,128,0,35226:0:0:0:0:
320,192,35226,1,0,0:0:0:0:
64,192,35466,128,0,35946:0:0:0:0:
448,192,35466,1,0,0:0:0:0:
192,192,35706,1,0,0:0:0:0:
192,192,35946,128,0,36066:0:0:0:0:
320,192,35946,1,0,0:0:0:0:
448,192,36066,1,0,0:0:0:0:
64,192,36186,128,0,36426:0:0:0:0:
320,192,36186,128,0,36306:0:0:0:0:
448,192,36426,128,0,36546:0:0:0:0:
192,192,36426,1,0,0:0:0:0:
448,192,36666,128,0,36786:0:0:0:0:
64,192,36666,1,0,0:0:0:0:
320,192,36906,128,0,37026:0:0:0:0:
64,192,36906,1,0,0:0:0:0:
192,192,37026,128,0,37146:0:0:0:0:
448,192,37146,1,0,0:0:0:0:
192,192,37386,128,0,37866:0:0:0:0:
64,192,37386,1,0,0:0:0:0:
448,192,37626,1,0,0:0:0:0:
64,192,37866,128,0,37986:0:0:0:0:
320,192,37866,1,0,0:0:0:0:
192,192,37986,1,0,0:0:0:0:
448,192,38106,128,0,38346:0:0:0:0:
64,192,38106,128,0,38226:0:0:0:0:
320,192,38106,1,0,0:0:0:0:
192,192,38346,128,0,38466:0:0:0:0:
64,192,38346,1,0,0:0:0:0:
320,192,38586,128,0,38706:0:0:0:0:
192,192,38586,1,0,0:0:0:0:
320,192,38826,128,0,38946:0:0:0:0:
448,192,38826,1,0,0:0:0:0:
192,192,38946,128,0,39066:0:0:0:0:
320,192,39066,128,0,39186:0:0:0:0:
448,192,39066,1,0,0:0:0:0:
64,192,39306,128,0,39786:0:0:0:0:
320,192,39306,128,0,39426:0:0:0:0:
320,192,39546,128,0,39666:0:0:0:0:
192,192,39546,1,0,0:0:0:0:
448,192,39786,128,0,39906:0:0:0:0:
320,192,39786,1,0,0:0:0:0:
192,192,39906,1,0,0:0:0:0:
64,192,40026,128,0,40266:0:0:0:0:
320,192,40026,128,0,40146:0:0:0:0:
448,192,40026,1,0,0:0:0:0:
192,192,40266,128,0,40386:0:0:0:0:
320,192,40266,1,0,0:0:0:0:
320,192,40506,128,0,40746:0:0:0:0:
64,192,40506,128,0,40626:0:0:0:0:
448,192,40506,1,0,0:0:0:0:
64,192,40746,1,0,0:0:0:0:
192,192,40866,128,0,40986:0:0:0:0:
448,192,40986,1,0,0:0:0:0:
64,192,41226,128,0,41706:0:0:0:0:
320,192,41226,1,0,0:0:0:0:
448,192,41466,1,0,0:0:0:0:
192,192,41706,1,0,0:0:0:0:
320,192,41826,1,0,0:0:0:0:
448,192,41946,128,0,42186:0:0:0:0:
192,192,41946,128,0,42066:0:0:0:0:
64,192,42186,128,0,42306:0:0:0:0:
192,192,42186,1,0,0:0:0:0:
448,192,42426,128,0,42666:0:0:0:0:
192,192,42426,128,0,42546:0:0:0:0:
192,192,42666,128,0,42786:0:0:0:0:
64,192,42666,1,0,0:0:0:0:
320,192,42786,128,0,42906:0:0:0:0:
192,192,42906,128,0,43026:0:0:0:0:
64,192,42906,1,0,0:0:0:0:
64,192,43146,128,0,43266:0:0:0:0:
320,192,43146,128,0,43266:0:0:0:0:
448,192,43386,128,0,43626:0:0:0:0:
192,192,43386,128,0,43506:0:0:0:0:
192,192,43626,128,0,43746:0:0:0:0:
320,192,43626,1,0,0:0:0:0:
448,192,43746,128,0,43866:0:0:0:0:
64,192,43746,1,0,0:0:0:0:
320,192,43866,128,0,43986:0:0:0:0:
192,192,43866,1,0,0:0:0:0:
64,192,44106,128,0,44226:0:0:0:0:
448,192,44106,128,0,44226:0:0:0:0:
320,192,44106,1,0,0:0:0:0:
64,192,44346,128,0,44586:0:0:0:0:
320,192,44346,128,0,44466:0:0:0:0:
320,192,44586,128,0,44706:0:0:0:0:
192,192,44586,1,0,0:0:0:0:
64,192,44826,128,0,45066:0:0:0:0:
448,192,44826,128,0,44946:0:0:0:0:
320,192,44826,1,0,0:0:0:0:
320,192,45066,128,0,45186:0:0:0:0:
448,192,45066,1,0,0:0:0:0:
64,192,45306,128,0,46146:0:0:0:0:
192,192,45306,128,0,45426:0:0:0:0:
448,192,45306,1,0,0:0:0:0:
320,192,45426,1,0,0:0:0:0:
192,192,45546,1,0,0:0:0:0:
320,192,45666,1,0,0:0:0:0:
192,192,45786,1,0,0:0:0:0:
448,192,45786,1,0,0:0:0:0:
320,192,46026,1,0,0:0:0:0:
320,192,46146,1,0,0:0:0:0:
64,192,46266,128,0,46506:0:0:0:0:
192,192,46266,128,0,46386:0:0:0:0:
448,192,46266,1,0,0:0:0:0:
448,192,46506,128,0,46626:0:0:0:0:
192,192,46506,1,0,0:0:0:0:
64,192,46626,128,0,46746:0:0:0:0:
320,192,46746,128,0,46866:0:0:0:0:
448,192,46746,1,0,0:0:0:0:
448,192,46986,128,0,47106:0:0:0:0:
192,192,46986,128,0,47106:0:0:0:0:
320,192,46986,1,0,0:0:0:0:
64,192,47226,128,0,47466:0:0:0:0:
320,192,47226,128,0,47346:0:0:0:0:
448,192,47226,1,0,0:0:0:0:
192,192,47466,128,0,47586:0:0:0:0:
320,192,47466,1,0,0:0:0:0:
64,192,47586,128,0,47706:0:0:0:0:
448,192,47586,1,0,0:0:0:0:
320,192,47706,128,0,47826:0:0:0:0:
192,192,47706,1,0,0:0:0:0:
448,192,47946,128,0,48066:0:0:0:0:
192,192,47946,128,0,48066:0:0:0:0:
64,192,47946,1,0,0:0:0:0:
448,192,48186,128,0,48666:0:0:0:0:
64,192,48186,128,0,48306:0:0:0:0:
320,192,48186,1,0,0:0:0:0:
64,192,48546,1,0,0:0:0:0:
320,192,48546,1,0,0:0:0:0:
192,192,48666,128,0,49146:0:0:0:0:
64,192,48906,1,0,0:0:0:0:
448,192,48906,1,0,0:0:0:0:
320,192,49146,128,0,49626:0:0:0:0:
64,192,49386,1,0,0:0:0:0:
192,192,49386,1,0,0:0:0:0:
64,192,49626,1,0,0:0:0:0:
448,192,49626,128,0,49986:0:0:0:0:
192,192,49866,1,0,0:0:0:0:
64,192,50106,1,0,0:0:0:0:
320,192,50106,128,0,50346:0:0:0:0:
448,192,50106,128,0,50226:0:0:0:0:
192,192,50346,128,0,51546:0:0:0:0:
64,192,50346,128,0,50466:0:0:0:0:
448,192,50826,128,0,50946:0:0:0:0:
320,192,51066,128,0,51186:0:0:0:0:
448,192,51306,128,0,51426:0:0:0:0:
320,192,51426,128,0,51546:0:0:0:0:
320,192,51666,128,0,51786:0:0:0:0:
192,192,51786,128,0,51906:0:0:0:0:
320,192,51906,128,0,52026:0:0:0:0:
448,192,52026,128,0,52266:0:0:0:0:
192,192,52026,128,0,52146:0:0:0:0:
192,192,52266,128,0,53466:0:0:0:0:
64,192,52266,128,0,52386:0:0:0:0:
64,192,52746,128,0,52866:0:0:0:0:
320,192,52986,128,0,53106:0:0:0:0:
64,192,53106,128,0,53226:0:0:0:0:
320,192,53226,128,0,53346:0:0:0:0:
64,192,53466,128,0,53586:0:0:0:0:
320,192,53586,128,0,53706:0:0:0:0:
64,192,53706,128,0,53826:0:0:0:0:
320,192,53826,128,0,53946:0:0:0:0:
192,192,53946,128,0,54186:0:0:0:0:
64,192,53946,128,0,54066:0:0:0:0:
64,192,54186,128,0,55386:0:0:0:0:
448,192,54186,128,0,54306:0:0:0:0:
192,192,54666,128,0,54786:0:0:0:0:
448,192,54906,128,0,55026:0:0:0:0:
192,192,55146,128,0,55266:0:0:0:0:
448,192,55266,128,0,55386:0:0:0:0:
448,192,55506,128,0,55626:0:0:0:0:
192,192,55626,128,0,55746:0:0:0:0:
448,192,55746,128,0,55866:0:0:0:0:
192,192,55866,128,0,56106:0:0:0:0:
64,192,55866,128,0,55986:0:0:0:0:
320,192,56106,128,0,57306:0:0:0:0:
448,192,56106,128,0,56226:0:0:0:0:
64,192,56586,128,0,56706:0:0:0:0:
64,192,56826,128,0,56946:0:0:0:0:
448,192,56946,128,0,57066:0:0:0:0:
192,192,57066,128,0,57186:0:0:0:0:
64,192,57066,128,0,57186:0:0:0:0:
448,192,57186,128,0,57306:0:0:0:0:
64,192,57306,128,0,57426:0:0:0:0:
192,192,57306,128,0,57426:0:0:0:0:
448,192,57426,128,0,57546:0:0:0:0:
192,192,57546,128,0,57666:0:0:0:0:
320,192,57546,128,0,57666:0:0:0:0:
320,192,57786,128,0,57906:0:0:0:0:
448,192,57786,128,0,57906:0:0:0:0:
192,192,57786,128,0,58266:0:0:0:0:
320,192,58146,128,0,58266:0:0:0:0:
448,192,58146,128,0,58626:0:0:0:0:
320,192,58506,128,0,58626:0:0:0:0:
192,192,58506,128,0,58866:0:0:0:0:
64,192,58506,128,0,58626:0:0:0:0:
64,192,58746,128,0,58866:0:0:0:0:
320,192,58746,128,0,59106:0:0:0:0:
64,192,58986,128,0,59106:0:0:0:0:
192,192,58986,128,0,59346:0:0:0:0:
64,192,59226,128,0,59346:0:0:0:0:
320,192,59226,128,0,59586:0:0:0:0:
192,192,59466,128,0,59586:0:0:0:0:
448,192,59466,128,0,59826:0:0:0:0:
320,192,59706,128,0,59826:0:0:0:0:
64,192,59706,128,0,60186:0:0:0:0:
192,192,60066,128,0,60186:0:0:0:0:
320,192,60066,128,0,60546:0:0:0:0:
448,192,60066,128,0,60186:0:0:0:0:
192,192,60426,128,0,60546:0:0:0:0:
448,192,60426,128,0,60786:0:0:0:0:
320,192,60666,128,0,60786:0:0:0:0:
192,192,60666,128,0,61026:0:0:0:0:
64,192,60666,128,0,60786:0:0:0:0:
448,192,60906,128,0,61026:0:0:0:0:
320,192,60906,128,0,61266:0:0:0:0:
64,192,60906,128,0,61026:0:0:0:0:
192,192,61146,128,0,61266:0:0:0:0:
448,192,61146,128,0,61506:0:0:0:0:
64,192,61146,128,0,61266:0:0:0:0:
192,192,61386,128,0,61626:0:0:0:0:
320,192,61386,128,0,61626:0:0:0:0:
64,192,61386,128,0,61506:0:0:0:0:
448,192,61626,128,0,61866:0:0:0:0:
64,192,61626,128,0,61746:0:0:0:0:
320,192,61866,128,0,63066:0:0:0:0:
192,192,61866,128,0,61986:0:0:0:0:
192,192,62346,128,0,62466:0:0:0:0:
64,192,62586,128,0,62706:0:0:0:0:
64,192,62826,128,0,62946:0:0:0:0:
192,192,62946,128,0,63066:0:0:0:0:
192,192,63186,128,0,63306:0:0:0:0:
320,192,63306,128,0,63426:0:0:0:0:
192,192,63426,128,0,63546:0:0:0:0:
448,192,63546,128,0,63786:0:0:0:0:
320,192,63546,128,0,63666:0:0:0:0:
192,192,63786,128,0,64986:0:0:0:0:
64,192,63786,128,0,63906:0:0:0:0:
320,192,64266,128,0,64386:0:0:0:0:
448,192,64506,128,0,64626:0:0:0:0:
320,192,64626,128,0,64746:0:0:0:0:
448,192,64746,128,0,64866:0:0:0:0:
64,192,64746,128,0,64986:0:0:0:0:
320,192,64986,128,0,65106:0:0:0:0:
448,192,64986,128,0,65106:0:0:0:0:
192,192,65106,128,0,65226:0:0:0:0:
64,192,65226,128,0,65346:0:0:0:0:
320,192,65226,128,0,65466:0:0:0:0:
192,192,65346,128,0,65466:0:0:0:0:
64,192,65466,128,0,65586:0:0:0:0:
448,192,65466,128,0,65706:0:0:0:0:
192,192,65706,128,0,65826:0:0:0:0:
320,192,65706,128,0,66186:0:0:0:0:
192,192,66186,128,0,66306:0:0:0:0:
320,192,66426,128,0,66546:0:0:0:0:
192,192,66666,128,0,66786:0:0:0:0:
448,192,66786,128,0,66906:0:0:0:0:
192,192,67026,128,0,67146:0:0:0:0:
320,192,67146,128,0,67266:0:0:0:0:
64,192,67266,128,0,67386:0:0:0:0:
192,192,67386,128,0,67506:0:0:0:0:
448,192,67386,128,0,67626:0:0:0:0:
64,192,67626,128,0,67746:0:0:0:0:
320,192,67626,128,0,68466:0:0:0:0:
192,192,68106,128,0,68346:0:0:0:0:
448,192,68346,128,0,68586:0:0:0:0:
192,192,68466,128,0,68706:0:0:0:0:
320,192,68586,128,0,68826:0:0:0:0:
64,192,68706,128,0,68946:0:0:0:0:
192,192,68826,128,0,69066:0:0:0:0:
320,192,68946,128,0,69186:0:0:0:0:
64,192,69066,128,0,69186:0:0:0:0:
192,192,69186,128,0,69306:0:0:0:0:
320,192,69306,128,0,69546:0:0:0:0:
448,192,69306,128,0,69786:0:0:0:0:
192,192,69666,128,0,69906:0:0:0:0:
320,192,69666,128,0,70146:0:0:0:0:
64,192,70026,128,0,70266:0:0:0:0:
192,192,70026,128,0,70386:0:0:0:0:
320,192,70266,128,0,70506:0:0:0:0:
448,192,70266,128,0,70626:0:0:0:0:
192,192,70506,128,0,70746:0:0:0:0:
64,192,70506,128,0,70866:0:0:0:0:
448,192,70746,128,0,70986:0:0:0:0:
320,192,70746,128,0,71106:0:0:0:0:
192,192,70986,128,0,71226:0:0:0:0:
64,192,70986,128,0,71346:0:0:0:0:
320,192,71226,128,0,71466:0:0:0:0:
448,192,71226,128,0,71706:0:0:0:0:
320,192,71586,128,0,71826:0:0:0:0:
192,192,71586,128,0,72066:0:0:0:0:
448,192,71946,128,0,72186:0:0:0:0:
320,192,71946,128,0,72306:0:0:0:0:
64,192,72186,128,0,73026:0:0:0:0:
192,192,72186,1,0,0:0:0:0:
448,192,72306,1,0,0:0:0:0:
320,192,72426,1,0,0:0:0:0:
192,192,72546,1,0,0:0:0:0:
448,192,72666,1,0,0:0:0:0:
192,192,72786,1,0,0:0:0:0:
448,192,72906,1,0,0:0:0:0:
192,192,73026,1,0,0:0:0:0:
448,192,73146,128,0,74946:0:0:0:0:
64,192,73146,128,0,74106:0:0:0:0:
320,192,73386,1,0,0:0:0:0:
192,192,73626,1,0,0:0:0:0:
320,192,73866,1,0,0:0:0:0:
192,192,74106,128,0,75066:0:0:0:0:
320,192,74106,1,0,0:0:0:0:
64,192,74346,1,0,0:0:0:0:
320,192,74586,1,0,0:0:0:0:
64,192,74826,1,0,0:0:0:0:
320,192,75066,128,0,76986:0:0:0:0:
448,192,75066,128,0,76506:0:0:0:0:
64,192,75066,1,0,0:0:0:0:
192,192,75306,1,0,0:0:0:0:
64,192,75546,1,0,0:0:0:0:
192,192,75786,1,0,0:0:0:0:
64,192,76026,1,0,0:0:0:0:
192,192,76266,1,0,0:0:0:0:
192,192,76506,128,0,76746:0:0:0:0:
64,192,76506,1,0,0:0:0:0:
64,192,76746,128,0,76986:0:0:0:0:
448,192,76746,1,0,0:0:0:0:
192,192,76986,128,0,77946:0:0:0:0:
448,192,76986,128,0,77826:0:0:0:0:
64,192,77226,1,0,0:0:0:0:
320,192,77466,1,0,0:0:0:0:
64,192,77706,1,0,0:0:0:0:
64,192,77946,128,0,78906:0:0:0:0:
448,192,77946,128,0,78426:0:0:0:0:
320,192,77946,1,0,0:0:0:0:
192,192,78186,1,0,0:0:0:0:
320,192,78426,128,0,78906:0:0:0:0:
192,192,78426,1,0,0:0:0:0:
448,192,78666,1,0,0:0:0:0:
192,192,78906,128,0,79866:0:0:0:0:
448,192,78906,128,0,79866:0:0:0:0:
320,192,79146,1,0,0:0:0:0:
320,192,79386,1,0,0:0:0:0:
64,192,79506,1,0,0:0:0:0:
320,192,79626,1,0,0:0:0:0:
320,192,79866,128,0,80826:0:0:0:0:
64,192,79866,128,0,80226:0:0:0:0:
192,192,80106,1,0,0:0:0:0:
64,192,80346,128,0,80586:0:0:0:0:
448,192,80346,1,0,0:0:0:0:
192,192,80586,128,0,80706:0:0:0:0:
448,192,80586,1,0,0:0:0:0:
192,192,80826,128,0,81186:0:0:0:0:
64,192,80826,128,0,81786:0:0:0:0:
320,192,81066,1,0,0:0:0:0:
448,192,81186,128,0,82146:0:0:0:0:
192,192,81306,1,0,0:0:0:0:
320,192,81546,1,0,0:0:0:0:
192,192,81786,128,0,82626:0:0:0:0:
320,192,81786,1,0,0:0:0:0:
64,192,82026,1,0,0:0:0:0:
448,192,82266,128,0,82746:0:0:0:0:
320,192,82266,1,0,0:0:0:0:
64,192,82506,1,0,0:0:0:0:
64,192,82746,128,0,83106:0:0:0:0:
192,192,82746,128,0,83346:0:0:0:0:
320,192,82746,1,0,0:0:0:0:
448,192,82986,1,0,0:0:0:0:
320,192,83106,128,0,84066:0:0:0:0:
448,192,83226,1,0,0:0:0:0:
64,192,83346,128,0,83826:0:0:0:0:
192,192,83466,1,0,0:0:0:0:
448,192,83706,1,0,0:0:0:0:
192,192,83826,128,0,84306:0:0:0:0:
64,192,83946,1,0,0:0:0:0:
320,192,84186,128,0,84666:0:0:0:0:
448,192,84186,1,0,0:0:0:0:
64,192,84306,128,0,84666:0:0:0:0:
192,192,84426,1,0,0:0:0:0:
192,192,84666,128,0,85026:0:0:0:0:
448,192,84666,128,0,87546:0:0:0:0:
320,192,84906,1,0,0:0:0:0:
64,192,85026,128,0,85986:0:0:0:0:
192,192,85146,1,0,0:0:0:0:
320,192,85386,1,0,0:0:0:0:
192,192,85626,1,0,0:0:0:0:
320,192,85626,1,0,0:0:0:0:
320,192,85866,1,0,0:0:0:0:
64,192,86106,128,0,86586:0:0:0:0:
192,192,86106,1,0,0:0:0:0:
320,192,86346,1,0,0:0:0:0:
192,192,86586,128,0,86946:0:0:0:0:
320,192,86586,1,0,0:0:0:0:
320,192,86826,1,0,0:0:0:0:
64,192,86826,1,0,0:0:0:0:
192,192,87066,128,0,87546:0:0:0:0:
320,192,87066,1,0,0:0:0:0:
64,192,87066,1,0,0:0:0:0:
320,192,87306,1,0,0:0:0:0:
64,192,87306,1,0,0:0:0:0:
320,192,87546,128,0,87786:0:0:0:0:
64,192,87546,1,0,0:0:0:0:
192,192,87606,1,0,0:0:0:0:
64,192,87666,1,0,0:0:0:0:
192,192,87786,1,0,0:0:0:0:
320,192,87906,128,0,88146:0:0:0:0:
64,192,87906,1,0,0:0:0:0:
448,192,87906,1,0,0:0:0:0:
192,192,88026,1,0,0:0:0:0:
64,192,88146,1,0,0:0:0:0:
320,192,88266,128,0,88506:0:0:0:0:
192,192,88266,1,0,0:0:0:0:
448,192,88266,1,0,0:0:0:0:
64,192,88386,1,0,0:0:0:0:
448,192,88506,1,0,0:0:0:0:
192,192,88506,128,0,88626:0:0:0:0:
64,192,88746,128,0,89466:0:0:0:0:
320,192,88746,128,0,88866:0:0:0:0:
192,192,88986,1,0,0:0:0:0:
448,192,88986,1,0,0:0:0:0:
320,192,89226,128,0,89346:0:0:0:0:
320,192,89386,1,0,0:0:0:0:
448,192,89466,1,0,0:0:0:0:
192,192,89466,1,0,0:0:0:0:
64,192,89706,128,0,89826:0:0:0:0:
320,192,89706,128,0,89826:0:0:0:0:
448,192,89826,128,0,89946:0:0:0:0:
192,192,89946,128,0,90066:0:0:0:0:
64,192,89946,1,0,0:0:0:0:
320,192,90186,128,0,90306:0:0:0:0:
192,192,90186,1,0,0:0:0:0:
448,192,90426,128,0,90546:0:0:0:0:
320,192,90426,1,0,0:0:0:0:
64,192,90426,1,0,0:0:0:0:
320,192,90666,128,0,91386:0:0:0:0:
448,192,90666,1,0,0:0:0:0:
448,192,90906,1,0,0:0:0:0:
64,192,90906,1,0,0:0:0:0:
192,192,91146,1,0,0:0:0:0:
64,192,91266,1,0,0:0:0:0:
192,192,91386,1,0,0:0:0:0:
448,192,91386,1,0,0:0:0:0:
320,192,91506,1,0,0:0:0:0:
64,192,91626,128,0,91746:0:0:0:0:
448,192,91626,128,0,91746:0:0:0:0:
320,192,91746,128,0,91866:0:0:0:0:
192,192,91866,128,0,91986:0:0:0:0:
448,192,91866,128,0,91986:0:0:0:0:
64,192,92026,1,0,0:0:0:0:
320,192,92106,128,0,92226:0:0:0:0:
192,192,92106,1,0,0:0:0:0:
448,192,92346,128,0,92466:0:0:0:0:
64,192,92346,1,0,0:0:0:0:
448,192,92586,128,0,92706:0:0:0:0:
64,192,92586,1,0,0:0:0:0:
192,192,92586,1,0,0:0:0:0:
448,192,92826,128,0,92946:0:0:0:0:
64,192,92826,1,0,0:0:0:0:
320,192,92826,1,0,0:0:0:0:
448,192,93066,128,0,93186:0:0:0:0:
192,192,93066,1,0,0:0:0:0:
64,192,93066,1,0,0:0:0:0:
192,192,93226,1,0,0:0:0:0:
320,192,93306,128,0,93426:0:0:0:0:
64,192,93306,1,0,0:0:0:0:
448,192,93546,128,0,93666:0:0:0:0:
192,192,93546,1,0,0:0:0:0:
64,192,93666,128,0,93786:0:0:0:0:
320,192,93786,128,0,93906:0:0:0:0:
448,192,93786,1,0,0:0:0:0:
192,192,94026,128,0,94146:0:0:0:0:
320,192,94026,1,0,0:0:0:0:
320,192,94266,128,0,94986:0:0:0:0:
192,192,94266,1,0,0:0:0:0:
64,192,94266,1,0,0:0:0:0:
448,192,94506,1,0,0:0:0:0:
64,192,94626,1,0,0:0:0:0:
192,192,94746,1,0,0:0:0:0:
448,192,94746,1,0,0:0:0:0:
64,192,94906,1,0,0:0:0:0:
192,192,94986,1,0,0:0:0:0:
320,192,95226,1,0,0:0:0:0:
448,192,95226,1,0,0:0:0:0:
192,192,95386,1,0,0:0:0:0:
64,192,95466,128,0,95586:0:0:0:0:
320,192,95586,128,0,95706:0:0:0:0:
192,192,95706,128,0,95826:0:0:0:0:
320,192,95946,128,0,96066:0:0:0:0:
64,192,95946,1,0,0:0:0:0:
192,192,96066,1,0,0:0:0:0:
448,192,96186,128,0,96306:0:0:0:0:
64,192,96186,1,0,0:0:0:0:
320,192,96186,1,0,0:0:0:0:
192,192,96346,1,0,0:0:0:0:
320,192,96426,128,0,97146:0:0:0:0:
64,192,96426,1,0,0:0:0:0:
192,192,96666,1,0,0:0:0:0:
448,192,96666,1,0,0:0:0:0:
64,192,96906,1,0,0:0:0:0:
192,192,97066,1,0,0:0:0:0:
64,192,97146,1,0,0:0:0:0:
320,192,97386,128,0,97506:0:0:0:0:
64,192,97386,1,0,0:0:0:0:
448,192,97546,1,0,0:0:0:0:
192,192,97626,128,0,97746:0:0:0:0:
320,192,97626,1,0,0:0:0:0:
320,192,97866,128,0,97986:0:0:0:0:
64,192,97866,1,0,0:0:0:0:
448,192,98106,128,0,98226:0:0:0:0:
192,192,98106,1,0,0:0:0:0:
64,192,98106,1,0,0:0:0:0:
320,192,98346,128,0,99066:0:0:0:0:
448,192,98346,1,0,0:0:0:0:
192,192,98586,1,0,0:0:0:0:
64,192,98586,1,0,0:0:0:0:
448,192,98826,1,0,0:0:0:0:
192,192,98946,1,0,0:0:0:0:
64,192,99066,1,0,0:0:0:0:
448,192,99066,1,0,0:0:0:0:
320,192,99186,1,0,0:0:0:0:
192,192,99306,128,0,99426:0:0:0:0:
64,192,99306,1,0,0:0:0:0:
448,192,99426,128,0,99546:0:0:0:0:
320,192,99546,128,0,99666:0:0:0:0:
192,192,99546,1,0,0:0:0:0:
64,192,99706,1,0,0:0:0:0:
448,192,99786,128,0,99906:0:0:0:0:
320,192,99786,1,0,0:0:0:0:
64,192,100026,128,0,100146:0:0:0:0:
320,192,100026,1,0,0:0:0:0:
192,192,100266,128,0,100386:0:0:0:0:
448,192,100266,1,0,0:0:0:0:
320,192,100506,128,0,100626:0:0:0:0:
64,192,100506,1,0,0:0:0:0:
448,192,100746,128,0,100866:0:0:0:0:
192,192,100746,1,0,0:0:0:0:
64,192,100906,1,0,0:0:0:0:
448,192,100986,128,0,101106:0:0:0:0:
192,192,100986,1,0,0:0:0:0:
320,192,101226,128,0,101346:0:0:0:0:
64,192,101226,1,0,0:0:0:0:
448,192,101346,128,0,101466:0:0:0:0:
192,192,101466,128,0,101586:0:0:0:0:
64,192,101466,1,0,0:0:0:0:
64,192,101706,128,0,101826:0:0:0:0:
320,192,101706,1,0,0:0:0:0:
192,192,101946,128,0,102666:0:0:0:0:
448,192,101946,1,0,0:0:0:0:
64,192,102186,1,0,0:0:0:0:
448,192,102306,1,0,0:0:0:0:
320,192,102426,1,0,0:0:0:0:
64,192,102426,1,0,0:0:0:0:
448,192,102586,1,0,0:0:0:0:
320,192,102666,1,0,0:0:0:0:
64,192,102906,1,0,0:0:0:0:
192,192,102906,1,0,0:0:0:0:
320,192,103066,1,0,0:0:0:0:
192,192,103146,1,0,0:0:0:0:
64,192,103146,1,0,0:0:0:0:
320,192,103386,1,0,0:0:0:0:
448,192,103386,1,0,0:0:0:0:
320,192,103626,1,0,0:0:0:0:
192,192,103626,1,0,0:0:0:0:
64,192,103866,128,0,104106:0:0:0:0:
448,192,103866,128,0,103986:0:0:0:0:
192,192,103866,1,0,0:0:0:0:
320,192,104106,128,0,104226:0:0:0:0:
64,192,104226,128,0,104706:0:0:0:0:
320,192,104346,1,0,0:0:0:0:
320,192,104706,1,0,0:0:0:0:
64,192,104826,128,0,105066:0:0:0:0:
320,192,104826,128,0,104946:0:0:0:0:
448,192,104826,1,0,0:0:0:0:
192,192,105066,1,0,0:0:0:0:
64,192,105186,1,0,0:0:0:0:
320,192,105186,128,0,105306:0:0:0:0:
192,192,105306,1,0,0:0:0:0:
64,192,105546,128,0,106026:0:0:0:0:
448,192,105546,1,0,0:0:0:0:
448,192,105666,128,0,105786:0:0:0:0:
192,192,105786,1,0,0:0:0:0:
320,192,106026,1,0,0:0:0:0:
64,192,106146,128,0,106626:0:0:0:0:
448,192,106266,1,0,0:0:0:0:
192,192,106266,1,0,0:0:0:0:
448,192,106506,1,0,0:0:0:0:
320,192,106626,1,0,0:0:0:0:
64,192,106746,128,0,107346:0:0:0:0:
320,192,106746,128,0,106866:0:0:0:0:
320,192,106986,1,0,0:0:0:0:
192,192,107106,1,0,0:0:0:0:
192,192,107226,128,0,107346:0:0:0:0:
448,192,107226,1,0,0:0:0:0:
64,192,107466,1,0,0:0:0:0:
192,192,107466,1,0,0:0:0:0:
64,192,107706,128,0,107946:0:0:0:0:
320,192,107706,128,0,107826:0:0:0:0:
192,192,107706,1,0,0:0:0:0:
448,192,107946,128,0,108066:0:0:0:0:
320,192,107946,1,0,0:0:0:0:
64,192,108066,128,0,108546:0:0:0:0:
320,192,108186,128,0,108306:0:0:0:0:
448,192,108186,1,0,0:0:0:0:
192,192,108426,128,0,108546:0:0:0:0:
320,192,108426,1,0,0:0:0:0:
64,192,108666,128,0,109026:0:0:0:0:
448,192,108666,128,0,108786:0:0:0:0:
192,192,108666,1,0,0:0:0:0:
320,192,108906,128,0,109026:0:0:0:0:
448,192,108906,1,0,0:0:0:0:
64,192,109146,128,0,109506:0:0:0:0:
192,192,109146,128,0,109266:0:0:0:0:
320,192,109146,1,0,0:0:0:0:
320,192,109386,128,0,109506:0:0:0:0:
192,192,109386,1,0,0:0:0:0:
64,192,109626,128,0,109866:0:0:0:0:
448,192,109626,128,0,109746:0:0:0:0:
320,192,109626,1,0,0:0:0:0:
320,192,109866,128,0,109986:0:0:0:0:
448,192,109866,1,0,0:0:0:0:
64,192,109986,1,0,0:0:0:0:
64,192,110106,128,0,110466:0:0:0:0:
192,192,110106,128,0,110226:0:0:0:0:
320,192,110106,1,0,0:0:0:0:
320,192,110346,128,0,110466:0:0:0:0:
192,192,110346,1,0,0:0:0:0:
64,192,110586,128,0,110826:0:0:0:0:
320,192,110586,128,0,110706:0:0:0:0:
448,192,110586,1,0,0:0:0:0:
192,192,110826,128,0,110946:0:0:0:0:
320,192,110826,1,0,0:0:0:0:
64,192,110946,1,0,0:0:0:0:
64,192,111066,128,0,111186:0:0:0:0:
320,192,111066,128,0,111186:0:0:0:0:
192,192,111066,1,0,0:0:0:0:
64,192,111306,128,0,111426:0:0:0:0:
192,192,111306,128,0,111426:0:0:0:0:
320,192,111306,1,0,0:0:0:0:
64,192,111546,128,0,111786:0:0:0:0:
448,192,111546,128,0,111666:0:0:0:0:
320,192,111546,1,0,0:0:0:0:
320,192,111786,128,0,111906:0:0:0:0:
192,192,111786,1,0,0:0:0:0:
64,192,111906,1,0,0:0:0:0:
64,192,112026,128,0,112386:0:0:0:0:
192,192,112026,128,0,112146:0:0:0:0:
448,192,112026,1,0,0:0:0:0:
320,192,112266,128,0,112386:0:0:0:0:
448,192,112266,1,0,0:0:0:0:
64,192,112506,128,0,112746:0:0:0:0:
448,192,112506,128,0,112626:0:0:0:0:
192,192,112506,1,0,0:0:0:0:
192,192,112746,128,0,112866:0:0:0:0:
320,192,112746,1,0,0:0:0:0:
64,192,112866,128,0,113106:0:0:0:0:
320,192,112986,128,0,113106:0:0:0:0:
448,192,112986,1,0,0:0:0:0:
64,192,113226,128,0,113706:0:0:0:0:
192,192,113226,128,0,113346:0:0:0:0:
320,192,113226,1,0,0:0:0:0:
448,192,113466,128,0,113586:0:0:0:0:
320,192,113466,1,0,0:0:0:0:
192,192,113706,1,0,0:0:0:0:
64,192,113826,1,0,0:0:0:0:
320,192,113826,128,0,113946:0:0:0:0:
64,192,113946,128,0,114306:0:0:0:0:
192,192,113946,1,0,0:0:0:0:
192,192,114186,128,0,114306:0:0:0:0:
448,192,114186,1,0,0:0:0:0:
64,192,114426,128,0,114666:0:0:0:0:
448,192,114426,128,0,114546:0:0:0:0:
192,192,114426,1,0,0:0:0:0:
448,192,114666,1,0,0:0:0:0:
320,192,114786,1,0,0:0:0:0:
64,192,114786,128,0,115026:0:0:0:0:
320,192,114906,128,0,115026:0:0:0:0:
448,192,114906,1,0,0:0:0:0:
64,192,115146,128,0,115266:0:0:0:0:
192,192,115146,128,0,115266:0:0:0:0:
320,192,115146,1,0,0:0:0:0:
448,192,115386,128,0,115626:0:0:0:0:
64,192,115386,128,0,115506:0:0:0:0:
192,192,115386,1,0,0:0:0:0:
192,192,115626,128,0,115746:0:0:0:0:
320,192,115626,1,0,0:0:0:0:
64,192,115746,128,0,116226:0:0:0:0:
320,192,115866,128,0,115986:0:0:0:0:
448,192,115866,1,0,0:0:0:0:
448,192,116106,128,0,116226:0:0:0:0:
192,192,116106,1,0,0:0:0:0:
64,192,116346,128,0,116586:0:0:0:0:
448,192,116346,128,0,116466:0:0:0:0:
192,192,116346,1,0,0:0:0:0:
320,192,116586,128,0,116706:0:0:0:0:
192,192,116586,1,0,0:0:0:0:
448,192,116706,128,0,116946:0:0:0:0:
192,192,116826,128,0,116946:0:0:0:0:
64,192,116826,1,0,0:0:0:0:
448,192,117066,1,0,0:0:0:0:
64,192,117066,128,0,117186:0:0:0:0:
64,192,117306,128,0,117546:0:0:0:0:
320,192,117306,128,0,117426:0:0:0:0:
448,192,117306,1,0,0:0:0:0:
192,192,117546,128,0,117666:0:0:0:0:
320,192,117546,1,0,0:0:0:0:
64,192,117666,128,0,117786:0:0:0:0:
448,192,117786,128,0,117906:0:0:0:0:
192,192,117786,1,0,0:0:0:0:
320,192,118026,128,0,118146:0:0:0:0:
64,192,118026,1,0,0:0:0:0:
64,192,118266,128,0,118506:0:0:0:0:
448,192,118266,1,0,0:0:0:0:
192,192,118386,128,0,118506:0:0:0:0:
320,192,118506,128,0,118626:0:0:0:0:
192,192,118626,128,0,118866:0:0:0:0:
320,192,118746,128,0,118866:0:0:0:0:
448,192,118866,128,0,118986:0:0:0:0:
320,192,118986,128,0,119226:0:0:0:0:
448,192,119106,128,0,119226:0:0:0:0:
192,192,119226,128,0,119466:0:0:0:0:
64,192,119226,128,0,119706:0:0:0:0:
192,192,119586,128,0,120066:0:0:0:0:
320,192,119586,128,0,119826:0:0:0:0:
448,192,119946,128,0,120306:0:0:0:0:
320,192,119946,128,0,120066:0:0:0:0:
320,192,120186,128,0,120666:0:0:0:0:
192,192,120186,128,0,120426:0:0:0:0:
192,192,120546,128,0,120786:0:0:0:0:
64,192,120546,128,0,120786:0:0:0:0:
192,192,120906,128,0,121026:0:0:0:0:
64,192,120906,128,0,121266:0:0:0:0:
192,192,121146,128,0,121506:0:0:0:0:
320,192,121146,128,0,121266:0:0:0:0:
320,192,121386,128,0,121746:0:0:0:0:
448,192,121386,128,0,121746:0:0:0:0:
192,192,121626,128,0,121986:0:0:0:0:
64,192,121626,128,0,121986:0:0:0:0:
320,192,121866,128,0,122106:0:0:0:0:
448,192,121866,128,0,121986:0:0:0:0:
192,192,122106,1,0,0:0:0:0:
64,192,122106,1,0,0:0:0:0:
448,192,122106,128,0,122226:0:0:0:0:
192,192,122226,1,0,0:0:0:0:
64,192,122226,1,0,0:0:0:0:
192,192,122346,1,0,0:0:0:0:
64,192,122346,1,0,0:0:0:0:
448,192,122346,128,0,122466:0:0:0:0:
192,192,122466,1,0,0:0:0:0:
64,192,122466,1,0,0:0:0:0:
192,192,122586,1,0,0:0:0:0:
64,192,122586,1,0,0:0:0:0:
448,192,122586,128,0,122706:0:0:0:0:
192,192,122706,1,0,0:0:0:0:
64,192,122706,1,0,0:0:0:0:
192,192,122826,1,0,0:0:0:0:
64,192,122826,1,0,0:0:0:0:
448,192,122826,128,0,122946:0:0:0:0:
192,192,122946,1,0,0:0:0:0:
64,192,122946,1,0,0:0:0:0:
64,192,123066,128,0,126906:0:0:0:0:
192,192,123066,128,0,126906:0:0:0:0:
448,192,123066,1,0,0:0:0:0:
448,192,125466,128,0,126906:0:0:0:0:
