osu file format v14

[General]
AudioFilename: audio.mp3
AudioLeadIn: 0
PreviewTime: -1
Countdown: 1
SampleSet: Soft
StackLeniency: 0.2
Mode: 2
LetterboxInBreaks: 0
StoryFireInFront: 0
WidescreenStoryboard: 0

[Editor]
DistanceSpacing: 0.5
BeatDivisor: 6
GridSize: 16
TimelineZoom: 1

[Metadata]
Title:Carol Of The Bells
TitleUnicode:Carol Of The Bells
Artist:Zero.Miz-Kun Nightcore Records
ArtistUnicode:Zero.Miz-Kun メ Nightcore Records
Creator:Yuuki Tsubaki
Version:Hard
Source:
Tags:christmas, nightstep
BeatmapID:1718268
BeatmapSetID:819533

[Difficulty]
HPDrainRate:4
CircleSize:3
OverallDifficulty:3
ApproachRate:8
SliderMultiplier:1.4
SliderTickRate:1

[Events]
//Background and Video events
0,0,"41843145_289203615018517_7146283035980201984_n.jpg",0,0
//Break Periods
//Storyboard Layer 0 (Background)
//Storyboard Layer 1 (Fail)
//Storyboard Layer 2 (Pass)
//Storyboard Layer 3 (Foreground)
//Storyboard Sound Samples

[TimingPoints]
621.337352847979,845.070422535211,4,2,0,100,1,0

[Colours]
Combo1 : 248,118,121
Combo2 : 0,128,255

[HitObjects]
58,234,621,6,0,L|122:226,1,46.6666666666667
273,62,1042,1,0,0:0:0:0:
476,197,1184,2,0,L|414:209,1,46.6666666666667
273,122,1748,1,0,0:0:0:0:
123,198,1888,1,0,0:0:0:0:
436,201,2038,1,0,0:0:0:0:
251,265,2311,2,0,L|252:212,1,46.6666666666667
251,265,2735,1,0,0:0:0:0:
114,122,2876,1,0,0:0:0:0:
405,126,3156,1,0,0:0:0:0:
486,297,3438,1,0,0:0:0:0:
250,304,3579,1,0,0:0:0:0:
190,119,3719,1,0,0:0:0:0:
82,213,4001,1,0,0:0:0:0:
329,202,4283,1,0,0:0:0:0:
473,99,4424,1,0,0:0:0:0:
432,324,4564,1,0,0:0:0:0:
134,68,4838,5,0,0:0:0:0:
27,189,5120,1,0,0:0:0:0:
129,297,5261,1,0,0:0:0:0:
231,183,5403,1,0,0:0:0:0:
134,68,5686,1,0,0:0:0:0:
308,47,5969,1,0,0:0:0:0:
511,118,6110,1,0,0:0:0:0:
304,201,6251,1,0,0:0:0:0:
490,289,6534,1,0,0:0:0:0:
323,232,6817,1,0,0:0:0:0:
143,319,6959,1,0,0:0:0:0:
69,225,7099,1,0,0:0:0:0:
147,175,7381,6,0,P|275:104|365:184,3,280
16,104,14133,6,0,L|16:130,1,23.3333333333333
366,172,14415,1,0,0:0:0:0:
455,105,14557,2,0,L|455:77,1,23.3333333333333
204,88,14980,1,0,0:0:0:0:
138,146,15122,1,0,0:0:0:0:
463,231,15263,1,0,0:0:0:0:
401,264,15404,1,0,0:0:0:0:
81,193,15546,1,0,0:0:0:0:
246,51,15828,5,0,0:0:0:0:
417,59,15973,1,0,0:0:0:0:
493,252,16111,1,0,0:0:0:0:
327,165,16252,1,0,0:0:0:0:
150,267,16393,1,0,0:0:0:0:
164,44,16677,1,0,0:0:0:0:
13,144,16818,1,0,0:0:0:0:
418,297,16959,1,0,0:0:0:0:
334,208,17100,1,0,0:0:0:0:
469,158,17240,1,0,0:0:0:0:
233,43,17516,2,0,L|262:44,1,23.3333333333333
146,112,17798,2,0,L|114:111,1,23.3333333333333
391,173,18081,1,0,0:0:0:0:
0,96,18364,5,0,0:0:0:0:
160,53,18508,1,0,0:0:0:0:
67,281,18646,1,0,0:0:0:0:
219,230,18787,1,0,0:0:0:0:
429,56,18929,1,0,0:0:0:0:
512,205,19211,2,0,P|481:207|471:208,1,23.3333333333333
369,313,19494,2,0,L|402:313,1,23.3333333333333
270,34,19776,1,0,0:0:0:0:
70,127,20056,1,0,0:0:0:0:
38,260,20197,1,0,0:0:0:0:
446,184,20339,1,0,0:0:0:0:
356,219,20480,1,0,0:0:0:0:
421,75,20621,1,0,0:0:0:0:
353,146,20903,5,0,0:0:0:0:
306,73,21043,1,0,0:0:0:0:
0,48,21184,1,0,0:0:0:0:
12,145,21325,1,0,0:0:0:0:
84,201,21451,1,0,0:0:0:0:
384,317,21592,2,0,L|417:318,1,23.3333333333333
512,260,21873,1,0,0:0:0:0:
512,130,22014,2,0,L|513:174,1,23.3333333333333
202,149,22296,2,0,L|163:149,1,23.3333333333333
377,71,22578,2,0,L|343:71,1,23.3333333333333
361,217,22859,2,0,L|334:217,1,23.3333333333333
0,171,23141,2,0,L|1:143,1,23.3333333333333
115,64,23423,2,0,L|151:63,1,23.3333333333333
255,62,23719,1,0,0:0:0:0:
512,182,23860,1,0,0:0:0:0:
443,282,24001,1,0,0:0:0:0:
256,276,24157,5,0,0:0:0:0:
257,230,24298,2,0,L|256:114,1,116.666666666667
55,55,25128,1,0,0:0:0:0:
95,223,25269,1,0,0:0:0:0:
225,105,25410,1,0,0:0:0:0:
282,284,25550,1,0,0:0:0:0:
512,210,25691,1,0,0:0:0:0:
412,60,25832,1,0,0:0:0:0:
297,177,25956,1,0,0:0:0:0:
122,300,26098,1,0,0:0:0:0:
136,202,26239,1,0,0:0:0:0:
0,63,26380,2,0,L|0:108,1,23.3333333333333
0,184,26663,2,0,L|0:223,1,23.3333333333333
263,313,26946,1,0,0:0:0:0:
432,224,27087,1,0,0:0:0:0:
368,177,27228,1,0,0:0:0:0:
415,8,27369,1,0,0:0:0:0:
264,99,27652,5,0,0:0:0:0:
142,181,27935,1,0,0:0:0:0:
314,235,28217,1,0,0:0:0:0:
195,268,28500,1,0,0:0:0:0:
313,318,28782,1,0,0:0:0:0:
253,171,29065,1,0,0:0:0:0:
103,154,29348,1,0,0:0:0:0:
414,118,29630,1,0,0:0:0:0:
250,212,29913,1,0,0:0:0:0:
94,114,30195,1,0,0:0:0:0:
328,47,30478,1,0,0:0:0:0:
365,256,30760,1,0,0:0:0:0:
256,192,31043,12,0,31750,0:0:0:0:
190,168,31888,6,0,L|190:118,1,46.6666666666667
328,119,32311,2,0,L|328:173,1,46.6666666666667
256,192,32734,12,0,33440,0:0:0:0:
44,126,33571,5,2,0:0:0:0:
164,192,33854,1,0,0:0:0:0:
282,133,34137,1,0,0:0:0:0:
444,184,34419,1,0,0:0:0:0:
279,255,34560,1,0,0:0:0:0:
130,188,34702,1,0,0:0:0:0:
273,37,34843,1,0,0:0:0:0:
272,182,34984,1,0,0:0:0:0:
271,108,35126,1,0,0:0:0:0:
271,108,35267,5,0,0:0:0:0:
367,73,35408,1,0,0:0:0:0:
454,135,35550,1,0,0:0:0:0:
450,256,35691,1,0,0:0:0:0:
343,312,35832,1,0,0:0:0:0:
248,292,35973,1,0,0:0:0:0:
168,238,36115,1,0,0:0:0:0:
134,153,36256,1,0,0:0:0:0:
183,69,36397,1,0,0:0:0:0:
300,54,36539,1,0,0:0:0:0:
407,94,36680,1,0,0:0:0:0:
481,186,36821,1,0,0:0:0:0:
256,192,36962,12,0,37669,0:0:0:0:
255,235,37810,6,0,L|255:109,1,116.666666666667
161,271,38658,1,0,0:0:0:0:
79,172,38799,1,0,0:0:0:0:
135,60,38941,1,0,0:0:0:0:
255,30,39082,1,0,0:0:0:0:
364,70,39223,1,0,0:0:0:0:
415,165,39364,1,0,0:0:0:0:
339,273,39505,1,0,0:0:0:0:
339,273,39646,5,0,0:0:0:0:
428,215,39788,1,0,0:0:0:0:
272,190,39930,1,0,0:0:0:0:
359,127,40071,1,0,0:0:0:0:
272,61,40212,1,0,0:0:0:0:
170,114,40354,2,0,L|196:116,2,23.3333333333333
87,58,40777,1,0,0:0:0:0:
7,127,40919,1,0,0:0:0:0:
87,194,41043,1,0,0:0:0:0:
184,249,41184,2,0,L|313:250,1,116.666666666667
300,291,42022,5,0,0:0:0:0:
390,228,42163,1,0,0:0:0:0:
440,113,42304,1,0,0:0:0:0:
322,38,42446,1,0,0:0:0:0:
214,104,42587,1,0,0:0:0:0:
147,216,42728,1,0,0:0:0:0:
216,136,42870,2,0,L|251:136,1,23.3333333333333
294,221,43152,2,0,L|328:224,1,23.3333333333333
399,146,43435,1,0,0:0:0:0:
332,254,43576,1,0,0:0:0:0:
166,245,43717,6,0,L|138:222,1,23.3333333333333
156,137,44000,1,0,0:0:0:0:
279,61,44141,1,0,0:0:0:0:
414,138,44283,1,0,0:0:0:0:
372,247,44424,1,0,0:0:0:0:
276,289,44564,2,0,L|277:149,1,140
53,229,45550,1,0,0:0:0:0:
131,83,45691,1,0,0:0:0:0:
239,172,45832,1,0,0:0:0:0:
319,72,45973,1,0,0:0:0:0:
394,165,46114,1,0,0:0:0:0:
487,258,46255,1,0,0:0:0:0:
509,61,46429,6,0,L|497:86,1,23.3333333333333
501,185,46677,1,0,0:0:0:0:
374,199,46818,1,0,0:0:0:0:
312,324,46959,1,0,0:0:0:0:
206,266,47100,1,0,0:0:0:0:
61,274,47241,1,0,0:0:0:0:
31,123,47381,1,0,0:0:0:0:
161,144,47522,1,0,0:0:0:0:
219,22,47663,1,0,0:0:0:0:
351,71,47804,1,0,0:0:0:0:
335,145,47945,6,0,L|452:242,1,140
464,316,48931,1,0,0:0:0:0:
343,317,49072,2,0,L|383:318,1,23.3333333333333
212,255,49353,2,0,L|239:255,1,23.3333333333333
352,189,49635,2,0,L|387:189,1,23.3333333333333
205,127,49917,2,0,L|237:125,1,23.3333333333333
80,182,50198,1,0,0:0:0:0:
171,272,50339,1,0,0:0:0:0:
486,300,50527,6,0,L|486:265,1,23.3333333333333
372,244,50809,2,0,L|372:277,1,23.3333333333333
370,250,51092,1,0,0:0:0:0:
254,203,51233,2,0,L|255:175,1,23.3333333333333
138,178,51516,1,0,0:0:0:0:
103,81,51657,2,0,L|137:53,1,23.3333333333333
223,62,51939,5,0,0:0:0:0:
293,123,52081,2,0,L|326:154,1,23.3333333333333
228,202,52363,1,0,0:0:0:0:
306,260,52505,2,0,L|292:290,1,23.3333333333333
227,320,52787,2,0,L|197:320,1,23.3333333333333
154,248,53070,2,0,L|140:218,1,23.3333333333333
226,169,53352,2,0,L|227:128,1,23.3333333333333
166,80,53635,6,0,L|194:71,1,23.3333333333333
277,26,53918,2,0,L|314:34,1,23.3333333333333
387,98,54200,2,0,L|403:127,1,23.3333333333333
304,176,54483,2,0,L|305:212,1,23.3333333333333
391,244,54765,2,0,L|390:286,1,23.3333333333333
301,312,55048,2,0,L|300:345,1,23.3333333333333
264,64,55331,6,0,L|266:102,1,23.3333333333333
323,140,55613,2,0,L|320:182,1,23.3333333333333
390,62,55896,2,0,L|390:101,1,23.3333333333333
455,137,56178,2,0,L|455:166,1,23.3333333333333
404,78,56461,5,0,0:0:0:0:
335,126,56602,1,0,0:0:0:0:
303,208,56743,1,0,0:0:0:0:
234,108,56885,1,0,0:0:0:0:
211,236,57026,1,0,0:0:0:0:
158,155,57167,1,0,0:0:0:0:
234,77,57309,1,0,0:0:0:0:
304,143,57450,1,0,0:0:0:0:
386,72,57591,2,0,L|409:58,1,23.3333333333333
189,101,57874,6,0,L|219:96,1,23.3333333333333
339,101,58156,2,0,L|304:90,1,23.3333333333333
183,161,58439,2,0,L|213:153,1,23.3333333333333
333,168,58722,2,0,L|292:150,1,23.3333333333333
178,222,59004,2,0,L|219:208,1,23.3333333333333
345,233,59287,2,0,L|307:222,1,23.3333333333333
175,280,59569,2,0,L|205:270,1,23.3333333333333
342,288,59852,2,0,L|321:280,1,23.3333333333333
190,120,60135,6,0,L|191:163,1,23.3333333333333
264,146,60417,2,0,L|265:112,1,23.3333333333333
341,116,60700,2,0,L|341:144,1,23.3333333333333
183,224,60982,2,0,L|211:224,1,23.3333333333333
359,221,61265,2,0,L|328:222,1,23.3333333333333
269,222,61548,1,0,0:0:0:0:
110,109,61689,5,0,0:0:0:0:
181,55,61830,1,0,0:0:0:0:
255,107,61971,1,0,0:0:0:0:
309,47,62113,1,0,0:0:0:0:
377,112,62254,1,0,0:0:0:0:
444,55,62395,1,0,0:0:0:0:
512,96,62537,1,0,0:0:0:0:
277,254,62678,5,0,0:0:0:0:
209,200,62819,1,0,0:0:0:0:
276,156,62960,1,0,0:0:0:0:
213,107,63102,1,0,0:0:0:0:
276,45,63243,1,0,0:0:0:0:
343,97,63384,1,0,0:0:0:0:
427,167,63526,2,0,L|427:204,1,23.3333333333333
360,277,63808,2,0,L|360:244,1,23.3333333333333
280,328,64091,1,0,0:0:0:0:
202,268,64232,1,0,0:0:0:0:
278,211,64424,1,0,0:0:0:0:
196,141,64565,1,0,0:0:0:0:
122,94,64705,1,0,0:0:0:0:
272,159,64846,6,0,L|272:64,1,93.3333333333333
446,72,65691,2,0,L|416:89,1,23.3333333333333
512,134,65973,2,0,L|470:150,1,23.3333333333333
441,211,66210,2,0,L|401:224,1,23.3333333333333
105,70,66493,2,0,L|135:78,1,23.3333333333333
156,145,66775,2,0,L|187:152,1,23.3333333333333
71,213,67058,2,0,L|101:218,1,23.3333333333333
157,163,67341,1,0,0:0:0:0:
216,84,67482,1,0,0:0:0:0:
388,54,67623,5,0,0:0:0:0:
330,114,67764,2,0,L|362:143,1,23.3333333333333
432,172,68047,1,0,0:0:0:0:
425,256,68226,2,0,P|405:301|340:307,1,116.666666666667
298,256,69072,1,0,0:0:0:0:
282,196,69177,5,0,0:0:0:0:
260,77,69318,1,0,0:0:0:0:
159,51,69459,1,0,0:0:0:0:
55,87,69600,1,0,0:0:0:0:
16,172,69743,1,0,0:0:0:0:
109,227,69884,1,0,0:0:0:0:
194,173,70025,1,0,0:0:0:0:
280,93,70167,1,0,0:0:0:0:
379,104,70308,2,0,L|418:106,1,23.3333333333333
488,159,70590,1,0,0:0:0:0:
404,239,70732,1,0,0:0:0:0:
156,75,70903,5,0,0:0:0:0:
240,112,71044,1,0,0:0:0:0:
350,113,71184,1,0,0:0:0:0:
431,67,71325,1,0,0:0:0:0:
480,153,71466,1,0,0:0:0:0:
408,257,71607,2,0,B|291:278|311:259|319:274,1,93.3333333333333
229,243,72311,1,0,0:0:0:0:
312,166,72452,1,0,0:0:0:0:
244,119,72593,1,0,0:0:0:0:
157,56,72734,1,0,0:0:0:0:
68,128,72875,1,0,0:0:0:0:
117,237,72992,2,0,L|87:207,1,23.3333333333333
229,207,73275,2,0,L|203:185,1,23.3333333333333
331,134,73558,2,0,L|292:156,1,23.3333333333333
410,85,73840,1,0,0:0:0:0:
485,171,73981,1,0,0:0:0:0:
99,112,74123,5,0,0:0:0:0:
175,44,74264,1,0,0:0:0:0:
257,116,74405,1,0,0:0:0:0:
330,50,74547,1,0,0:0:0:0:
463,77,74688,1,0,0:0:0:0:
380,150,74829,1,0,0:0:0:0:
366,255,74987,2,0,P|315:298|272:296,1,93.3333333333333
366,255,75691,1,0,0:0:0:0:
473,60,75818,5,0,0:0:0:0:
412,89,75960,1,0,0:0:0:0:
418,164,76101,1,0,0:0:0:0:
480,148,76242,1,0,0:0:0:0:
488,222,76383,1,0,0:0:0:0:
422,242,76525,1,0,0:0:0:0:
425,311,76666,1,0,0:0:0:0:
495,297,76807,1,0,0:0:0:0:
337,272,76949,1,0,0:0:0:0:
290,184,77090,1,0,0:0:0:0:
366,120,77231,1,0,0:0:0:0:
288,65,77373,1,0,0:0:0:0:
219,117,77514,1,0,0:0:0:0:
140,186,77655,1,0,0:0:0:0:
250,49,77796,5,0,0:0:0:0:
353,109,77938,1,0,0:0:0:0:
238,178,78079,1,0,0:0:0:0:
343,238,78220,1,0,0:0:0:0:
471,252,78362,2,0,L|463:215,1,23.3333333333333
451,143,78644,1,0,0:0:0:0:
345,73,78786,2,0,L|312:73,1,23.3333333333333
198,31,79068,1,0,0:0:0:0:
164,159,79209,2,0,L|137:173,1,23.3333333333333
31,210,79492,2,0,L|11:248,1,23.3333333333333
39,226,79775,1,0,0:0:0:0:
95,268,79917,6,0,L|117:282,1,23.3333333333333
114,153,80198,2,0,L|144:181,1,23.3333333333333
225,150,80480,2,0,L|250:170,1,23.3333333333333
294,59,80762,1,0,0:0:0:0:
368,146,80903,2,0,L|338:171,1,23.3333333333333
475,175,81184,2,0,L|438:194,1,23.3333333333333
481,293,81466,2,0,L|446:309,1,23.3333333333333
392,281,81748,6,0,L|365:253,1,23.3333333333333
257,254,82029,2,0,L|237:233,1,23.3333333333333
321,138,82311,2,0,L|297:114,1,23.3333333333333
168,127,82593,2,0,L|150:109,1,23.3333333333333
91,257,82875,2,0,L|122:232,1,23.3333333333333
227,220,83156,2,0,L|254:202,1,23.3333333333333
251,96,83438,2,0,L|272:79,1,23.3333333333333
385,99,83720,2,0,L|418:73,1,23.3333333333333
164,64,84001,6,0,L|164:104,1,23.3333333333333
281,166,84283,2,0,L|282:141,1,23.3333333333333
403,61,84565,2,0,L|402:98,1,23.3333333333333
396,259,84846,2,0,L|395:222,1,23.3333333333333
284,307,85128,2,0,L|285:351,1,23.3333333333333
179,260,85410,2,0,L|179:224,1,23.3333333333333
17,158,85691,6,0,L|44:144,1,23.3333333333333
198,56,85973,2,0,L|223:42,1,23.3333333333333
151,248,86255,2,0,L|179:236,1,23.3333333333333
311,136,86536,2,0,L|340:119,1,23.3333333333333
267,329,86818,2,0,L|295:312,1,23.3333333333333
421,215,87100,2,0,L|445:200,1,23.3333333333333
430,125,87382,6,0,L|409:95,1,23.3333333333333
286,114,87663,2,0,L|258:83,1,23.3333333333333
270,238,87945,2,0,L|244:205,1,23.3333333333333
170,300,88227,2,0,L|154:275,1,23.3333333333333
50,216,88508,1,0,0:0:0:0:
51,95,88649,5,0,0:0:0:0:
137,162,88790,1,0,0:0:0:0:
218,80,88931,1,0,0:0:0:0:
282,156,89072,1,0,0:0:0:0:
351,62,89213,1,0,0:0:0:0:
429,156,89353,1,0,0:0:0:0:
512,59,89494,1,0,0:0:0:0:
512,248,89635,1,0,0:0:0:0:
418,335,89776,1,0,0:0:0:0:
321,286,89917,1,0,0:0:0:0:
239,219,90058,5,0,0:0:0:0:
308,138,90198,1,0,0:0:0:0:
227,82,90339,1,0,0:0:0:0:
135,123,90480,1,0,0:0:0:0:
45,79,90621,1,0,0:0:0:0:
0,170,90762,1,0,0:0:0:0:
50,262,90903,1,0,0:0:0:0:
149,251,91044,1,0,0:0:0:0:
261,307,91184,1,0,0:0:0:0:
352,237,91325,1,0,0:0:0:0:
267,164,91466,1,0,0:0:0:0:
288,198,91607,5,0,0:0:0:0:
288,198,91748,1,0,0:0:0:0:
156,204,91889,2,0,L|157:175,1,23.3333333333333
263,108,92170,2,0,L|294:106,1,23.3333333333333
395,176,92452,2,0,L|396:213,1,23.3333333333333
280,267,92734,2,0,L|244:265,1,23.3333333333333
270,174,93015,1,0,0:0:0:0:
270,174,93156,1,0,0:0:0:0:
270,174,93297,1,0,0:0:0:0:
158,171,93438,6,0,L|159:213,1,23.3333333333333
282,98,93719,2,0,L|244:97,1,23.3333333333333
377,200,94001,2,0,L|377:160,1,23.3333333333333
258,269,94283,2,0,L|303:269,1,23.3333333333333
273,165,94564,1,0,0:0:0:0:
273,165,94705,1,0,0:0:0:0:
270,166,94846,1,0,0:0:0:0:
163,205,94987,6,0,L|161:168,1,23.3333333333333
251,90,95269,2,0,L|279:90,1,23.3333333333333
384,174,95550,2,0,L|385:212,1,23.3333333333333
286,270,95832,2,0,L|252:273,1,23.3333333333333
272,167,96114,1,0,0:0:0:0:
272,167,96254,1,0,0:0:0:0:
272,167,96395,1,0,0:0:0:0:
155,208,96536,6,0,L|154:178,1,23.3333333333333
251,87,96818,2,0,L|277:87,1,23.3333333333333
369,169,97099,2,0,L|371:204,1,23.3333333333333
287,280,97381,2,0,L|258:280,1,23.3333333333333
265,166,97663,1,0,0:0:0:0:
265,166,97804,1,0,0:0:0:0:
265,166,97944,1,0,0:0:0:0:
158,89,98086,1,0,0:0:0:0:
372,92,98226,1,0,0:0:0:0:
35,192,98649,2,0,B|80:368|442:362|515:192,1,560
512,192,102029,6,0,B|466:100|288:16|128:62|73:132|-8:241|32:192,1,560
16,192,105410,6,0,P|110:273|501:180,1,560
499,176,108790,6,0,P|317:56|19:180,1,560
