osu file format v14

[General]
AudioFilename: audio.mp3
AudioLeadIn: 0
PreviewTime: 58508
Countdown: 0
SampleSet: Soft
StackLeniency: 0.4
Mode: 0
LetterboxInBreaks: 0
WidescreenStoryboard: 0

[Editor]
DistanceSpacing: 1.1
BeatDivisor: 4
GridSize: 32
TimelineZoom: 2.2

[Metadata]
Title:Beautiful World (TV Size)
TitleUnicode:Beautiful World (TV Size)
Artist:Zero Two (CV: Tomatsu Haruka)
ArtistUnicode:ゼロツー (CV: 戸松遥)
Creator:Creamy Candy
Version:Colorful
Source:ダーリン・イン・ザ・フランキス
Tags:Darling in the Franxx ED XX:me Ichigo Miku Kokoro Ikuno Kana Ichinose Nanami Yamashita Saori Hayami Katsuhiko Sugiyama Japanese Anime J-Pop ending Roger ][ -GH- ][
BeatmapID:2160450
BeatmapSetID:1033323

[Difficulty]
HPDrainRate:6
CircleSize:4
OverallDifficulty:8
ApproachRate:8
SliderMultiplier:1.4
SliderTickRate:1

[Events]
//Background and Video events
0,0,"zerotwo.jpg",0,0
Video,367,"zero.mp4"
//Break Periods
//Storyboard Layer 0 (Background)
//Storyboard Layer 1 (Fail)
//Storyboard Layer 2 (Pass)
//Storyboard Layer 3 (Foreground)
//Storyboard Layer 4 (Overlay)
//Storyboard Sound Samples

[TimingPoints]
611,454.545454545455,4,2,1,50,1,0
7770,-100,4,2,1,40,0,0
7883,-100,4,2,1,50,0,0
11406,-100,4,2,1,40,0,0
11520,-100,4,2,1,50,0,0
44247,-76.9230769230769,4,2,1,50,0,0
47883,-100,4,2,1,50,0,0
49701,-76.9230769230769,4,2,1,50,0,0
51292,-76.9230769230769,4,2,1,30,0,0
51520,-76.9230769230769,4,2,1,50,0,0
51861,-76.9230769230769,4,2,1,5,0,0
51974,-76.9230769230769,4,2,1,50,0,0
53111,-100,4,2,1,50,0,0
54701,-100,4,2,1,30,0,0
54929,-100,4,2,1,40,0,0
55156,-76.9230769230769,4,2,1,50,0,0
55838,-100,4,2,1,50,0,0
57883,-100,4,2,1,35,0,0
57997,-100,4,2,1,45,0,0
58111,-100,4,2,1,55,0,0
58224,-100,4,2,1,45,0,0
58338,-100,4,2,1,35,0,0
58451,-100,4,2,1,45,0,0
58565,-100,4,2,1,55,0,0
58792,-76.9230769230769,4,2,1,60,0,1
59247,-76.9230769230769,4,2,1,60,0,1
65951,-76.9230769230769,4,2,1,45,0,1
66065,-76.9230769230769,4,2,1,60,0,0
71406,-76.9230769230769,4,2,1,45,0,0
71520,-62.5,4,2,1,60,0,0
73338,-76.9230769230769,4,2,1,60,0,1
73792,-76.9230769230769,4,2,1,60,0,1
80611,-76.9230769230769,4,2,1,60,0,0
83111,-76.9230769230769,4,2,1,45,0,0
83338,-76.9230769230769,4,2,1,60,0,0
83451,-76.9230769230769,4,2,1,45,0,0
83565,-76.9230769230769,4,2,1,60,0,0
86065,-76.9230769230769,4,2,1,50,0,0
87883,-76.9230769230769,4,2,1,40,0,0
89701,-76.9230769230769,4,2,1,30,0,0
90611,-76.9230769230769,4,2,1,15,0,0
91520,-76.9230769230769,4,2,1,5,0,0

[Colours]
Combo1 : 249,58,49
Combo2 : 255,145,183
Combo3 : 180,171,222
Combo4 : 220,155,244
Combo5 : 253,91,136
Combo6 : 245,69,96

[HitObjects]
329,117,383,6,0,L|324:152,1,35
215,254,610,6,0,L|284:243,2,70,6|2|2,1:2|0:0|0:0,0:0:0:0:
156,312,1292,1,2,0:0:0:0:
156,312,1519,1,0,3:0:0:0:
372,378,1860,1,2,0:0:0:0:
429,303,2201,5,4,0:3:0:0:
229,384,2428,1,6,1:2:0:0:
332,219,2769,5,2,0:0:0:0:
309,114,3110,1,2,0:0:0:0:
410,144,3565,5,2,0:0:0:0:
410,144,3792,1,0,3:0:0:0:
486,178,4019,1,0,0:0:0:0:
387,10,4246,6,0,P|349:14|314:43,2,70,6|2|2,1:2|0:0|0:0,0:0:0:0:
476,88,4928,1,2,0:0:0:0:
476,88,5156,1,2,0:0:0:0:
234,51,5496,1,2,0:0:0:0:
351,219,5837,5,4,0:3:0:0:
98,323,6065,1,6,1:2:0:0:
228,198,6406,5,2,0:0:0:0:
225,283,6746,1,8,0:3:0:0:
225,283,6974,5,8,1:3:0:0:
276,343,7201,1,8,0:3:0:0:
358,355,7428,1,8,0:0:0:0:
450,315,7656,1,8,0:0:0:0:
476,292,7769,1,8,0:0:0:0:
485,258,7883,6,0,B|477:206|477:206|479:205|479:205|470:153,2,105,6|2|2,1:2|0:0|0:0,0:0:0:0:
494,342,8792,1,0,1:0:0:0:
494,342,9019,1,0,1:0:0:0:
332,228,9246,1,8,0:0:0:0:
512,96,9474,1,0,0:0:0:0:
425,22,9701,6,0,P|374:26|337:62,2,105,2|2|2,1:2|0:0|0:0,0:0:0:0:
411,101,10610,1,2,1:2:0:0:
411,101,10837,1,0,1:0:0:0:
203,17,11065,1,8,0:0:0:0:
246,152,11292,1,8,0:0:0:0:
253,179,11406,1,8,0:0:0:0:
260,206,11519,6,0,B|187:186|200:253|114:234,1,140,4|8,1:0|0:0,0:0:0:0:
93,157,12201,1,2,0:0:0:0:
93,157,12428,2,0,P|112:100|112:57,1,70,2|0,1:2|1:0,0:0:0:0:
240,290,12883,1,8,0:0:0:0:
240,290,13110,1,2,0:0:0:0:
98,361,13338,6,0,B|104:300|104:300|106:296|106:296|111:248|111:248,2,105,6|2|2,1:2|0:0|0:0,0:0:0:0:
281,313,14247,2,0,B|274:252|274:252|272:248|272:248|268:200|268:200,1,105,4|2,1:0|0:0,0:0:0:0:
285,178,14701,1,8,0:0:0:0:
363,78,14928,6,0,B|405:75|405:75|450:97|450:97|513:94,1,140,4|0,1:2|1:0,0:0:0:0:
476,13,15610,1,8,0:3:0:0:
476,13,15837,1,2,0:0:0:0:
382,159,16065,1,2,1:2:0:0:
276,83,16292,2,0,P|243:96|209:105,1,70,8|0,0:3|1:0,0:0:0:0:
70,32,16746,6,0,P|97:54|121:78,1,70,12|0,0:2|1:0,0:0:0:0:
142,173,17201,1,8,0:3:0:0:
209,104,17428,1,0,1:0:0:0:
119,190,17656,1,8,0:3:0:0:
42,110,17883,1,0,1:0:0:0:
208,262,18110,1,8,0:0:0:0:
275,193,18337,1,8,0:0:0:0:
106,292,18565,1,8,0:3:0:0:
78,296,18678,1,4,0:3:0:0:
50,291,18792,1,4,1:2:0:0:
50,291,19246,6,0,B|141:270|101:338|207:316,1,140,8|0,0:0|1:0,0:0:0:0:
240,252,19928,1,0,1:0:0:0:
240,252,20156,2,0,L|226:171,1,70,8|0,0:0|0:0,0:0:0:0:
398,345,20610,6,0,L|412:264,1,70,0|0,1:0|0:0,0:0:0:0:
472,209,21065,1,8,0:0:0:0:
472,209,21292,1,0,0:0:0:0:
439,115,21519,2,0,P|444:74|462:28,1,70,0|0,1:0|1:0,0:0:0:0:
369,187,21974,2,0,P|339:205|305:215,1,70,8|0,0:0|0:0,0:0:0:0:
196,297,22428,6,0,L|209:147,1,140,0|8,1:0|0:0,0:0:0:0:
159,82,23110,1,0,0:0:0:0:
159,82,23337,2,0,P|112:63|86:63,1,70,0|0,1:0|1:0,0:0:0:0:
54,192,23792,2,0,P|88:187|119:172,1,70,8|0,0:0|0:0,0:0:0:0:
253,80,24246,6,0,P|296:55|344:55,1,70,0|0,1:0|0:0,0:0:0:0:
394,121,24701,1,8,0:0:0:0:
394,121,24928,1,0,0:0:0:0:
312,241,25156,2,0,P|320:285|325:319,1,70,0|0,1:0|1:0,0:0:0:0:
243,177,25610,1,8,0:0:0:0:
115,270,25837,1,0,1:0:0:0:
89,281,25951,1,8,0:0:0:0:
61,283,26065,1,0,1:0:0:0:
61,283,26519,5,8,0:0:0:0:
78,201,26746,1,0,0:0:0:0:
100,119,26974,2,0,P|84:66|65:37,1,70,0|0,1:0|1:0,0:0:0:0:
160,180,27428,2,0,P|194:191|229:193,1,70,8|0,0:0|0:0,0:0:0:0:
366,262,27883,6,0,L|351:121,1,140,0|8,1:0|0:0,0:0:0:0:
267,291,28565,1,0,0:0:0:0:
267,291,28792,2,0,L|259:360,1,70,0|0,1:0|1:0,0:0:0:0:
370,265,29246,1,8,0:0:0:0:
370,265,29474,1,0,0:0:0:0:
148,384,29701,6,0,L|140:314,1,70,0|0,1:0|0:0,0:0:0:0:
89,238,30156,2,0,P|48:231|13:226,1,70,8|0,0:0|0:0,0:0:0:0:
151,162,30610,1,0,1:0:0:0:
151,162,30837,1,0,1:0:0:0:
27,39,31065,2,0,P|43:71|51:105,1,70,8|0,0:0|0:0,0:0:0:0:
182,228,31519,6,0,P|190:194|205:162,1,70,0|0,1:0|0:0,0:0:0:0:
276,127,31974,1,8,0:0:0:0:
276,127,32201,1,2,0:0:0:0:
335,176,32428,1,2,1:2:0:0:
418,190,32656,1,2,1:2:0:0:
501,152,32883,1,10,0:2:0:0:
391,29,33110,1,8,0:0:0:0:
356,29,33223,1,8,0:0:0:0:
323,40,33337,1,4,1:2:0:0:
323,40,33792,6,0,L|247:26,1,70,8|0,0:0|0:0,0:0:0:0:
173,58,34246,1,0,1:0:0:0:
173,58,34474,1,0,1:0:0:0:
18,123,34701,2,0,L|86:110,1,70,8|0,0:0|0:0,0:0:0:0:
173,58,35156,6,0,L|165:179,1,105,0|0,1:0|0:0,0:0:0:0:
182,185,35610,1,8,0:0:0:0:
17,288,35837,1,0,0:0:0:0:
137,363,36065,1,0,1:0:0:0:
137,363,36292,5,2,1:2:0:0:
107,280,36519,1,10,0:2:0:0:
270,368,36746,1,2,0:2:0:0:
306,247,36973,1,2,1:2:0:0:
306,247,37428,6,0,L|379:236,1,70,8|0,0:0|0:0,0:0:0:0:
428,305,37883,1,0,1:0:0:0:
428,305,38110,1,0,1:0:0:0:
506,215,38337,2,0,P|529:180|531:141,1,70,8|0,0:0|0:0,0:0:0:0:
461,87,38792,6,0,L|354:104,1,105,0|0,1:0|0:0,0:0:0:0:
338,87,39246,1,8,0:0:0:0:
410,10,39474,1,0,0:0:0:0:
237,117,39701,1,0,1:0:0:0:
237,117,39928,5,2,1:2:0:0:
269,1,40156,1,10,0:2:0:0:
85,168,40383,1,2,0:2:0:0:
47,28,40611,1,2,1:2:0:0:
47,28,41065,6,0,P|111:41|123:60,1,70,8|0,0:0|0:0,0:0:0:0:
187,136,41519,1,0,1:0:0:0:
187,136,41746,1,0,1:0:0:0:
26,317,41974,2,0,L|118:294,1,70,8|0,0:0|0:0,0:0:0:0:
199,264,42429,6,0,P|249:288|267:346,1,105,0|0,1:0|0:0,0:0:0:0:
277,354,42883,1,8,0:0:0:0:
194,340,43110,1,0,0:0:0:0:
332,178,43337,1,0,1:0:0:0:
332,178,43565,1,0,1:0:0:0:
204,86,43792,1,8,0:0:0:0:
209,113,43905,1,0,0:0:0:0:
214,140,44019,1,2,1:2:0:0:
220,168,44132,1,2,0:0:0:0:
226,195,44247,6,0,P|290:180|313:119,2,136.499993751526,6|2|2,1:2|0:0|0:0,0:0:0:0:
121,156,45155,1,0,1:0:0:0:
121,156,45382,1,0,1:0:0:0:
18,331,45610,1,8,0:0:0:0:
128,293,45837,1,2,0:0:0:0:
159,286,45950,1,2,0:0:0:0:
189,278,46065,6,0,P|252:285|290:367,2,136.499993751526,2|2|2,1:2|0:0|0:0,0:0:0:0:
113,302,46973,1,0,1:0:0:0:
269,166,47200,1,8,0:0:0:0:
211,358,47428,1,8,0:0:0:0:
389,296,47655,1,10,0:0:0:0:
414,269,47769,1,2,0:0:0:0:
420,241,47883,6,0,L|403:154,1,70,6|0,1:2|0:0,0:0:0:0:
503,32,48337,2,0,L|489:100,1,70,8|0,0:0|0:0,0:0:0:0:
411,176,48791,1,0,1:0:0:0:
411,176,49019,1,0,1:0:0:0:
211,92,49246,1,8,0:0:0:0:
317,24,49473,1,2,0:0:0:0:
314,51,49588,1,2,0:0:0:0:
310,79,49701,6,0,L|291:222,2,136.499993751526,2|2|2,1:2|0:0|0:0,0:0:0:0:
234,0,50611,1,0,1:0:0:0:
234,0,50837,1,0,1:0:0:0:
50,131,51064,1,8,0:0:0:0:
100,46,51291,1,8,0:0:0:0:
239,194,51520,6,0,B|317:168|292:221|387:208,1,136.499993751526,4|0,1:2|0:0,0:0:0:0:
403,188,51973,1,0,1:0:0:0:
512,25,52200,1,10,0:0:0:0:
350,121,52428,1,0,1:0:0:0:
505,53,52655,1,10,0:0:0:0:
390,10,52882,1,0,1:0:0:0:
509,252,53111,6,0,L|425:232,1,70,10|0,0:0|1:0,0:0:0:0:
362,283,53564,1,8,0:3:0:0:
362,283,53791,1,2,1:2:0:0:
227,184,54019,2,0,L|209:252,1,70,10|0,0:0|1:0,0:0:0:0:
56,359,54473,2,0,L|138:337,1,70,10|4,0:0|0:3,0:0:0:0:
234,278,54928,1,10,0:0:0:0:
238,302,55041,1,2,0:0:0:0:
242,327,55156,6,0,P|166:326|125:251,1,136.499993751526,6|0,1:2|0:0,0:0:0:0:
126,244,55610,1,0,1:0:0:0:
342,359,55837,1,10,0:0:0:0:
310,198,56064,1,0,1:0:0:0:
356,374,56291,1,10,0:0:0:0:
420,258,56519,1,0,1:0:0:0:
146,351,56746,6,0,P|138:316|129:283,1,70,12|0,0:2|1:0,0:0:0:0:
192,205,57200,1,8,0:3:0:0:
22,337,57428,1,0,1:0:0:0:
194,231,57655,1,8,0:0:0:0:
8,77,57882,1,8,0:0:0:0:
14,102,57996,1,8,0:0:0:0:
21,127,58110,1,8,0:0:0:0:
27,152,58223,1,8,0:0:0:0:
35,176,58337,5,8,0:0:0:0:
87,193,58450,1,8,0:0:0:0:
133,161,58565,2,0,L|180:138,1,35,4|0,0:3|0:0,0:0:0:0:
308,27,58792,6,0,B|295:91|295:91|293:91|293:91|280:160,2,136.499993751526,6|2|2,1:2|0:0|0:0,0:0:0:0:
168,149,59701,1,0,1:0:0:0:
168,149,59928,1,0,1:0:0:0:
423,115,60155,1,8,0:0:0:0:
265,224,60382,1,2,0:0:0:0:
232,240,60496,1,2,0:0:0:0:
199,256,60610,6,0,P|155:221|188:135,2,136.499993751526,2|2|2,1:2|0:0|0:0,0:0:0:0:
270,326,61519,1,0,1:0:0:0:
270,326,61746,1,0,1:0:0:0:
476,213,61973,1,8,0:0:0:0:
399,291,62200,1,0,0:0:0:0:
365,69,62428,6,0,P|397:38|442:32,1,90.9999958343508,2|0,1:2|0:0,0:0:0:0:
342,154,62882,1,8,0:0:0:0:
342,154,63110,1,0,0:0:0:0:
119,80,63337,2,0,B|79:86|79:86|75:85|75:85|24:95,1,90.9999958343508,2|0,1:2|1:0,0:0:0:0:
141,228,63678,2,0,B|154:190|154:190|157:187|157:187|175:138,1,90.9999958343508,2|0,0:0|0:0,0:0:0:0:
196,71,64019,1,2,0:0:0:0:
9,246,64247,6,0,P|22:312|35:379,2,136.499993751526,2|2|2,1:2|0:0|0:0,0:0:0:0:
64,151,65156,2,0,P|109:157|138:190,1,90.9999958343508,0|0,1:0|1:0,0:0:0:0:
209,272,65610,1,8,0:0:0:0:
384,166,65837,1,8,0:0:0:0:
414,146,65950,1,8,0:0:0:0:
437,129,66065,6,0,P|496:149|525:231,2,136.499993751526,6|2|2,1:2|0:0|0:0,0:0:0:0:
320,99,66973,1,0,1:0:0:0:
320,99,67200,1,0,1:0:0:0:
416,316,67428,1,8,0:0:0:0:
445,212,67655,1,0,0:0:0:0:
169,343,67883,6,0,P|93:316|33:297,2,136.499993751526,2|2|2,1:2|0:0|0:0,0:0:0:0:
325,164,68792,2,0,P|298:226|274:290,1,136.499993751526,2|2,1:2|0:0,0:0:0:0:
283,321,69246,1,8,0:0:0:0:
111,213,69473,1,2,0:0:0:0:
216,123,69701,6,0,B|312:104|289:182|390:161,1,181.999991668702,2|8,1:2|0:0,0:0:0:0:
477,189,70382,1,0,0:0:0:0:
477,189,70610,1,0,1:0:0:0:
338,0,70837,2,0,P|353:60|360:111,1,90.9999958343508,0|8,1:0|0:0,0:0:0:0:
242,199,71291,1,8,0:0:0:0:
207,212,71405,1,8,0:0:0:0:
170,206,71520,6,0,P|261:189|306:262,1,168,4|2,1:0|0:0,0:0:0:0:
321,264,71973,1,8,0:0:0:0:
98,375,72201,6,0,B|90:301|90:301|87:299|87:299|75:189,1,168,4|0,1:0|0:0,0:0:0:0:
4,119,72655,1,8,0:0:0:0:
57,134,72769,1,8,0:0:0:0:
110,116,72882,1,0,1:0:0:0:
141,69,72996,1,8,0:3:0:0:
188,38,73110,1,8,0:3:0:0:
241,54,73223,1,0,1:0:0:0:
268,103,73338,6,0,L|246:257,1,136.499993751526,4|0,1:0|0:0,0:0:0:0:
259,266,73792,2,0,P|323:260|348:236,1,90.9999958343508,4|0,1:2|0:0,0:0:0:0:
382,127,74246,1,0,1:0:0:0:
382,127,74473,1,0,1:0:0:0:
512,261,74700,1,8,0:0:0:0:
461,179,74928,1,0,0:0:0:0:
327,350,75156,6,0,P|261:350|223:296,2,136.499993751526,2|2|2,1:2|0:0|0:0,0:0:0:0:
386,287,76064,1,0,1:0:0:0:
386,287,76291,1,0,1:0:0:0:
285,107,76519,2,0,P|241:87|197:88,1,90.9999958343508,8|0,0:0|0:0,0:0:0:0:
91,258,76973,6,0,P|136:257|176:238,1,90.9999958343508,2|0,1:2|0:0,0:0:0:0:
226,168,77428,1,8,0:0:0:0:
226,168,77655,1,0,0:0:0:0:
35,64,77883,2,0,L|47:153,1,90.9999958343508,2|0,1:2|1:0,0:0:0:0:
153,90,78224,2,0,L|165:0,1,90.9999958343508,2|0,0:0|0:0,0:0:0:0:
35,64,78564,1,2,0:0:0:0:
226,168,78792,6,0,B|286:144|286:144|371:170,2,136.499993751526,2|2|2,1:2|0:0|0:0,0:0:0:0:
150,227,79700,1,0,1:0:0:0:
150,227,79928,1,0,1:0:0:0:
370,367,80155,1,8,0:0:0:0:
262,247,80382,1,8,0:0:0:0:
259,274,80496,1,8,0:0:0:0:
256,301,80610,6,0,P|319:296|358:210,1,136.499993751526,4|0,1:2|0:0,0:0:0:0:
346,216,81064,1,12,0:0:0:0:
512,291,81291,1,0,0:0:0:0:
417,142,81519,1,0,1:0:0:0:
417,142,81746,1,0,1:0:0:0:
413,336,81973,1,12,0:0:0:0:
512,103,82200,1,0,0:0:0:0:
219,242,82428,5,0,1:0:0:0:
167,140,82655,1,8,0:0:0:0:
330,315,82882,1,8,0:0:0:0:
416,217,83110,1,8,0:0:0:0:
111,362,83337,1,0,1:0:0:0:
74,327,83450,1,8,0:0:0:0:
65,277,83564,1,8,0:0:0:0:
81,229,83678,1,8,0:3:0:0:
117,194,83791,1,4,0:3:0:0:
150,156,83905,1,8,0:3:0:0:
174,112,84019,1,8,0:3:0:0:
164,63,84132,1,0,1:0:0:0:
134,22,84246,6,0,P|198:99|297:79,1,181.999991668702,4|8,1:2|0:0,0:0:0:0:
381,50,84928,1,4,1:2:0:0:
229,8,85155,1,8,0:0:0:0:
432,134,85382,1,8,0:3:0:0:
228,267,85610,1,0,1:0:0:0:
510,379,85837,1,4,1:2:0:0:
256,192,85950,12,0,91519,0:0:0:0:
