osu file format v14

[General]
AudioFilename: audio.mp3
AudioLeadIn: 0
PreviewTime: 46690
Countdown: 0
SampleSet: Normal
StackLeniency: 0.7
Mode: 1
LetterboxInBreaks: 0
WidescreenStoryboard: 1

[Editor]
Bookmarks: -10,23990,47996,83990,119990,155990,179990
DistanceSpacing: 3.4
BeatDivisor: 1
GridSize: 32
TimelineZoom: 2.2

[Metadata]
Title:Bass Drop
TitleUnicode:Bass Drop
Artist:Zero Hero
ArtistUnicode:Zero Hero
Creator:Ulqui
Version:Kantan
Source:
Tags:electronic instrumental monstercat hard dance HiroK michael stonebank darren styles
BeatmapID:2873533
BeatmapSetID:1381442

[Difficulty]
HPDrainRate:8
CircleSize:2
OverallDifficulty:3
ApproachRate:10
SliderMultiplier:1.4
SliderTickRate:1

[Events]
//Background and Video events
0,0,"zero-hero-bass-drop-music-cover-monstercat.jpg",0,130
//Break Periods
2,46515,47740
2,84390,94990
2,118515,119740
//Storyboard Layer 0 (Background)
//Storyboard Layer 1 (Fail)
//Storyboard Layer 2 (Pass)
//Storyboard Layer 3 (Foreground)
//Storyboard Layer 4 (Overlay)
//Storyboard Sound Samples

[TimingPoints]
190,375,4,1,0,100,1,0
24190,-111.111111111111,4,1,0,100,0,0
48190,-111.111111111111,4,1,0,100,0,1
58690,-111.111111111111,4,1,0,100,0,0
72565,-111.111111111111,4,1,0,100,0,1
82690,-111.111111111111,4,1,0,100,0,0
120190,-111.111111111111,4,1,0,100,0,1
130690,-111.111111111111,4,1,0,100,0,0
144565,-111.111111111111,4,1,0,100,0,1
154690,-111.111111111111,4,1,0,100,0,0

[HitObjects]
184,117,24190,5,4,0:0:0:0:
196,119,27190,1,4,0:0:0:0:
195,120,30190,1,4,0:0:0:0:
196,127,33190,1,4,0:0:0:0:
202,156,35815,1,8,0:0:0:0:
202,156,36190,1,0,0:0:0:0:
183,166,36752,1,0,0:0:0:0:
201,107,37690,1,0,0:0:0:0:
186,110,38252,1,0,0:0:0:0:
186,110,39190,1,0,0:0:0:0:
186,110,39752,1,0,0:0:0:0:
186,110,40690,1,0,0:0:0:0:
186,110,41252,1,0,0:0:0:0:
203,109,42190,1,8,0:0:0:0:
203,109,42940,1,8,0:0:0:0:
194,114,43690,1,8,0:0:0:0:
194,114,44440,1,8,0:0:0:0:
194,114,45190,1,8,0:0:0:0:
194,114,45565,1,8,0:0:0:0:
194,114,45940,1,8,0:0:0:0:
194,114,46315,1,8,0:0:0:0:
168,84,48190,5,0,0:0:0:0:
190,119,48565,1,0,0:0:0:0:
190,119,48940,1,8,0:0:0:0:
190,119,49690,1,0,0:0:0:0:
190,119,50440,1,0,0:0:0:0:
208,80,50815,1,8,0:0:0:0:
190,119,51190,1,0,0:0:0:0:
181,120,51565,1,0,0:0:0:0:
181,120,51940,1,8,0:0:0:0:
177,130,52690,1,0,0:0:0:0:
174,125,53815,1,8,0:0:0:0:
174,125,54190,1,0,0:0:0:0:
174,125,54565,1,0,0:0:0:0:
174,125,54940,1,8,0:0:0:0:
174,125,55690,1,0,0:0:0:0:
174,125,56440,1,0,0:0:0:0:
174,125,56815,1,8,0:0:0:0:
174,125,57190,1,0,0:0:0:0:
174,125,57565,1,0,0:0:0:0:
174,125,57940,1,8,0:0:0:0:
174,125,58690,1,8,0:0:0:0:
184,162,60190,1,0,0:0:0:0:
171,109,60565,1,0,0:0:0:0:
171,109,60940,1,8,0:0:0:0:
171,109,61315,1,8,0:0:0:0:
197,163,62815,1,8,0:0:0:0:
197,163,63190,1,0,0:0:0:0:
197,163,63940,1,8,0:0:0:0:
186,96,64690,1,0,0:0:0:0:
171,130,65815,1,8,0:0:0:0:
178,72,66190,1,0,0:0:0:0:
200,119,66565,1,0,0:0:0:0:
192,104,66940,1,8,0:0:0:0:
202,62,67315,1,8,0:0:0:0:
162,116,68815,1,8,0:0:0:0:
142,77,69190,1,0,0:0:0:0:
91,93,69940,1,8,0:0:0:0:
91,93,70690,1,0,0:0:0:0:
174,86,72190,5,4,0:0:0:0:
165,80,72565,1,8,0:0:0:0:
168,130,72940,1,8,0:0:0:0:
168,130,73315,1,8,0:0:0:0:
182,128,73690,1,8,0:0:0:0:
191,136,74440,1,8,0:0:0:0:
191,136,75190,1,4,0:0:0:0:
167,139,75565,1,8,0:0:0:0:
170,142,75940,1,8,0:0:0:0:
172,143,76315,1,8,0:0:0:0:
170,142,76690,1,8,0:0:0:0:
176,149,77440,1,8,0:0:0:0:
176,149,78190,1,4,0:0:0:0:
176,149,78565,1,8,0:0:0:0:
176,149,78940,1,8,0:0:0:0:
176,149,79315,1,8,0:0:0:0:
176,149,79690,1,8,0:0:0:0:
176,149,80440,1,8,0:0:0:0:
176,149,81190,1,4,0:0:0:0:
176,149,81565,1,8,0:0:0:0:
176,149,81940,1,8,0:0:0:0:
176,149,82315,1,8,0:0:0:0:
176,149,82690,1,0,0:0:0:0:
190,109,83815,1,8,0:0:0:0:
190,109,84190,1,4,0:0:0:0:
174,141,95440,5,0,0:0:0:0:
174,141,95815,1,8,0:0:0:0:
174,137,96190,5,0,0:0:0:0:
143,156,96940,1,8,0:0:0:0:
145,175,98065,1,8,0:0:0:0:
145,175,98440,1,8,0:0:0:0:
206,144,99190,1,0,0:0:0:0:
206,144,99940,1,8,0:0:0:0:
202,143,101065,1,8,0:0:0:0:
202,143,101440,1,8,0:0:0:0:
202,143,102190,1,0,0:0:0:0:
202,143,102940,1,8,0:0:0:0:
202,141,104065,1,0,0:0:0:0:
202,141,104440,1,8,0:0:0:0:
214,139,105190,1,0,0:0:0:0:
214,139,105940,1,8,0:0:0:0:
214,138,107065,1,0,0:0:0:0:
214,138,107440,1,8,0:0:0:0:
214,138,108190,1,0,0:0:0:0:
172,238,108752,1,0,0:0:0:0:
172,238,109690,1,0,0:0:0:0:
172,238,110252,1,0,0:0:0:0:
112,145,111190,1,0,0:0:0:0:
112,145,111752,1,8,0:0:0:0:
175,86,112690,1,0,0:0:0:0:
175,86,113252,1,8,0:0:0:0:
175,86,113815,1,8,0:0:0:0:
244,215,114190,5,8,0:0:0:0:
216,226,114940,1,8,0:0:0:0:
216,226,115690,1,8,0:0:0:0:
216,226,116440,1,8,0:0:0:0:
202,219,117190,1,8,0:0:0:0:
202,219,117565,1,8,0:0:0:0:
202,219,117940,1,8,0:0:0:0:
202,219,118315,1,8,0:0:0:0:
219,164,120190,5,0,0:0:0:0:
205,165,120940,1,8,0:0:0:0:
205,165,121690,1,0,0:0:0:0:
204,87,122440,1,0,0:0:0:0:
204,87,122815,1,8,0:0:0:0:
204,87,123190,1,0,0:0:0:0:
204,87,123940,1,8,0:0:0:0:
202,128,124690,1,0,0:0:0:0:
213,76,125815,1,8,0:0:0:0:
204,82,126190,1,0,0:0:0:0:
204,82,126940,1,8,0:0:0:0:
205,72,127690,1,0,0:0:0:0:
206,93,128440,1,0,0:0:0:0:
206,93,128815,1,8,0:0:0:0:
206,93,129190,1,0,0:0:0:0:
199,114,129940,1,8,0:0:0:0:
199,114,130690,1,8,0:0:0:0:
216,122,132190,1,0,0:0:0:0:
160,98,132565,1,0,0:0:0:0:
160,98,132940,1,8,0:0:0:0:
160,98,133315,1,8,0:0:0:0:
192,98,134440,1,0,0:0:0:0:
253,66,134815,1,8,0:0:0:0:
192,98,135190,1,0,0:0:0:0:
194,133,135940,1,8,0:0:0:0:
213,119,136690,1,0,0:0:0:0:
213,151,137815,1,8,0:0:0:0:
213,151,138190,1,0,0:0:0:0:
228,177,138565,1,0,0:0:0:0:
228,177,138940,1,8,0:0:0:0:
228,177,139315,1,8,0:0:0:0:
227,172,140440,1,0,0:0:0:0:
213,114,140815,1,8,0:0:0:0:
213,114,141190,1,0,0:0:0:0:
213,114,141940,1,8,0:0:0:0:
213,114,142690,1,0,0:0:0:0:
187,116,144190,1,4,0:0:0:0:
187,116,144565,1,8,0:0:0:0:
187,116,144940,1,8,0:0:0:0:
187,116,145315,1,8,0:0:0:0:
187,116,145690,1,8,0:0:0:0:
187,116,146440,1,8,0:0:0:0:
175,121,147190,1,4,0:0:0:0:
152,127,147565,1,8,0:0:0:0:
162,133,147940,1,8,0:0:0:0:
162,133,148315,1,8,0:0:0:0:
162,133,148690,1,8,0:0:0:0:
162,133,149440,1,8,0:0:0:0:
162,133,150190,1,4,0:0:0:0:
162,133,150565,1,8,0:0:0:0:
162,133,150940,1,8,0:0:0:0:
162,133,151315,1,8,0:0:0:0:
162,133,151690,1,8,0:0:0:0:
162,133,152440,1,8,0:0:0:0:
162,133,153190,1,4,0:0:0:0:
162,133,153565,1,8,0:0:0:0:
162,133,153940,1,8,0:0:0:0:
162,133,154315,1,8,0:0:0:0:
162,133,154690,1,0,0:0:0:0:
206,146,155815,1,8,0:0:0:0:
217,127,156190,1,4,0:0:0:0:
202,221,156940,1,0,0:0:0:0:
186,93,157315,1,0,0:0:0:0:
209,195,157690,1,0,0:0:0:0:
224,87,158065,1,0,0:0:0:0:
227,147,158440,1,0,0:0:0:0:
218,107,158815,1,0,0:0:0:0:
168,109,159940,1,0,0:0:0:0:
202,104,160315,1,0,0:0:0:0:
202,104,160690,1,0,0:0:0:0:
223,88,161065,1,0,0:0:0:0:
202,104,161440,1,0,0:0:0:0:
202,104,162190,1,4,0:0:0:0:
202,104,162940,1,0,0:0:0:0:
202,104,163315,1,0,0:0:0:0:
202,104,163690,1,0,0:0:0:0:
232,83,164065,1,0,0:0:0:0:
202,104,164440,1,0,0:0:0:0:
215,126,164815,1,0,0:0:0:0:
199,127,165940,1,0,0:0:0:0:
199,127,166315,1,0,0:0:0:0:
199,127,166690,1,0,0:0:0:0:
199,127,167815,1,8,0:0:0:0:
199,127,168190,1,4,0:0:0:0:
148,143,168940,1,8,0:0:0:0:
148,143,169315,1,8,0:0:0:0:
156,144,169690,1,8,0:0:0:0:
156,144,170440,1,8,0:0:0:0:
215,88,171190,1,0,0:0:0:0:
160,143,171940,1,8,0:0:0:0:
160,143,172315,1,8,0:0:0:0:
160,143,172690,1,8,0:0:0:0:
160,143,173440,1,8,0:0:0:0:
186,91,174190,1,4,0:0:0:0:
171,120,174940,1,8,0:0:0:0:
171,120,175690,1,8,0:0:0:0:
219,117,176440,1,8,0:0:0:0:
219,117,177190,1,8,0:0:0:0:
219,117,177565,1,8,0:0:0:0:
219,117,177940,1,8,0:0:0:0:
219,117,178315,1,8,0:0:0:0:
218,130,179440,1,8,0:0:0:0:
163,158,179815,1,8,0:0:0:0:
