osu file format v14

[General]
AudioFilename: audio.mp3
AudioLeadIn: 0
PreviewTime: 63123
Countdown: 0
SampleSet: Normal
StackLeniency: 0.7
Mode: 0
LetterboxInBreaks: 0
WidescreenStoryboard: 0

[Editor]
DistanceSpacing: 1.8
BeatDivisor: 4
GridSize: 4
TimelineZoom: 1.2

[Metadata]
Title:Ginza vs Ginza
TitleUnicode:銀座vs銀座
Artist:Zensou Sagi no Hito
ArtistUnicode:前奏詐欺の人
Creator:Delis
Version:Hard
Source:
Tags:真・女神転生 shin megami tensei smt 2 EXPLORER
BeatmapID:1560449
BeatmapSetID:638950

[Difficulty]
HPDrainRate:5
CircleSize:4
OverallDifficulty:7
ApproachRate:8
SliderMultiplier:1.6
SliderTickRate:1

[Events]
//Background and Video events
0,0,"edewwqedcxz.jpg",0,0
//Break Periods
2,156398,158598
2,161198,163548
2,165998,167298
2,211448,216498
//Storyboard Layer 0 (Background)
//Storyboard Layer 1 (Fail)
//Storyboard Layer 2 (Pass)
//Storyboard Layer 3 (Foreground)
//Storyboard Sound Samples

[TimingPoints]
1248,300,4,2,0,40,1,0
1248,-125,4,2,0,40,0,0
3648,-125,4,3,0,40,0,0
6048,-125,4,2,0,40,0,0
8448,-125,4,3,0,40,0,0
10848,-125,4,2,0,45,0,0
13248,-125,4,3,0,45,0,0
15648,-125,4,2,0,50,0,0
18048,-125,4,3,0,50,0,0
20448,-125,4,2,0,50,0,0
22848,-125,4,3,0,50,0,0
25248,-100,4,2,2,60,0,0
33548,-100,4,1,1,60,0,0
82848,-100,4,1,1,65,0,0
121248,-100,4,1,1,70,0,0
122448,-100,4,1,1,65,0,0
151548,-100,4,1,1,50,0,0
206448,-83.3333333333333,4,1,1,50,0,0
207648,-100,4,1,1,50,0,0
237648,-100,4,1,1,65,0,0
247248,-100,4,1,1,65,0,1
255648,-100,4,1,1,65,0,0
256848,-100,4,1,1,70,0,1
265248,-83.3333333333333,4,1,1,70,0,1
266448,-100,4,1,1,70,0,1
267648,-100,4,1,1,55,0,0
279648,-100,4,1,1,65,0,0

[Colours]
Combo1 : 222,185,12
Combo2 : 82,155,47
Combo3 : 27,63,139
Combo4 : 154,58,92

[HitObjects]
48,352,1248,38,0,L|24:208,1,128,2|2,0:0|0:0,0:0:0:0:
192,44,1848,2,0,L|216:188,1,128,2|0,0:0|0:0,0:0:0:0:
216,328,2448,2,0,B|176:348|124:328|108:288|108:288|32:316,2,192,2|2|2,0:0|0:0|0:0,0:0:0:0:
376,236,3648,38,0,L|520:216,2,128,4|2|8,0:0|0:0|0:0,0:0:0:0:
312,184,4398,1,0,0:0:0:0:
312,184,4548,2,0,P|320:144|320:104,1,64,2|0,0:0|0:0,0:0:0:0:
380,48,4848,2,0,P|408:112|520:124,1,192,8|8,0:0|0:0,0:0:0:0:
360,308,5598,1,8,0:0:0:0:
360,308,5748,2,0,P|324:304|272:304,1,64,2|0,0:0|0:0,0:0:0:0:
212,268,6048,6,0,L|64:284,1,128,2|2,0:0|0:0,0:0:0:0:
20,104,6648,2,0,L|108:112,1,64,0|2,0:0|0:0,0:0:0:0:
224,192,7098,2,0,L|136:204,1,64,2|2,0:0|0:0,0:0:0:0:
36,328,7548,1,2,0:0:0:0:
36,328,7698,2,0,P|96:296|168:304,1,128,2|2,0:0|0:0,0:0:0:0:
220,352,8148,2,0,L|248:212,1,128,2|4,0:0|0:0,0:0:0:0:
320,268,8598,37,0,0:0:0:0:
320,268,8748,2,0,P|380:264|404:264,1,64,2|0,0:0|0:0,0:0:0:0:
440,204,9048,1,8,0:0:0:0:
440,204,9198,2,0,P|412:156|440:72,1,128,0|0,0:0|0:0,0:0:0:0:
356,36,9648,2,0,L|320:176,1,128,8|2,0:0|0:0,0:0:0:0:
324,159,10098,1,8,0:0:0:0:
352,320,10398,1,8,0:0:0:0:
352,320,10548,1,2,0:0:0:0:
192,264,10848,6,0,P|140:296|60:288,2,128,2|2|2,0:0|0:0|0:0,0:0:0:0:
212,184,11598,2,0,L|232:40,1,128,2|2,0:0|0:0,0:0:0:0:
148,64,12048,2,0,L|128:216,1,128,2|2,0:0|0:0,0:0:0:0:
56,216,12498,1,2,0:0:0:0:
152,344,12798,1,2,0:0:0:0:
152,344,12948,2,0,P|192:340|240:340,1,64,2|0,0:0|0:0,0:0:0:0:
288,280,13248,37,4,0:0:0:0:
328,352,13398,1,0,0:0:0:0:
380,284,13548,2,0,P|452:252|512:264,1,128,2|8,0:0|0:0,0:0:0:0:
464,176,13998,2,0,L|480:100,1,64,0|2,0:0|0:0,0:0:0:0:
288,48,14448,2,0,P|332:92|408:96,1,128,8|2,0:0|0:0,0:0:0:0:
448,40,14898,1,8,0:0:0:0:
360,224,15198,1,8,0:0:0:0:
360,224,15348,1,2,0:0:0:0:
164,116,15648,6,0,P|128:112|92:116,1,64,2|0,0:0|0:0,0:0:0:0:
180,200,15948,2,0,P|92:212|48:256,1,128,2|2,0:0|0:0,0:0:0:0:
28,316,16398,2,0,P|116:304|160:260,1,128,0|2,0:0|0:0,0:0:0:0:
220,328,16848,1,2,0:0:0:0:
72,84,17148,1,2,0:0:0:0:
72,84,17298,2,0,P|128:124|200:116,1,128,2|2,0:0|0:0,0:0:0:0:
224,52,17748,1,2,0:0:0:0:
412,224,18048,38,0,L|336:240,1,64,4|0,0:0|0:0,0:0:0:0:
328,316,18348,2,0,L|404:300,1,64,2|0,0:0|0:0,0:0:0:0:
464,352,18648,2,0,L|480:264,1,64,8|0,0:0|0:0,0:0:0:0:
423,161,18948,2,0,L|407:249,1,64,2|0,0:0|0:0,0:0:0:0:
328,116,19248,2,0,P|332:196|312:244,1,128,8|2,0:0|0:0,0:0:0:0:
336,340,19698,2,0,P|392:300|464:300,1,128,8|8,0:0|0:0,0:0:0:0:
449,296,20148,1,2,0:0:0:0:
216,280,20448,6,0,L|140:296,1,64,2|0,0:0|0:0,0:0:0:0:
76,308,20748,1,2,0:0:0:0:
48,144,21048,1,2,0:0:0:0:
48,144,21198,2,0,P|96:180|168:172,1,128,0|0,0:0|0:0,0:0:0:0:
216,112,21648,1,2,0:0:0:0:
224,376,21948,1,0,0:0:0:0:
224,376,22098,2,0,P|168:344|88:348,1,128,2|0,0:0|0:0,0:0:0:0:
108,260,22548,2,0,L|252:248,1,128,2|4,0:0|0:0,0:0:0:0:
432,124,23148,38,0,P|432:172|444:208,1,64,2|0,0:0|0:0,0:0:0:0:
404,264,23448,1,8,0:0:0:0:
328,224,23598,2,0,P|332:168|296:88,1,128,0|0,0:0|0:0,0:0:0:0:
344,32,24048,2,0,L|488:56,1,128,8|2,0:0|0:0,0:0:0:0:
496,128,24498,1,8,0:0:0:0:
496,128,24798,1,8,0:0:0:0:
416,176,24948,5,2,0:0:0:0:
412,180,25098,1,2,0:0:0:0:
408,184,25248,2,0,P|328:184|248:188,2,160,4|8|2,0:3|0:0|0:0,0:0:0:0:
352,104,25998,2,0,L|248:112,1,80,0|8,0:0|0:0,0:0:0:0:
200,80,26298,1,0,0:0:0:0:
136,128,26448,2,0,P|72:76|-16:88,1,160,2|8,0:0|0:0,0:0:0:0:
48,160,26898,2,0,P|108:212|200:200,1,160,2|2,0:0|0:0,0:0:0:0:
260,180,27348,5,8,0:0:0:0:
340,164,27498,1,0,0:0:0:0:
420,176,27648,2,0,P|448:264|412:336,1,160,2|8,0:0|0:0,0:0:0:0:
423,323,28248,1,2,0:0:0:0:
344,312,28398,2,0,P|296:320|240:320,1,80,0|8,0:0|0:0,0:0:0:0:
188,300,28698,1,0,0:0:0:0:
116,336,28848,2,0,P|80:268|-12:256,1,160,2|8,0:0|0:0,0:0:0:0:
120,200,29298,2,0,P|168:208|224:208,1,80,2|0,0:0|0:0,0:0:0:0:
284,204,29598,1,2,0:0:0:0:
284,204,29748,2,0,P|376:204|452:208,2,160,8|2|8,0:0|0:0|0:0,0:0:0:0:
284,204,30648,6,0,P|284:152|288:112,1,80,2|0,0:0|0:0,0:0:0:0:
200,164,30948,2,0,P|200:216|196:256,1,80,8|0,0:0|0:0,0:0:0:0:
244,316,31248,2,0,P|324:268|416:292,1,160,2|8,0:0|0:0,0:0:0:0:
464,316,31698,2,0,P|460:256|460:208,1,80,2|0,0:0|0:0,0:0:0:0:
464,156,31998,1,2,0:0:0:0:
444,80,32148,2,0,B|360:92|368:72|272:84,1,160,8|2,0:0|0:0,0:0:0:0:
284,82,32598,1,0,0:0:0:0:
208,52,32748,6,0,P|156:64|116:56,1,80,8|0,0:0|0:0,0:0:0:0:
252,160,33048,2,0,P|304:172|344:164,1,80,2|0,0:0|0:0,0:0:0:0:
156,148,33348,2,0,P|116:168|48:164,1,80,8|0,0:0|0:0,0:0:0:0:
204,240,33648,6,0,L|268:260,3,40,8|0|0|0,0:0|0:0|0:0|0:0,0:0:0:0:
264,284,33948,2,0,L|328:304,3,40,8|0|0|0,0:0|0:0|0:0|0:0,0:0:0:0:
324,328,34248,2,0,L|388:348,3,40,0|0|0|0,0:0|0:0|0:0|0:0,0:0:0:0:
388,376,34548,2,0,P|440:332|432:236,1,160,8|4,0:0|0:0,0:0:0:0:
352,64,35148,6,0,P|304:80|256:76,1,80,8|0,0:2|0:0,0:0:0:0:
200,48,35448,1,8,0:2:0:0:
200,48,35598,2,0,P|112:56|56:108,1,160,0|0,0:0|0:0,0:0:0:0:
116,164,36048,6,0,L|84:332,1,160,8|8,0:2|0:2,0:0:0:0:
16,272,36498,1,0,0:0:0:0:
212,216,36798,1,0,0:0:0:0:
212,216,36948,2,0,P|264:216|320:212,1,80,8|0,0:2|0:0,0:0:0:0:
360,168,37248,6,0,P|408:160|460:164,1,80,8|0,0:2|0:0,0:0:0:0:
440,260,37548,2,0,P|400:260|348:252,1,80,8|0,0:2|0:0,0:0:0:0:
280,128,37848,1,8,0:2:0:0:
280,128,37998,2,0,P|332:76|432:68,1,160,0|0,0:0|0:0,0:0:0:0:
496,96,38448,5,2,0:1:0:0:
320,344,38898,1,2,0:1:0:0:
56,204,39348,2,0,P|104:184|156:192,1,80,2|0,0:1|0:0,0:0:0:0:
204,224,39648,6,0,L|228:60,2,160,4|4|8,0:0|0:2|0:2,0:0:0:0:
288,200,40398,1,0,0:0:0:0:
264,280,40548,2,0,P|232:316|224:364,1,80,8|0,0:2|0:0,0:0:0:0:
152,300,40848,6,0,P|104:236|8:240,1,160,8|8,0:2|0:2,0:0:0:0:
0,148,41298,2,0,L|188:136,1,160,0|0,0:0|0:0,0:0:0:0:
232,96,41748,5,8,0:2:0:0:
272,176,41898,1,8,0:3:0:0:
352,120,42048,2,0,P|356:168|356:212,1,80,4|0,0:0|0:0,0:0:0:0:
276,255,42348,2,0,P|272:207|272:163,1,80,8|0,0:2|0:0,0:0:0:0:
184,224,42648,1,8,0:2:0:0:
184,224,42798,2,0,P|188:312|184:392,1,160,0|8,0:0|0:0,0:0:0:0:
264,360,43248,5,14,0:0:0:0:
340,320,43398,1,8,0:0:0:0:
340,320,43473,1,8,0:0:0:0:
340,320,43548,2,0,P|392:328|448:328,1,80,4|8,0:3|0:2,0:0:0:0:
464,176,43848,2,0,L|476:268,1,80,8|8,0:0|0:2,0:0:0:0:
364,160,44148,6,0,L|352:84,3,40,8|8|8|8,0:0|0:0|0:0|0:0,0:0:0:0:
364,200,44448,2,0,P|292:204|232:132,2,160,4|8|0,0:0|0:0|0:0,0:0:0:0:
328,284,45198,2,0,L|292:372,1,80,2|8,0:2|0:0,0:0:0:0:
232,288,45498,1,2,0:2:0:0:
152,328,45648,6,0,L|56:316,1,80,2|0,0:0|0:0,0:0:0:0:
112,240,45948,1,8,0:0:0:0:
28,248,46098,2,0,P|12:168|72:100,1,160,2|2,0:0|0:0,0:0:0:0:
144,104,46548,2,0,P|204:116|276:128,1,120,8|2,0:0|0:0,0:0:0:0:
300,108,46848,6,0,P|336:124|392:132,1,80,4|0,0:2|0:0,0:0:0:0:
348,216,47148,2,0,P|396:212|448:196,1,80,8|0,0:0|0:0,0:0:0:0:
480,144,47448,1,0,0:0:0:0:
508,224,47598,2,0,P|512:280|508:328,1,80,2|8,0:2|0:0,0:0:0:0:
448,348,47898,1,2,0:2:0:0:
384,284,48048,5,2,0:2:0:0:
324,340,48198,2,0,L|228:328,1,80,8|8,0:2|0:0,0:0:0:0:
164,316,48498,1,2,0:2:0:0:
164,316,48798,1,8,0:2:0:0:
204,244,48948,2,2,P|216:184|164:128,1,120,10|2,0:0|0:0,0:0:0:0:
144,128,49248,6,0,P|72:132|40:132,1,80,4|0,0:2|0:0,0:0:0:0:
160,44,49548,2,0,P|236:44|332:40,1,160,8|0,0:0|0:0,0:0:0:0:
400,28,49998,2,0,P|408:76|404:124,1,80,2|8,0:2|0:0,0:0:0:0:
356,172,50298,1,2,0:2:0:0:
440,184,50448,2,0,P|424:260|472:340,1,160,2|8,0:0|0:0,0:0:0:0:
372,336,50898,2,0,P|304:316|260:308,1,80,2|0,1:1|0:0,0:0:0:0:
212,332,51198,1,2,0:0:0:0:
128,352,51348,2,2,L|112:220,1,120,10|2,0:0|0:0,0:0:0:0:
132,196,51648,6,0,P|56:204|24:200,1,80,4|0,0:2|0:0,0:0:0:0:
84,120,51948,2,0,P|160:112|192:116,1,80,8|0,0:0|0:0,0:0:0:0:
240,84,52248,1,10,0:2:0:0:
312,128,52398,2,0,P|400:136|504:128,1,160,8|2,0:2|0:2,0:0:0:0:
476,216,52848,6,0,L|472:320,1,80,4|0,0:2|0:0,0:0:0:0:
348,216,53148,1,8,0:0:0:0:
348,216,53298,2,0,L|312:308,1,80,12|0,0:2|0:0,0:0:0:0:
244,180,53598,1,8,0:2:0:0:
244,180,53748,2,2,L|120:208,1,120,10|2,0:0|0:0,0:0:0:0:
92,180,54048,6,0,P|140:116|108:32,2,160,4|8|0,0:0|0:0|0:0,0:0:0:0:
32,240,54798,1,10,0:2:0:0:
32,240,54948,2,0,P|96:276|140:284,1,80,8|2,0:0|0:2,0:0:0:0:
184,280,55248,6,0,L|268:268,2,80,2|0|8,0:0|0:0|0:0,0:0:0:0:
244,352,55698,2,0,L|412:368,1,160,2|2,0:0|0:0,0:0:0:0:
496,304,56148,2,0,P|436:272|368:288,1,120,8|0,0:0|2:0,0:0:0:0:
344,280,56448,6,0,P|332:240|292:196,1,80,4|0,0:2|0:0,0:0:0:0:
420,196,56748,2,0,P|440:152|448:96,1,80,8|0,0:0|0:0,0:0:0:0:
360,136,57048,1,0,0:0:0:0:
304,80,57198,2,0,P|224:84|176:148,1,160,10|0,0:2|0:0,0:0:0:0:
100,116,57648,5,10,0:2:0:0:
112,200,57798,2,0,L|128:300,1,80,8|8,0:2|0:0,0:0:0:0:
200,220,58098,2,0,B|212:292|212:292|204:324|204:324|216:388,1,160,2|8,0:2|0:2,0:0:0:0:
292,328,58548,2,0,P|344:344|392:344,1,80,8|0,0:0|0:0,0:0:0:0:
420,280,58848,6,0,P|404:208|308:172,2,160,4|8|2,0:2|0:0|0:2,0:0:0:0:
500,236,59598,1,10,0:2:0:0:
468,160,59748,2,0,P|460:120|460:60,1,80,8|2,0:0|0:2,0:0:0:0:
384,40,60048,6,0,L|288:60,1,80,2|0,0:0|0:0,0:0:0:0:
256,124,60348,1,8,0:0:0:0:
256,124,60498,2,0,L|80:160,1,160,2|2,0:0|0:0,0:0:0:0:
28,112,60948,1,8,0:0:0:0:
64,224,61098,5,2,0:0:0:0:
64,224,61173,1,2,0:0:0:0:
64,224,61248,2,0,L|176:244,1,80,12|12,0:0|0:0,0:0:0:0:
324,360,61698,2,0,L|344:248,1,80,8|8,0:0|0:0,0:0:0:0:
456,128,62148,2,0,L|344:108,1,80,12|12,0:1|0:1,0:0:0:0:
316,52,62448,6,0,P|276:68|224:60,1,80,4|8,0:2|0:2,0:0:0:0:
212,52,62673,1,8,0:2:0:0:
212,52,62748,2,0,P|176:76|128:88,1,80,8|8,0:0|0:2,0:0:0:0:
60,80,63048,2,0,P|60:136|76:176,1,80,8|0,0:2|0:0,0:0:0:0:
144,212,63348,1,12,0:2:0:0:
144,212,63498,1,12,0:2:0:0:
224,168,63648,6,0,L|324:188,1,80,4|2,0:0|0:0,0:0:0:0:
252,252,63948,2,0,L|432:288,1,160,10|0,0:0|0:0,0:0:0:0:
480,332,64398,2,0,P|504:276|452:184,1,160,10|0,0:2|0:0,0:0:0:0:
392,144,64848,6,0,P|356:112|340:52,1,80,10|0,0:2|0:0,0:0:0:0:
343,83,65148,1,8,0:0:0:0:
284,164,65298,2,0,L|88:192,1,160,10|8,0:2|0:2,0:0:0:0:
40,160,65748,2,0,P|46:204|52:260,1,80,8|0,0:0|0:0,0:0:0:0:
112,88,66048,5,2,0:0:0:0:
196,100,66198,1,0,0:0:0:0:
272,64,66348,2,2,P|364:72|440:76,2,160,10|0|10,0:0|0:0|0:0,0:0:0:0:
164,248,67248,5,2,0:0:0:0:
164,248,67398,1,2,0:0:0:0:
120,324,67548,2,2,P|212:324|264:256,2,160,10|0|8,0:0|0:0|0:0,0:0:0:0:
108,88,68448,5,2,0:0:0:0:
40,136,68598,1,0,0:0:0:0:
124,176,68748,2,2,P|200:176|300:180,1,160,10|0,0:0|0:0,0:0:0:0:
360,156,69198,1,8,0:2:0:0:
292,96,69348,2,0,P|240:96|196:92,1,80,10|0,0:0|0:0,0:0:0:0:
280,260,69648,6,0,P|324:256|376:264,1,80,2|2,0:0|0:0,0:0:0:0:
436,308,69948,2,2,P|480:256|448:152,1,160,10|0,0:0|0:0,0:0:0:0:
466,170,70398,1,8,0:2:0:0:
492,84,70548,2,0,P|452:92|396:96,1,80,10|0,0:0|0:0,0:0:0:0:
336,64,70848,5,2,0:0:0:0:
252,56,70998,1,2,0:0:0:0:
180,104,71148,2,2,L|20:96,1,160,10|0,0:0|0:0,0:0:0:0:
116,184,71598,1,8,0:2:0:0:
204,192,71748,2,0,P|248:196|300:192,1,80,10|0,0:0|0:0,0:0:0:0:
376,152,72048,6,0,L|396:48,1,80,12|0,0:2|0:0,0:0:0:0:
464,132,72348,1,10,0:0:0:0:
296,100,72498,2,0,P|224:104|124:112,1,160,12|2,0:2|0:0,0:0:0:0:
136,110,72948,1,10,0:0:0:0:
136,110,73098,1,2,0:0:0:0:
68,172,73248,6,0,P|64:224|76:264,2,80,4|0|10,0:0|0:0|0:0,0:0:0:0:
152,208,73698,2,2,P|200:272|300:264,1,160
352,240,74148,5,10,0:0:0:0:
352,240,74448,2,0,L|376:152,2,80,2|0|10,0:0|0:0|0:0,0:0:0:0:
420,304,74898,2,2,L|468:140,1,160
436,72,75348,1,10,0:0:0:0:
216,128,75648,6,0,P|172:136|112:136,2,80,2|2|8,0:0|0:0|0:0,0:0:0:0:
280,72,76098,2,2,P|324:144|288:220,1,160,2|0,0:0|0:0,0:0:0:0:
224,252,76548,2,0,L|136:288,1,80,10|0,0:0|0:0,0:0:0:0:
72,220,76848,5,2,0:0:0:0:
144,184,76998,2,0,P|152:112|148:72,1,80,8|8,0:2|0:0,0:0:0:0:
84,44,77298,2,2,P|164:52|248:56,1,160
272,136,77748,2,0,P|320:136|368:128,1,80,10|0,0:0|0:0,0:0:0:0:
412,76,78048,6,2,P|436:152|392:232,1,160,6|8,0:0|0:0,0:0:0:0:
332,264,78498,2,0,P|272:256|224:256,2,80,2|0|8,0:0|0:0|0:2,0:0:0:0:
392,332,78948,2,0,P|340:348|300:352,1,80,10|0,0:0|0:0,0:0:0:0:
232,340,79248,6,2,P|148:316|68:344,1,160,2|8,0:0|0:0,0:0:0:0:
48,260,79698,2,0,L|24:172,1,80,2|0,0:0|0:0,0:0:0:0:
116,196,79998,1,8,0:2:0:0:
132,112,80148,2,0,L|156:8,1,80,10|0,0:0|0:0,0:0:0:0:
220,96,80448,6,2,P|312:100|396:92,1,160,2|8,0:0|0:0,0:0:0:0:
464,80,80898,2,0,P|452:132|444:184,1,80,2|8,0:0|0:2,0:0:0:0:
384,212,81198,1,12,0:0:0:0:
292,192,81348,1,8,0:0:0:0:
232,272,81498,5,8,0:0:0:0:
232,272,81573,1,8,0:0:0:0:
232,272,81648,2,0,P|192:280|144:284,1,80,4|0,0:0|3:0,0:0:0:0:
24,196,81948,2,0,P|64:204|112:208,1,80,4|8,2:3|2:3,0:0:0:0:
184,172,82248,2,0,L|240:176,4,40,8|8|4|8|8,2:3|2:3|2:3|2:3|0:0,0:0:0:0:
432,92,82848,6,0,P|424:144|424:180,1,80,4|0,0:0|0:0,0:0:0:0:
472,240,83148,2,0,P|396:264|308:208,1,160,8|2,0:0|0:2,0:0:0:0:
288,312,83598,1,8,0:2:0:0:
288,312,83748,2,0,P|216:328|184:332,1,80,8|0,0:0|0:0,0:0:0:0:
132,304,84048,5,10,0:2:0:0:
208,252,84198,1,0,0:0:0:0:
144,192,84348,2,0,P|72:232|-12:208,2,160,8|2|8,0:0|0:2|0:0,0:0:0:0:
184,120,85098,1,0,0:0:0:0:
256,80,85248,6,0,L|276:176,1,80,10|0,0:2|0:0,0:0:0:0:
360,160,85548,2,0,L|324:236,1,80,8|0,0:0|0:0,0:0:0:0:
244,232,85848,2,0,P|240:280|248:336,1,80,2|8,0:2|0:2,0:0:0:0:
160,276,86148,2,0,P|160:328|156:380,1,80,8|0,0:0|0:0,0:0:0:0:
72,312,86448,5,8,0:2:0:0:
56,224,86598,2,0,P|60:140|52:48,2,160,8|8|8,0:2|0:2|0:2,0:0:0:0:
148,196,87348,1,8,0:0:0:0:
148,196,87498,1,8,0:2:0:0:
232,220,87648,6,0,L|428:208,1,160,10|8,0:2|0:0,0:0:0:0:
391,210,88248,2,0,P|432:220|484:216,1,80,2|8,0:2|0:2,0:0:0:0:
456,308,88548,2,0,P|415:298|363:302,1,80,8|0,0:0|0:0,0:0:0:0:
288,288,88848,6,0,P|228:292|196:288,1,80,8|0,0:2|0:0,0:0:0:0:
204,212,89148,2,0,P|252:208|316:212,1,80,8|8,0:0|0:2,0:0:0:0:
344,160,89448,2,0,P|344:120|340:68,1,80,2|8,0:2|0:2,0:0:0:0:
188,64,89748,2,0,P|188:104|192:156,1,80,8|0,0:0|0:0,0:0:0:0:
112,192,90048,6,0,P|108:112|108:20,2,160,10|8|2,0:2|0:0|0:2,0:0:0:0:
84,276,90798,1,8,0:2:0:0:
136,336,90948,2,0,P|224:336|244:332,1,80,8|8,0:0|0:2,0:0:0:0:
336,308,91248,6,0,P|380:240|356:156,1,160,4|8,0:0|2:3,0:0:0:0:
272,84,91698,2,0,P|228:152|252:236,1,160,8|0,0:0|0:0,0:0:0:0:
136,288,92148,2,0,L|112:204,1,80,8|8,0:0|0:0,0:0:0:0:
92,184,92373,5,8,0:0:0:0:
92,184,92448,2,0,P|128:112|96:36,1,160,4|8,0:0|0:0,0:0:0:0:
196,60,92898,2,2,P|372:88|392:88,1,160
432,68,93348,2,0,P|424:120|424:168,1,80,10|0,0:0|0:0,0:0:0:0:
372,240,93648,6,0,P|332:180|216:176,1,160,2|8,0:0|0:0,0:0:0:0:
196,236,94098,2,2,P|236:296|352:300,1,160
400,312,94548,2,0,P|444:300|492:296,1,80,10|0,0:0|0:0,0:0:0:0:
488,196,94848,6,0,L|504:108,1,80,2|0,0:0|0:0,0:0:0:0:
408,144,95148,2,0,L|388:240,1,80,8|2,0:0|0:0,0:0:0:0:
312,116,95448,2,0,L|292:20,1,80,2|8,0:2|0:2,0:0:0:0:
220,100,95748,2,0,L|240:196,1,80,10|0,0:0|0:0,0:0:0:0:
128,160,96048,5,2,0:0:0:0:
48,164,96198,2,0,P|48:256|52:324,2,160,6|8|8,0:0|3:1|3:1,0:0:0:0:
84,76,96948,2,0,P|48:84|-4:84,1,80,0|8,3:0|0:0,0:0:0:0:
156,136,97248,6,0,P|240:80|312:96,1,160,4|8,3:0|0:0,0:0:0:0:
368,140,97698,1,0,0:0:0:0:
324,212,97848,2,0,P|320:264|320:312,1,80,2|8,0:2|0:2,0:0:0:0:
408,312,98148,2,0,P|412:260|412:212,1,80,8|0,0:0|0:0,0:0:0:0:
464,68,98448,6,0,P|432:108|324:104,1,160,10|8,0:2|0:0,0:0:0:0:
264,52,98898,1,8,0:2:0:0:
200,108,99048,2,0,P|164:128|108:152,1,80,2|8,0:2|0:2,0:0:0:0:
200,208,99348,2,0,P|236:188|292:164,1,80,8|0,0:0|0:0,0:0:0:0:
360,192,99648,6,0,P|368:288|316:328,1,160,10|8,0:2|0:0,0:0:0:0:
240,312,100098,1,0,0:0:0:0:
152,336,100248,2,0,L|64:312,1,80,2|8,0:2|0:2,0:0:0:0:
60,208,100548,2,0,L|156:236,1,80,8|0,0:0|3:0,0:0:0:0:
160,236,100773,5,0,3:0:0:0:
160,236,100848,2,0,P|168:192|156:136,1,80,12|4,3:1|0:2,0:0:0:0:
216,80,101148,1,0,3:0:0:0:
304,168,101298,6,0,P|300:212|308:256,1,80,4|4,3:2|0:2,0:0:0:0:
336,324,101598,1,0,3:0:0:0:
472,272,101748,6,0,P|476:232|468:176,1,80,8|4,3:1|0:2,0:0:0:0:
508,116,102048,1,4,0:0:0:0:
508,116,102198,2,0,P|412:104|360:160,1,160,0|0,0:0|0:0,0:0:0:0:
312,72,102648,2,0,P|256:84|224:84,1,80,0|8,0:0|0:2,0:0:0:0:
268,244,102948,2,0,P|324:232|356:232,1,80,8|0,0:0|0:0,0:0:0:0:
368,141,103248,6,0,P|288:156|196:172,1,160,8|8,0:2|0:0,0:0:0:0:
76,113,103698,2,0,P|156:98|248:82,1,160,8|8,0:2|0:2,0:0:0:0:
268,244,104148,2,2,P|180:256|120:196,1,160,10|2,0:0|0:1,0:0:0:0:
128,213,104748,6,0,P|140:256|144:304,1,80,10|0,0:0|2:0,0:0:0:0:
280,156,105048,2,0,P|232:152|192:144,1,80,2|0,0:0|0:0,0:0:0:0:
288,304,105348,2,0,P|336:304|376:308,1,80,8|2,0:0|0:0,0:0:0:0:
432,248,105648,6,0,P|484:248|528:244,2,80,8|8|10,0:2|0:2|0:0,0:0:0:0:
368,308,106098,2,0,P|336:236|376:160,1,160,8|8,0:2|0:2,0:0:0:0:
396,60,106548,2,0,P|324:96|244:76,1,160,10|2,0:0|0:0,0:0:0:0:
208,152,106998,6,0,P|148:160|100:168,2,80,2|8|0,0:0|0:0|0:0,0:0:0:0:
280,200,107448,1,0,0:0:0:0:
360,228,107598,2,0,P|416:224|460:216,1,80,10|8,0:2|0:0,0:0:0:0:
472,140,107898,1,2,0:2:0:0:
412,72,108048,6,0,P|328:56|256:88,1,160,10|8,0:2|0:0,0:0:0:0:
140,164,108498,2,0,P|224:156|296:192,1,160,10|8,0:2|0:2,0:0:0:0:
380,156,108948,2,2,L|328:324,1,160,10|2,0:0|0:0,0:0:0:0:
332,308,109548,6,0,P|372:324|416:328,1,80,10|0,0:0|2:0,0:0:0:0:
300,220,109848,2,0,P|344:224|400:212,1,80,2|0,1:0|0:0,0:0:0:0:
244,288,110148,2,0,L|252:380,1,80,8|0,0:0|3:0,0:0:0:0:
164,336,110448,6,0,P|116:340|80:336,1,80,4|0,0:2|3:0,0:0:0:0:
120,252,110748,2,0,P|72:252|28:248,1,80,4|0,0:2|3:0,0:0:0:0:
236,216,111048,2,0,P|280:220|324:220,1,80,4|0,0:2|3:0,0:0:0:0:
288,136,111348,2,0,P|332:136|380:132,1,80,4|0,0:2|3:0,0:0:0:0:
440,80,111648,6,0,L|456:24,2,40,8|8|8,0:0|0:0|0:0,0:0:0:0:
456,168,111948,1,8,0:2:0:0:
400,232,112098,2,0,L|412:284,2,40,8|8|8,0:0|0:0|0:0,0:0:0:0:
367,133,112398,1,8,0:2:0:0:
308,208,112548,2,0,P|264:216|216:212,1,80,4|0,0:2|2:0,0:0:0:0:
180,144,112848,6,0,P|80:132|24:184,2,160,4|8|0,0:0|0:0|0:0,0:0:0:0:
236,80,113598,2,0,L|320:72,2,80,8|8|0,0:2|0:0|0:0,0:0:0:0:
272,160,114048,2,0,P|280:204|272:252,1,80,8|0,0:2|0:0,0:0:0:0:
224,308,114348,5,10,0:0:0:0:
308,348,114498,2,2,B|400:356|368:300|476:316,1,160,2|8,0:0|0:2,0:0:0:0:
456,212,114948,2,0,P|412:220|352:220,1,80,10|2,0:0|0:0,0:0:0:0:
280,204,115248,6,2,L|96:164,1,160,2|8,0:0|0:0,0:0:0:0:
48,232,115698,2,2,L|232:272,1,160,2|8,0:0|0:2,0:0:0:0:
288,284,116148,2,0,P|340:296|380:328,1,80,8|0,0:0|0:0,0:0:0:0:
428,360,116448,5,10,0:2:0:0:
428,360,116598,2,0,P|480:336|504:296,1,80,8|8,0:2|0:0,0:0:0:0:
428,260,116898,2,0,L|464:96,1,160,10|8,0:2|0:2,0:0:0:0:
388,56,117348,2,0,L|360:160,1,80,10|0,0:0|0:0,0:0:0:0:
288,72,117648,6,2,P|224:120|128:100,1,160,12|8,0:2|0:0,0:0:0:0:
44,64,118098,2,2,P|48:184|4:232,1,160,2|8,0:0|0:2,0:0:0:0:
100,268,118548,2,2,P|164:220|260:240,1,160,10|8,0:0|0:2,0:0:0:0:
320,176,118998,2,2,P|388:224|472:204,1,160,2|8,0:0|0:2,0:0:0:0:
472,296,119448,2,0,P|428:304|384:312,1,80,2|8,0:0|0:2,0:0:0:0:
476,120,119748,2,0,P|436:128|380:136,1,80,10|2,0:0|0:0,0:0:0:0:
316,72,120048,6,2,B|244:64|244:64|232:68|232:68|132:56,2,160,12|8|0,0:2|0:0|0:0,0:0:0:0:
388,32,120798,1,8,0:2:0:0:
464,52,120948,2,0,P|476:112|472:148,1,80,10|0,0:0|0:0,0:0:0:0:
440,208,121248,1,4,0:2:0:0:
280,288,121548,5,8,0:0:0:0:
280,288,121698,2,0,P|248:236|296:124,1,160,4|8,0:2|0:2,0:0:0:0:
270,144,122148,2,0,P|216:156|168:160,1,80,4|0,0:2|0:0,0:0:0:0:
80,228,122448,6,0,P|140:240|168:264,1,80,4|0,0:0|0:0,0:0:0:0:
64,320,122748,2,2,P|4:272|28:176,1,160,10|0,0:0|0:0,0:0:0:0:
76,144,123198,1,8,0:2:0:0:
160,152,123348,2,0,L|140:60,1,80,8|2,0:0|0:2,0:0:0:0:
64,52,123648,6,0,P|16:60|-32:64,2,80,8|2|8,0:2|0:0|0:0,0:0:0:0:
143,73,124098,1,2,0:0:0:0:
228,44,124248,2,0,L|212:140,1,80,2|2,0:0|0:0,0:0:0:0:
288,216,124548,2,0,L|304:120,1,80,10|2,0:0|0:0,0:0:0:0:
192,204,124848,6,0,L|164:364,1,160,4|8,0:2|0:0,0:0:0:0:
252,344,125298,2,2,B|320:296|320:296|408:312,1,160,2|0,0:0|0:0,0:0:0:0:
464,356,125748,2,0,P|496:332|516:292,1,80,8|0,0:0|0:0,0:0:0:0:
464,196,126048,5,8,0:2:0:0:
384,216,126198,2,0,P|344:212|296:196,1,80,8|8,0:2|0:0,0:0:0:0:
224,232,126498,2,0,P|164:184|72:192,1,160,8|8,0:2|0:2,0:0:0:0:
168,104,126948,2,0,L|264:120,1,80,8|0,0:0|0:0,0:0:0:0:
328,72,127248,6,0,P|324:116|332:160,1,80,8|0,0:2|0:0,0:0:0:0:
412,112,127548,2,2,P|428:188|408:272,2,160,10|0|10,0:0|0:0|0:0,0:0:0:0:
412,112,128298,1,2,0:0:0:0:
328,72,128448,6,0,L|228:96,1,80,2|0,0:0|0:0,0:0:0:0:
212,216,128748,2,0,L|312:192,1,80,10|2,0:0|0:0,0:0:0:0:
156,128,129048,2,2,P|64:116|0:172,1,160,2|10,0:0|0:0,0:0:0:0:
12,152,129498,1,0,0:0:0:0:
36,232,129648,6,0,P|48:284|56:324,1,80,4|0,0:0|0:0,0:0:0:0:
136,352,129948,1,8,0:0:0:0:
220,316,130098,2,0,P|276:312|324:312,1,80,4|0,0:2|0:0,0:0:0:0:
384,352,130398,2,0,P|384:312|380:264,1,80,4|8,0:2|0:0,0:0:0:0:
376,184,130698,5,8,0:0:0:0:
388,92,130848,1,4,0:0:0:0:
296,132,130998,1,8,0:0:0:0:
296,132,131073,1,8,0:0:0:0:
296,132,131148,2,0,P|240:140|188:140,1,80,8|8,0:0|0:2,0:0:0:0:
264,288,131448,2,0,P|300:256|344:224,1,80,0|8,3:0|0:0,0:0:0:0:
148,228,131748,2,0,P|156:288|160:328,1,80,4|8,0:2|0:0,0:0:0:0:
56,228,132048,6,2,P|52:340|24:376,1,160,6|8,0:0|0:0,0:0:0:0:
40,100,132648,1,0,0:0:0:0:
112,152,132798,2,0,L|132:48,1,80,2|8,0:0|0:0,0:0:0:0:
216,52,133098,1,0,0:0:0:0:
204,132,133248,2,0,L|184:236,1,80,2|0,0:0|0:0,0:0:0:0:
312,160,133548,5,10,0:0:0:0:
312,160,133698,2,0,B|352:144|352:144|404:152,1,80,2|2,0:0|2:2,0:0:0:0:
352,240,133998,2,0,B|312:256|312:256|260:248,1,80,2|10,0:0|0:0,0:0:0:0:
188,210,134298,1,0,1:0:0:0:
96,244,134448,2,0,B|76:188|116:148|116:148|88:72,1,160,4|8,0:2|0:0,0:0:0:0:
192,100,134898,2,2,L|360:80,1,160,2|8,0:0|0:2,0:0:0:0:
436,148,135348,2,0,P|372:168|344:164,1,80,8|0,0:0|0:0,0:0:0:0:
264,260,135648,5,10,0:2:0:0:
324,320,135798,2,0,P|372:332|416:328,1,80,8|8,0:2|0:0,0:0:0:0:
240,360,136098,2,0,P|172:324|80:332,1,160,10|10,0:2|0:2,0:0:0:0:
48,256,136548,2,0,L|16:168,1,80,8|0,0:0|2:0,0:0:0:0:
148,232,136848,6,0,B|144:192|144:192|164:144,2,80,2|0|8,0:0|0:0|0:0,0:0:0:0:
236,252,137298,2,0,B|276:240|276:240|320:248,2,80,2|0|0,0:0|0:0|0:0,0:0:0:0:
312,148,137748,2,0,B|360:156|360:156|396:144,2,80,10|0|0,0:0|0:0|0:0,0:0:0:0:
254,69,138198,6,0,P|216:84|160:80,1,80,2|8,0:0|0:0,0:0:0:0:
100,48,138498,1,0,0:0:0:0:
104,132,138648,2,0,L|84:220,1,80,2|8,0:0|0:2,0:0:0:0:
184,188,138948,2,0,L|168:296,1,80,10|2,0:0|0:0,0:0:0:0:
236,336,139248,6,0,P|264:344|292:348,3,40,2|0|0|0,0:0|0:0|0:0|0:0,0:0:0:0:
288,304,139548,2,0,P|320:296|348:276,3,40,10|0|0|0,0:0|0:0|0:0|0:0,0:0:0:0:
320,256,139848,2,0,P|348:228|360:200,3,40,2|0|8|0,0:0|0:0|0:2|0:0,0:0:0:0:
320,200,140148,2,0,P|328:156|328:128,3,40,10|0|2|0,0:0|0:0|0:0|0:0,0:0:0:0:
308,124,140448,6,0,P|264:136|208:132,2,80,6|8|8,0:0|0:2|0:0,0:0:0:0:
380,72,140898,2,2,P|464:88|496:160,1,160,6|8,0:0|0:2,0:0:0:0:
472,232,141348,1,8,0:0:0:0:
344,352,141648,6,2,P|300:288|200:284,1,160,6|8,0:0|0:0,0:0:0:0:
172,340,142098,2,2,L|8:380,1,160,2|8,0:0|0:2,0:0:0:0:
48,292,142548,2,0,P|52:244|48:196,1,80,8|0,0:0|0:0,0:0:0:0:
28,92,142848,6,0,L|108:100,1,80,2|0,0:0|0:0,0:0:0:0:
184,140,143148,2,0,L|264:148,1,80,10|2,0:0|0:0,0:0:0:0:
468,188,143448,2,0,L|388:196,1,80,2|2,0:0|0:0,0:0:0:0:
312,236,143748,2,0,L|232:244,1,80,10|0,0:0|0:0,0:0:0:0:
168,320,144048,6,2,P|132:264|164:176,1,160,6|8,0:0|0:0,0:0:0:0:
212,104,144498,2,2,B|276:88|276:88|320:120|388:100,1,160,2|8,0:0|0:2,0:0:0:0:
420,40,144948,1,8,0:0:0:0:
416,208,145248,5,10,0:2:0:0:
416,208,145398,2,0,P|348:220|308:228,1,80,8|8,0:2|0:0,0:0:0:0:
268,180,145698,2,0,P|188:184|92:168,1,160,2|10,0:2|0:2,0:0:0:0:
88,256,146148,2,0,P|144:264|184:272,1,80,8|0,0:0|0:0,0:0:0:0:
256,304,146448,5,8,0:2:0:0:
256,304,146748,2,2,B|296:288|328:296|328:296|344:308|344:308|384:316|424:296,2,160,10|0|8,0:0|0:0|0:0,0:0:0:0:
140,104,147648,6,0,L|160:200,1,80,2|2,0:0|0:0,0:0:0:0:
232,132,147948,2,0,P|276:144|320:144,1,80,8|2,0:0|0:0,0:0:0:0:
392,180,148248,1,2,0:0:0:0:
460,124,148398,1,8,0:2:0:0:
460,124,148473,1,8,0:2:0:0:
460,124,148548,2,0,P|452:80|464:28,1,80,8|2,0:0|0:0,0:0:0:0:
488,208,148848,6,2,P|480:268|468:368,2,160,6|8|8,0:0|0:0|0:0,0:0:0:0:
488,208,149598,1,4,0:2:0:0:
264,232,149898,1,8,0:2:0:0:
192,176,150048,6,0,L|16:188,2,160,4|4|8,0:2|0:2|0:0,0:0:0:0:
260,120,150798,2,0,P|304:128|360:124,1,80,4|8,0:2|0:0,0:0:0:0:
420,104,151098,1,8,0:0:0:0:
392,196,151248,5,12,0:2:0:0:
392,196,151398,1,12,0:2:0:0:
256,192,151548,12,8,154698,0:3:0:0:
192,292,154998,6,0,P|168:240|224:156,1,160,8|8,0:0|0:3,0:0:0:0:
304,132,155448,2,0,P|360:140|408:140,1,80,8|8,0:0|0:2,0:0:0:0:
448,216,155748,2,0,P|396:224|352:224,1,80,8|0,0:0|0:0,0:0:0:0:
288,252,156048,5,4,0:2:0:0:
288,252,156198,1,0,0:0:0:0:
248,216,159348,5,10,0:0:0:0:
248,216,159648,2,2,B|380:224|380:224|400:164|476:164,2,240,2|2|4,0:0|0:0|0:2,0:0:0:0:
80,52,160848,5,2,0:0:0:0:
80,52,160998,1,2,0:0:0:0:
184,216,164298,6,0,L|172:160,2,40,8|4|4,0:3|0:3|0:3,0:0:0:0:
152,300,164598,2,0,L|236:312,1,80,8|8,0:0|0:0,0:0:0:0:
304,268,164898,1,8,0:2:0:0:
372,316,165048,2,0,P|448:272|520:296,1,160,8|8,0:0|0:0,0:0:0:0:
396,136,165648,5,4,0:2:0:0:
396,136,165798,1,4,0:2:0:0:
156,80,168048,5,12,0:2:0:0:
376,156,168348,1,12,0:2:0:0:
180,280,168648,1,4,0:2:0:0:
252,236,168798,5,8,0:0:0:0:
252,236,168948,2,0,P|252:176|256:124,1,80,8|2,0:0|0:2,0:0:0:0:
320,88,169248,5,2,0:0:0:0:
68,208,169698,1,2,0:0:0:0:
340,328,170148,2,2,P|404:312|432:244,1,120,6|0,0:0|2:2,0:0:0:0:
424,228,170448,5,4,0:0:0:0:
344,192,170598,2,0,P|336:144|332:88,1,80,8|0,0:2|0:0,0:0:0:0:
248,164,170898,1,0,3:0:0:0:
248,164,170973,1,0,3:0:0:0:
248,164,171048,2,0,P|148:156|116:96,1,160,8|8,0:0|0:2,0:0:0:0:
88,200,171498,6,2,L|120:368,2,160
36,132,172248,2,0,P|36:72|44:20,1,80,10|2,0:0|0:0,0:0:0:0:
152,68,172548,2,0,P|152:128|144:180,1,80,2|0,0:0|2:0,0:0:0:0:
204,220,172848,6,0,L|152:232,2,40,8|0|8,0:2|0:0|0:2,0:0:0:0:
284,200,173148,2,0,P|332:204|380:204,1,80,8|0,0:2|0:0,0:0:0:0:
440,240,173448,1,8,0:0:0:0:
448,160,173598,1,2,0:0:0:0:
388,104,173748,2,0,P|344:100|292:100,1,80,2|2,0:0|0:0,0:0:0:0:
224,136,174048,5,8,0:2:0:0:
224,136,174198,2,0,L|60:128,1,160,8|0,0:0|3:0,0:0:0:0:
40,208,174648,2,0,L|47:291,1,80,10|4,0:0|0:2,0:0:0:0:
124,304,174948,2,0,P|184:324|224:320,1,80,2|0,0:0|0:0,0:0:0:0:
288,232,175248,5,4,0:0:0:0:
288,232,175398,2,0,P|360:192|444:208,1,160,8|2,0:2|0:0,0:0:0:0:
408,280,175848,2,0,L|384:360,1,80,10|2,0:0|0:0,0:0:0:0:
304,332,176148,2,2,B|204:360|236:300|124:336,1,160,0|2,2:0|0:0,0:0:0:0:
64,352,176598,5,2,0:0:0:0:
64,352,176748,2,0,L|80:252,1,80,2|8,0:0|0:2,0:0:0:0:
132,208,177048,1,10,0:0:0:0:
96,136,177198,2,0,P|88:96|104:40,2,80,8|2|2,0:2|0:0|0:0,0:0:0:0:
184,136,177648,5,2,0:0:0:0:
184,136,177798,2,2,L|344:152,1,160,8|8,0:2|0:2,0:0:0:0:
432,140,178248,2,2,P|444:264|488:288,1,160,10|8,0:0|0:2,0:0:0:0:
212,344,178848,6,0,L|188:260,1,80,4|0,0:0|0:0,0:0:0:0:
190,267,179148,1,8,0:0:0:0:
156,184,179298,2,0,P|88:232|16:216,1,160,12|8,0:2|0:2,0:0:0:0:
20,112,179748,2,0,P|96:124|120:124,1,80,12|8,0:2|0:2,0:0:0:0:
176,80,180048,5,8,0:2:0:0:
176,80,180198,2,0,P|256:40|352:68,1,160,8|8,0:2|0:2,0:0:0:0:
408,32,180648,2,0,P|399:73|392:116,1,80,10|2,0:0|0:0,0:0:0:0:
232,148,180948,2,0,P|272:140|320:128,1,80,8|0,0:2|0:0,0:0:0:0:
380,196,181248,6,2,P|332:260|244:256,1,160,2|8,0:0|0:2,0:0:0:0:
192,208,181698,1,10,0:2:0:0:
116,248,181848,2,2,P|72:176|-8:164,1,160,10|0,0:0|0:0,0:0:0:0:
184,84,182448,6,0,P|228:76|292:64,1,80,8|2,0:2|0:1,0:0:0:0:
324,140,182748,2,0,P|280:148|216:160,1,80,8|0,0:2|0:0,0:0:0:0:
212,240,183048,1,8,0:0:0:0:
212,240,183198,2,0,P|304:224|376:212,1,160,8|0,0:2|0:0,0:0:0:0:
444,248,183648,5,4,0:2:0:0:
496,180,183798,2,0,P|500:140|504:84,1,80,8|0,0:0|0:0,0:0:0:0:
424,96,184098,1,2,0:0:0:0:
360,48,184248,2,0,L|300:24,2,53.3333333333333,8|8|8,0:0|0:2|0:2,0:0:0:0:
344,128,184548,2,0,L|276:104,2,53.3333333333333,8|8|8,0:2|0:2|0:2,0:0:0:0:
412,176,184848,5,4,0:0:0:0:
364,244,184998,2,0,P|288:240|200:256,1,160,4|0,0:2|3:0,0:0:0:0:
128,288,185448,2,0,P|128:244|144:192,1,80,10|2,0:0|0:0,0:0:0:0:
160,124,185748,2,0,P|124:136|68:140,1,80,8|2,0:2|0:0,0:0:0:0:
104,52,186048,6,0,L|212:32,1,80,4|2,0:2|0:0,0:0:0:0:
244,96,186348,2,0,L|340:76,1,80,0|8,0:0|0:2,0:0:0:0:
408,60,186648,1,8,0:0:0:0:
472,116,186798,2,0,P|496:184|444:272,1,160,8|8,0:2|0:2,0:0:0:0:
376,280,187248,5,8,0:2:0:0:
376,280,187398,2,0,L|196:308,1,160,8|8,0:2|0:2,0:0:0:0:
276,216,187848,2,0,L|184:196,1,80,8|8,0:0|0:2,0:0:0:0:
300,136,188148,2,0,L|200:112,1,80,8|0,0:0|2:0,0:0:0:0:
124,72,188448,6,2,P|186:27|276:40,1,160,6|8,0:0|0:0,0:0:0:0:
364,80,188898,2,2,P|301:124|212:112,1,160,12|8,0:2|0:0,0:0:0:0:
184,196,189348,2,0,L|224:280,1,80,8|0,0:0|0:0,0:0:0:0:
180,348,189648,6,2,B|120:352|100:296|100:296|76:320|44:316,2,160,4|8|0,0:0|0:0|0:0,0:0:0:0:
268,324,190398,1,8,0:2:0:0:
268,324,190548,2,0,P|336:320|372:320,1,80,8|0,0:0|0:0,0:0:0:0:
440,336,190848,6,2,P|408:256|448:176,1,160,2|10,0:0|0:0,0:0:0:0:
472,116,191298,2,0,P|428:116|376:108,1,80,0|2,0:0|0:0,0:0:0:0:
340,180,191598,1,0,0:0:0:0:
280,124,191748,2,0,L|268:36,1,80,10|0,0:0|0:0,0:0:0:0:
188,104,192048,6,2,L|208:276,2,160,2|10|2,0:0|0:0|0:0,0:0:0:0:
112,144,192798,1,0,0:0:0:0:
36,120,192948,2,0,P|32:168|48:212,1,80,10|0,0:0|0:0,0:0:0:0:
112,244,193248,5,2,0:0:0:0:
112,244,193398,2,0,L|192:236,1,80,2|10,0:0|0:0,0:0:0:0:
280,244,193698,2,0,P|348:192|440:216,1,160,2|8,0:0|0:2,0:0:0:0:
504,236,194148,2,2,L|484:64,1,160,8|8,0:0|0:2,0:0:0:0:
485,77,194748,6,0,P|440:72|392:64,1,80,8|0,0:0|0:0,0:0:0:0:
324,96,195048,1,0,0:0:0:0:
256,52,195198,1,8,0:2:0:0:
184,96,195348,2,0,P|128:104|92:96,1,80,8|0,0:0|0:0,0:0:0:0:
48,172,195648,5,2,0:0:0:0:
48,172,195798,2,0,L|156:188,1,80,0|8,0:0|0:0,0:0:0:0:
204,268,196098,2,2,P|116:272|56:324,1,160
176,352,196548,2,0,L|280:368,1,80,10|0,0:0|2:0,0:0:0:0:
328,320,196848,6,0,P|320:280|328:224,1,80,2|0,0:0|0:0,0:0:0:0:
428,232,197148,2,0,P|432:192|424:136,1,80,10|0,0:0|0:0,0:0:0:0:
344,64,197448,2,0,L|336:160,1,80,0|2,0:0|0:0,0:0:0:0:
252,100,197748,2,0,L|244:192,1,80,8|2,0:0|0:0,0:0:0:0:
160,136,198048,6,0,P|156:228|164:320,1,160,4|8,0:2|0:0,0:0:0:0:
84,328,198498,2,0,P|28:332|-12:332,2,80,4|0|0,0:2|0:0|0:0,0:0:0:0:
196,368,198948,2,0,P|248:364|300:364,1,80,4|0,0:2|0:0,0:0:0:0:
344,300,199248,5,4,0:0:0:0:
424,320,199398,1,0,0:0:0:0:
480,252,199548,2,0,P|476:200|476:152,1,80,8|0,0:0|0:0,0:0:0:0:
400,140,199848,2,0,P|344:156|304:160,1,80,0|8,0:0|0:2,0:0:0:0:
324,260,200148,2,0,P|380:264|432:276,1,80,10|2,0:0|0:0,0:0:0:0:
244,228,200448,6,2,P|152:252|68:228,1,160,2|10,0:0|0:0,0:0:0:0:
44,168,200898,2,0,P|44:120|36:72,1,80,2|0,0:0|0:0,0:0:0:0:
128,124,201198,1,2,0:0:0:0:
212,128,201348,2,0,L|344:148,1,120,8|0,0:0|0:0,0:0:0:0:
330,145,201648,6,0,P|320:104|332:52,1,80,2|0,0:0|0:0,0:0:0:0:
408,96,201948,2,0,L|416:184,1,80,10|2,0:0|0:0,0:0:0:0:
352,232,202248,2,0,P|296:240|264:264,1,80,2|2,0:0|0:0,0:0:0:0:
208,300,202548,2,0,L|192:212,1,80,10|2,0:0|0:0,0:0:0:0:
216,136,202848,5,2,0:0:0:0:
216,136,202998,2,0,P|172:136|128:132,1,80,2|10,0:0|0:0,0:0:0:0:
208,48,203298,2,0,P|288:48|380:52,1,160,8|8,0:2|0:2,0:0:0:0:
456,76,203748,2,0,P|440:156|452:208,1,120,10|0,0:0|0:0,0:0:0:0:
468,224,204048,6,0,L|380:248,1,80,8|0,0:2|0:0,0:0:0:0:
324,192,204348,2,0,P|272:220|152:176,1,160,8|2,0:0|0:0,0:0:0:0:
176,200,204798,1,2,0:0:0:0:
248,136,204948,2,0,L|240:36,1,80,8|2,0:0|0:0,0:0:0:0:
128,120,205248,6,2,P|96:216|132:284,1,160,2|10,0:0|0:0,0:0:0:0:
192,320,205698,2,0,P|160:336|120:376,1,80,2|2,0:0|0:0,0:0:0:0:
200,232,205998,1,2,0:0:0:0:
272,280,206148,2,0,P|324:292|380:292,1,80,8|8,0:0|0:2,0:0:0:0:
368,288,206373,5,8,0:2:0:0:
384,280,206448,2,0,L|376:172,1,95.9999970703126,12|0,0:0|0:0,0:0:0:0:
456,104,206748,2,0,L|464:212,1,95.9999970703126,8|0,0:0|0:0,0:0:0:0:
292,172,207048,6,0,L|288:56,1,95.9999970703126,8|0,0:0|0:0,0:0:0:0:
200,136,207348,2,0,L|204:244,1,95.9999970703126,8|0,0:0|0:0,0:0:0:0:
300,304,207648,6,0,P|340:304|388:296,1,80,0|8,0:0|0:0,0:0:0:0:
416,280,207873,1,8,0:0:0:0:
416,280,207948,1,8,0:0:0:0:
480,208,208098,1,8,0:0:0:0:
396,180,208248,2,0,P|400:104|400:72,1,80,8|8,0:0|0:0,0:0:0:0:
308,144,208548,2,0,P|304:220|304:252,1,80,4|0,0:2|0:0,0:0:0:0:
248,292,208848,1,4,0:0:0:0:
256,192,208998,12,0,211248,0:0:0:0:
432,264,217248,6,0,P|376:276|336:276,1,80,4|0,0:0|2:0,0:0:0:0:
204,248,217548,1,8,0:0:0:0:
204,248,217698,2,0,P|260:236|300:236,1,80,4|0,0:2|2:0,0:0:0:0:
380,192,217998,1,2,0:0:0:0:
304,144,218148,2,2,P|216:152|152:84,1,160,10|4,0:0|0:0,0:0:0:0:
136,192,218598,6,0,L|156:272,1,80,0|8,0:0|0:0,0:0:0:0:
68,256,218898,1,0,0:0:0:0:
68,256,219048,2,0,L|92:352,1,80,0|8,0:0|0:2,0:0:0:0:
172,352,219348,2,0,P|216:344|252:320,1,80,8|0,0:0|0:0,0:0:0:0:
308,264,219648,6,0,P|360:248|452:328,1,160,10|8,0:2|0:0,0:0:0:0:
492,224,220098,1,8,0:2:0:0:
492,224,220248,2,0,L|472:140,1,80,0|8,0:0|0:2,0:0:0:0:
376,104,220548,2,0,L|396:188,1,80,8|0,0:0|0:0,0:0:0:0:
304,160,220848,6,0,P|256:152|204:160,2,80,10|0|8,0:2|0:0|0:0,0:0:0:0:
256,240,221298,2,0,P|192:256|100:208,1,160,0|8,0:0|0:2,0:0:0:0:
24,272,221748,2,0,P|16:204|16:172,1,80,8|0,0:0|0:0,0:0:0:0:
64,108,222048,5,10,0:2:0:0:
148,144,222198,1,8,0:2:0:0:
148,56,222348,1,8,0:0:0:0:
148,56,222498,2,0,P|236:52|316:52,1,160,10|8,0:2|0:2,0:0:0:0:
352,124,222948,2,0,P|308:128|268:128,1,80,8|0,0:0|0:0,0:0:0:0:
416,68,223248,6,0,P|448:136|404:224,1,160,10|8,0:2|0:0,0:0:0:0:
492,272,223698,2,0,P|508:312|504:372,1,80,2|0,0:2|0:0,0:0:0:0:
420,332,223998,1,8,0:2:0:0:
420,332,224148,2,0,L|316:320,1,80,8|2,0:0|0:2,0:0:0:0:
268,280,224448,6,0,P|200:288|104:292,1,160,10|8,0:2|0:0,0:0:0:0:
24,288,224898,2,0,P|24:240|32:176,1,80,10|0,0:2|0:0,0:0:0:0:
68,140,225198,1,8,0:2:0:0:
32,64,225348,2,0,P|72:48|120:36,1,80,8|2,0:0|0:2,0:0:0:0:
156,104,225648,5,10,0:2:0:0:
228,140,225798,1,0,0:0:0:0:
308,104,225948,2,0,L|472:120,1,160,4|10,0:2|0:2,0:0:0:0:
444,40,226398,1,4,0:2:0:0:
444,40,226548,1,4,0:2:0:0:
360,240,226848,6,0,P|316:248|268:244,1,80,6|0,0:0|3:0,0:0:0:0:
200,248,227148,1,8,3:1:0:0:
128,204,227298,2,0,P|192:156|288:188,1,160,4|8,0:2|0:0,0:0:0:0:
291,83,227748,2,0,P|343:91|387:95,1,80,12|0,0:0|0:0,0:0:0:0:
456,80,228048,6,2,B|500:116|500:116|508:184|448:208,2,160,4|4|2,0:0|0:2|0:2,0:0:0:0:
371,94,228798,1,8,0:2:0:0:
280,112,228948,2,0,P|236:112|192:108,1,80,8|0,0:0|0:0,0:0:0:0:
116,48,229248,5,10,0:2:0:0:
128,140,229398,1,0,0:0:0:0:
40,112,229548,1,10,0:0:0:0:
40,112,229698,2,2,P|40:188|-20:256,1,160,2|8,0:0|0:2,0:0:0:0:
96,244,230148,2,0,L|180:228,1,80,10|2,0:0|0:0,0:0:0:0:
256,184,230448,6,2,L|240:344,1,160,10|8,0:2|0:0,0:0:0:0:
324,320,230898,2,2,L|340:160,1,160,2|8,0:0|0:2,0:0:0:0:
416,112,231348,2,0,L|436:200,1,80,10|2,0:0|0:0,0:0:0:0:
268,100,231648,5,10,0:2:0:0:
268,100,231798,2,0,P|320:80|356:56,1,80,8|8,0:2|0:0,0:0:0:0:
240,184,232098,2,2,P|184:164|160:60,1,160,8|8,0:2|0:2,0:0:0:0:
64,112,232548,2,0,L|96:200,1,80,10|0,0:0|0:0,0:0:0:0:
152,268,232848,6,2,B|240:300|316:232,1,160,10|4,0:2|0:2,0:0:0:0:
312,332,233298,2,2,B|400:300|404:192,1,160,2|8,0:0|0:2,0:0:0:0:
472,256,233748,2,2,B|500:168|428:100,1,160,10|8,0:0|0:2,0:0:0:0:
508,64,234198,2,2,B|452:4|344:24,1,160,2|8,0:0|0:2,0:0:0:0:
288,68,234648,2,0,L|192:76,1,80,2|8,0:0|0:2,0:0:0:0:
272,160,234948,2,0,L|380:152,1,80,10|0,0:0|0:0,0:0:0:0:
260,248,235248,6,2,P|176:256|84:268,2,160,2|8|2,0:0|0:0|0:2,0:0:0:0:
348,256,235998,1,8,0:2:0:0:
424,224,236148,2,0,P|496:220|528:212,1,80,10|0,0:0|0:0,0:0:0:0:
460,144,236448,5,2,0:0:0:0:
460,144,236598,2,0,P|416:148|356:148,1,80,8|8,0:2|0:0,0:0:0:0:
296,152,236898,1,2,0:0:0:0:
124,64,237198,2,0,L|108:8,2,40,8|8|8,0:2|0:2|0:0,0:0:0:0:
56,124,237498,1,8,0:0:0:0:
76,208,237648,5,2,1:1:0:0:
76,208,237798,1,8,0:2:0:0:
76,208,237948,2,2,P|92:284|36:344,1,160,10|0,0:0|0:0,0:0:0:0:
152,344,238398,2,0,P|196:324|252:324,1,80,2|10,0:0|0:0,0:0:0:0:
384,348,238848,5,2,0:0:0:0:
464,372,238998,1,2,0:0:0:0:
448,296,239148,2,0,L|432:204,1,80,10|2,0:0|0:0,0:0:0:0:
344,240,239448,2,0,L|372:152,1,80,2|2,0:0|0:0,0:0:0:0:
288,116,239748,2,0,L|372:72,1,80,10|0,0:0|0:0,0:0:0:0:
358,78,240048,6,2,P|272:84|200:24,1,160,2|8,0:0|0:0,0:0:0:0:
192,128,240498,2,2,P|88:164|48:224,1,160,2|8,0:0|0:2,0:0:0:0:
28,104,240948,2,0,L|0:0,1,80,8|0,0:0|0:0,0:0:0:0:
132,56,241248,5,10,0:2:0:0:
213,44,241398,2,0,P|281:48|313:44,1,80,8|8,0:2|0:0,0:0:0:0:
368,92,241698,2,0,P|456:88|528:92,1,160,8|8,0:2|0:2,0:0:0:0:
452,168,242148,2,0,P|408:172|344:172,1,80,8|0,0:0|0:0,0:0:0:0:
232,184,242448,5,10,0:2:0:0:
232,184,242748,2,2,P|176:120|208:28,1,160,10|2,0:0|0:2,0:0:0:0:
272,76,243198,1,8,0:2:0:0:
272,76,243348,2,0,P|332:76|380:72,1,80,10|2,0:0|0:0,0:0:0:0:
436,36,243648,6,0,L|428:128,1,80,2|2,0:0|0:0,0:0:0:0:
340,180,243948,2,0,L|436:204,1,80,10|8,0:0|0:2,0:0:0:0:
500,168,244248,2,0,L|492:260,1,80,2|2,0:2|0:0,0:0:0:0:
400,312,244548,2,0,L|504:332,1,80,10|0,0:0|0:0,0:0:0:0:
320,264,244848,6,2,P|252:316|164:280,1,160,6|10,0:0|0:0,0:0:0:0:
184,300,245448,2,0,P|184:256|180:200,1,80,10|4,0:0|0:2,0:0:0:0:
216,136,245748,2,0,L|212:72,3,40,8|8|4|4,0:3|0:3|0:3|0:3,0:0:0:0:
252,156,246048,6,0,P|328:152|364:152,1,80,4|0,0:2|0:0,0:0:0:0:
392,232,246348,2,0,P|316:236|280:236,1,80,4|0,0:2|0:0,0:0:0:0:
404,60,246648,5,8,0:0:0:0:
408,144,246798,1,2,0:0:0:0:
408,144,246873,1,2,0:0:0:0:
408,144,246948,1,2,0:0:0:0:
496,136,247098,1,2,0:0:0:0:
504,224,247248,6,0,P|508:280|508:324,1,80,6|0,0:0|0:0,0:0:0:0:
416,268,247548,2,2,P|324:272|240:272,1,160,10|2,0:0|0:0,0:0:0:0:
256,272,247998,1,2,0:2:0:0:
208,192,248148,2,0,P|288:188|312:188,1,80,8|0,0:0|0:0,0:0:0:0:
156,268,248448,6,0,P|84:252|60:156,1,160,2|8,0:2|0:0,0:0:0:0:
40,92,248898,2,0,P|112:108|136:204,1,160,2|0,0:2|0:0,0:0:0:0:
216,136,249348,2,2,P|304:140|400:136,1,160,2|2,0:0|1:0,0:0:0:0:
375,137,249948,6,0,P|424:136|472:136,1,80,10|0,1:0|2:0,0:0:0:0:
352,224,250248,2,0,P|400:224|464:220,1,80,2|8,1:0|0:2,0:0:0:0:
328,312,250548,2,0,P|392:308|440:308,1,80,8|2,0:0|1:0,0:0:0:0:
504,296,250848,6,0,P|512:256|504:200,1,80,2|2,0:0|1:0,0:0:0:0:
455,135,251148,1,8,0:0:0:0:
455,135,251298,2,2,P|373:139|284:136,1,160,2|2,0:1|0:1,0:0:0:0:
228,184,251748,2,2,P|168:132|84:144,1,160,10|6,0:1|0:0,0:0:0:0:
92,139,252348,6,0,P|52:139|-12:131,1,80,10|0,0:0|0:0,0:0:0:0:
88,240,252648,2,0,L|196:244,1,80,2|2,0:0|0:2,0:0:0:0:
307,189,252948,2,0,P|271:185|199:185,1,80,8|0,0:0|0:2,0:0:0:0:
372,256,253248,6,0,P|416:196|376:108,1,160,2|8,0:2|0:0,0:0:0:0:
326,53,253698,2,0,P|282:113|322:201,1,160,2|2,0:2|0:2,0:0:0:0:
256,264,254148,2,0,L|164:296,1,80,10|0,0:0|0:0,0:0:0:0:
88,272,254448,5,2,0:0:0:0:
236,160,254748,1,10,0:0:0:0:
52,96,255048,2,0,P|108:100|160:96,1,80,2|8,0:0|0:2,0:0:0:0:
208,56,255348,2,0,P|292:52|316:52,1,80,10|2,0:0|0:0,0:0:0:0:
320,56,255573,5,0,0:0:0:0:
320,56,255648,2,0,P|368:56|416:52,1,80,8|0,0:0|0:0,0:0:0:0:
464,132,255948,1,8,0:0:0:0:
420,208,256098,2,0,P|364:168|256:188,1,160,4|10,0:2|0:0,0:0:0:0:
188,196,256548,5,10,0:0:0:0:
188,196,256698,1,2,0:0:0:0:
188,196,256848,2,0,P|132:204|88:204,1,80,4|2,0:0|0:0,0:0:0:0:
96,112,257148,2,2,P|176:108|264:96,1,160,0|0,0:0|0:0,0:0:0:0:
320,144,257598,1,8,0:2:0:0:
404,116,257748,2,0,P|400:156|400:200,1,80,8|0,0:0|0:0,0:0:0:0:
452,272,258048,6,0,P|364:312|292:272,1,160,2|0,0:2|0:0,0:0:0:0:
216,292,258498,2,0,P|128:332|56:292,1,160,2|0,0:2|0:0,0:0:0:0:
40,232,258948,2,2,L|68:60,2,160,2|2|10,0:0|0:0|0:0,0:0:0:0:
272,204,259848,2,2,P|352:164|436:184,1,160,2|10,0:0|0:0,0:0:0:0:
488,232,260298,1,2,0:0:0:0:
496,140,260448,6,0,L|512:48,1,80,10|2,0:2|0:2,0:0:0:0:
418,174,260748,1,8,0:0:0:0:
418,174,260898,2,0,L|384:344,1,160,8|8,0:2|0:2,0:0:0:0:
316,272,261348,2,2,P|256:316|160:300,1,160,10|2,0:0|0:0,0:0:0:0:
174,308,261798,5,0,2:0:0:0:
174,308,261948,2,0,P|128:328|80:344,1,80,10|0,0:0|0:0,0:0:0:0:
104,248,262248,2,0,P|108:204|108:156,1,80,0|10,0:0|0:2,0:0:0:0:
92,88,262548,1,8,0:0:0:0:
176,108,262698,1,0,0:0:0:0:
252,68,262848,6,0,P|336:72|416:68,1,160,2|8,0:2|0:0,0:0:0:0:
448,156,263298,2,0,P|364:152|284:156,1,160,2|0,0:2|0:0,0:0:0:0:
204,144,263748,2,2,P|116:136|44:144,1,160
200,40,264348,1,10,0:0:0:0:
328,232,264648,2,2,P|408:256|476:216,1,160,2|10,0:0|0:0,0:0:0:0:
496,140,265098,5,8,0:2:0:0:
496,140,265173,1,8,0:2:0:0:
496,140,265248,2,0,P|492:88|492:24,1,95.9999970703126,4|8,0:2|0:2,0:0:0:0:
400,80,265548,2,0,P|402:137|400:192,1,95.9999970703126,4|8,0:2|0:2,0:0:0:0:
288,136,265848,2,0,P|284:80|285:31,1,95.9999970703126,4|8,0:2|0:2,0:0:0:0:
192,92,266148,2,0,P|193:157|190:207,1,95.9999970703126,4|8,0:2|0:2,0:0:0:0:
154,293,266448,6,0,B|224:276|224:276|303:308|303:308|385:286,2,240,8|8|10,0:0|0:0|0:0,0:0:0:0:
55,75,267648,6,0,P|116:120|217:91,1,160,4|0,0:0|0:0,0:0:0:0:
396,64,268248,1,2,0:2:0:0:
396,64,268398,2,0,P|341:108|338:194,1,160,2|2,0:2|2:0,0:0:0:0:
376,272,268848,6,0,L|212:252,1,160,2|0,0:2|0:0,0:0:0:0:
220,372,269298,2,0,L|384:352,1,160,2|2,0:2|0:2,0:0:0:0:
456,336,269748,2,0,P|476:280|452:208,1,120,0|0,0:0|0:0,0:0:0:0:
440,240,270048,6,0,L|424:148,1,80,4|0,0:0|2:0,0:0:0:0:
344,216,270348,2,0,L|328:124,1,80,2|0,0:2|0:0,0:0:0:0:
316,52,270648,1,2,0:0:0:0:
316,52,270798,2,0,P|272:52|220:48,2,80,2|0|0,0:2|0:0|0:0,0:0:0:0:
416,56,271248,5,2,0:0:0:0:
176,192,271698,1,2,0:0:0:0:
412,304,272148,2,0,P|420:220|424:168,1,120,2|0,0:0|0:0,0:0:0:0:
448,164,272448,6,0,P|372:192|284:176,2,160,4|2|10,0:0|0:2|0:2,0:0:0:0:
504,232,273198,1,2,0:2:0:0:
424,272,273348,2,0,P|380:284|336:284,1,80,8|8,0:2|0:2,0:0:0:0:
260,260,273648,6,0,B|196:280|196:280|168:228|96:232,1,160,2|8,0:2|0:2,0:0:0:0:
232,180,274098,2,0,B|296:160|296:160|320:212|396:208,1,160,10|8,0:2|0:2,0:0:0:0:
420,136,274548,2,0,L|508:120,1,80,2|0,0:0|0:0,0:0:0:0:
444,48,274848,5,4,0:0:0:0:
444,48,274998,2,0,P|404:56|348:64,1,80,0|10,2:0|0:2,0:0:0:0:
280,48,275298,1,0,0:0:0:0:
224,112,275448,2,0,P|216:160|220:200,1,80,8|2,0:2|0:2,0:0:0:0:
320,192,275748,2,0,P|322:151|314:104,1,80,0|8,0:2|0:0,0:0:0:0:
316,112,275973,1,8,0:0:0:0:
316,112,276048,1,6,0:0:0:0:
372,24,276198,6,0,P|384:72|416:112,1,80,8|8,0:0|0:0,0:0:0:0:
484,80,276498,2,0,L|468:168,1,80,8|8,0:0|0:0,0:0:0:0:
384,192,276798,2,0,P|416:240|464:260,1,80,8|4,0:0|0:0,0:0:0:0:
344,292,277098,2,0,P|304:348|264:364,1,80,0|4,0:0|0:0,0:0:0:0:
256,192,277398,12,4,278448,2:2:0:0:
144,80,278748,5,4,2:2:0:0:
144,80,279048,1,4,2:2:0:0:
144,80,279348,2,0,P|208:84|248:88,1,80,4|2,1:2|2:0,0:0:0:0:
300,48,279648,5,0,0:0:0:0:
288,140,279798,2,0,P|380:148|432:104,1,160,0|0,0:0|2:0,0:0:0:0:
464,188,280248,2,0,P|424:212|364:224,1,80,0|0,0:0|2:0,0:0:0:0:
310,257,280548,2,0,L|282:109,1,120,8|0,0:0|0:0,0:0:0:0:
296,104,280848,6,2,P|232:152|136:132,1,160,4|8,0:2|0:2,0:0:0:0:
64,200,281298,2,2,P|128:248|224:228,1,160,4|0,0:2|0:0,0:0:0:0:
300,216,281748,2,2,L|240:372,1,160,10|4,0:0|0:0,0:0:0:0:
256,192,282198,12,0,283098,0:0:0:0:
