osu file format v14

[General]
AudioFilename: audio.mp3
AudioLeadIn: 0
PreviewTime: 63123
Countdown: 0
SampleSet: Normal
StackLeniency: 0.7
Mode: 0
LetterboxInBreaks: 0
WidescreenStoryboard: 0

[Editor]
DistanceSpacing: 0.5
BeatDivisor: 4
GridSize: 4
TimelineZoom: 2.2

[Metadata]
Title:Ginza vs Ginza
TitleUnicode:銀座vs銀座
Artist:Zensou Sagi no Hito
ArtistUnicode:前奏詐欺の人
Creator:Delis
Version:Ex
Source:
Tags:真・女神転生 shin megami tensei smt 2 EXPLORER
BeatmapID:1355247
BeatmapSetID:638950

[Difficulty]
HPDrainRate:8
CircleSize:4
OverallDifficulty:9
ApproachRate:9.5
SliderMultiplier:1.9
SliderTickRate:2

[Events]
//Background and Video events
0,0,"edewwqedcxz.jpg",0,0
//Break Periods
2,156398,158748
2,161198,163698
2,165998,167448
2,211448,216648
//Storyboard Layer 0 (Background)
//Storyboard Layer 1 (Fail)
//Storyboard Layer 2 (Pass)
//Storyboard Layer 3 (Foreground)
//Storyboard Sound Samples

[TimingPoints]
1248,300,4,2,0,40,1,0
1248,-125,4,2,0,40,0,0
3648,-125,4,3,0,40,0,0
6048,-125,4,2,0,40,0,0
8448,-125,4,3,0,40,0,0
10848,-125,4,2,0,45,0,0
13248,-125,4,3,0,45,0,0
15648,-125,4,2,0,50,0,0
18048,-125,4,3,0,50,0,0
20448,-125,4,2,0,50,0,0
22848,-125,4,3,0,50,0,0
25248,-100,4,2,2,60,0,0
33548,-83.3333333333333,4,1,1,60,0,0
34548,-100,4,1,1,60,0,0
82848,-100,4,1,1,65,0,0
100848,-76.9230769230769,4,1,1,65,0,0
101598,-100,4,1,1,65,0,0
112548,-83.3333333333333,4,1,1,65,0,0
112848,-100,4,1,1,65,0,0
121248,-83.3333333333333,4,1,1,70,0,0
122448,-100,4,1,1,65,0,0
151548,-100,4,1,1,50,0,0
237648,-166.666666666667,4,1,1,65,0,0
237798,-100,4,1,1,65,0,0
246048,-83.3333333333333,4,1,1,65,0,0
247248,-83.3333333333333,4,1,1,65,0,1
255648,-83.3333333333333,4,1,1,65,0,0
256098,-166.666666666667,4,1,1,65,0,0
256248,-83.3333333333333,4,1,1,65,0,0
256848,-83.3333333333333,4,1,1,70,0,1
258948,-125,4,1,1,70,0,1
259248,-83.3333333333333,4,1,1,70,0,1
263748,-125,4,1,1,70,0,1
264048,-83.3333333333333,4,1,1,70,0,1
265098,-62.5,4,1,1,70,0,1
267348,-100,4,1,1,70,0,1
267648,-125,4,1,1,55,0,0
279648,-100,4,1,1,65,0,0
280848,-71.4285714285714,4,1,1,65,0,0
281748,-125,4,1,1,65,0,0

[Colours]
Combo1 : 222,185,12
Combo2 : 82,155,47
Combo3 : 27,63,139
Combo4 : 154,58,92

[HitObjects]
60,304,1248,6,0,L|48:204,1,76,2|0,0:0|0:0,0:0:0:0:
136,240,1548,2,0,L|148:328,1,76,2|0,0:0|0:0,0:0:0:0:
216,188,1848,1,2,0:0:0:0:
216,188,1998,2,0,L|224:80,1,76,2|0,0:0|0:0,0:0:0:0:
140,36,2298,1,2,0:0:0:0:
140,36,2448,2,0,L|132:120,1,76,2|0,0:0|0:0,0:0:0:0:
40,180,2748,1,2,0:0:0:0:
40,180,2898,2,0,L|48:88,1,76,2|0,0:0|0:0,0:0:0:0:
128,212,3198,1,2,0:0:0:0:
184,276,3348,2,0,B|152:304|104:292,1,76,2|0,0:0|0:0,0:0:0:0:
300,172,3648,6,0,L|400:192,1,76,4|0,0:0|0:0,0:0:0:0:
464,248,3948,2,0,L|436:80,1,152,2|8,0:0|0:0,0:0:0:0:
308,256,4398,1,0,0:0:0:0:
308,256,4548,2,0,L|396:272,1,76,2|0,0:0|0:0,0:0:0:0:
392,44,4848,2,0,B|336:48|304:120|348:172,1,152,8|2,0:0|0:0,0:0:0:0:
436,136,5298,2,0,B|492:132|524:60|480:8,1,152,8|8,0:0|0:0,0:0:0:0:
396,220,5748,2,0,L|380:308,1,76,2|0,0:0|0:0,0:0:0:0:
188,296,6048,6,0,P|200:220|192:144,2,152,2|2|0,0:0|0:0|0:0,0:0:0:0:
108,340,6798,2,0,P|68:352|24:348,1,76,2|0,0:0|0:0,0:0:0:0:
94,176,7098,1,2,0:0:0:0:
24,232,7248,2,0,L|2:148,1,76,2|0,0:0|0:0,0:0:0:0:
128,80,7548,1,2,0:0:0:0:
196,140,7698,2,0,L|224:48,1,76,2|0,0:0|0:0,0:0:0:0:
104,248,7998,1,2,0:0:0:0:
192,232,8148,2,0,B|164:324,1,76,2|0,0:0|0:0,0:0:0:0:
300,228,8448,6,0,P|340:220|388:224,1,76,4|0,0:0|0:0,0:0:0:0:
456,96,8748,2,0,P|412:104|368:96,1,76,2|0,0:0|0:0,0:0:0:0:
344,296,9048,1,8,0:0:0:0:
432,344,9198,2,0,P|444:308|440:260,1,76,0|2,0:0|0:0,0:0:0:0:
300,148,9498,1,0,0:0:0:0:
328,56,9648,2,0,P|396:120|380:200,1,152,8|2,0:0|0:0,0:0:0:0:
360,344,10098,2,0,P|302:303|298:215,1,152,8|8,0:0|0:0,0:0:0:0:
394,173,10548,2,0,L|486:197,1,76,2|0,0:0|0:0,0:0:0:0:
220,148,10848,6,0,L|48:176,1,152,2|2,0:0|0:0,0:0:0:0:
69,172,11298,1,0,0:0:0:0:
116,92,11448,2,0,L|152:12,2,76,2|2|0,0:0|0:0|0:0,0:0:0:0:
172,240,11898,2,0,L|192:328,2,76,2|2|0,0:0|0:0|0:0,0:0:0:0:
196,104,12348,2,0,L|232:24,1,76,2|2,0:0|0:0,0:0:0:0:
56,200,12648,2,0,L|76:288,1,76,0|2,0:0|0:0,0:0:0:0:
16,352,12948,2,0,L|112:368,1,76,2|0,0:0|0:0,0:0:0:0:
296,300,13248,6,0,P|320:224|296:144,2,152,4|2|8,0:0|0:0|0:0,0:0:0:0:
376,344,13998,1,0,0:0:0:0:
376,344,14148,2,0,L|472:312,1,76,2|0,0:0|0:0,0:0:0:0:
500,120,14448,2,0,B|508:172|480:196|480:196|508:224|492:280,1,152,8|2,0:0|0:0,0:0:0:0:
408,248,14898,2,0,B|384:220|392:176|392:176|296:136,1,152,8|8,0:0|0:0,0:0:0:0:
324,64,15348,2,0,L|416:104,1,76,2|0,0:0|0:0,0:0:0:0:
212,144,15648,6,0,P|160:144|120:136,1,76,2|0,0:0|0:0,0:0:0:0:
60,180,15948,1,2,0:0:0:0:
64,92,16098,1,0,0:0:0:0:
136,140,16248,1,2,0:0:0:0:
100,272,16398,2,0,B|96:316|100:360,1,76
180,312,16698,1,2,0:0:0:0:
4,320,16848,2,0,B|-4:248|8:156,1,152,2|2,0:0|0:0,0:0:0:0:
96,116,17298,2,0,L|88:208,1,76,2|0,0:0|0:0,0:0:0:0:
216,232,17598,1,2,0:0:0:0:
172,164,17748,2,0,L|184:64,1,76,2|0,0:0|0:0,0:0:0:0:
316,208,18048,6,0,L|472:200,2,152,4|2|8,0:0|0:0|0:0,0:0:0:0:
288,128,18798,1,0,0:0:0:0:
372,128,18948,2,0,B|372:88|364:24,1,76,2|0,0:0|0:0,0:0:0:0:
232,60,19248,2,0,B|184:76|172:156|224:188,1,152,8|2,0:0|0:0,0:0:0:0:
316,208,19698,2,0,B|364:224|376:304|324:336,1,152,8|8,0:0|0:0,0:0:0:0:
248,340,20148,2,0,P|204:336|160:336,1,76,2|0,0:0|0:0,0:0:0:0:
44,240,20448,6,0,P|120:256|200:216,1,152,2|2,0:0|0:0,0:0:0:0:
240,152,20898,1,0,0:0:0:0:
148,144,21048,2,0,P|104:128|60:116,1,76,2|0,0:0|0:0,0:0:0:0:
164,52,21348,2,0,P|204:48|248:40,1,76,2|0,0:0|0:0,0:0:0:0:
320,208,21648,1,2,0:0:0:0:
240,152,21798,2,0,B|224:192|212:248,1,76
120,324,22098,2,0,B|56:264|104:176,1,152,2|0,0:0|0:0,0:0:0:0:
232,304,22548,2,0,L|384:288,1,152,2|4,0:0|0:0,0:0:0:0:
383,288,23148,6,0,P|379:240|375:200,1,76,2|0,0:0|0:0,0:0:0:0:
372,120,23448,1,8,0:0:0:0:
456,160,23598,1,0,0:0:0:0:
292,184,23748,2,0,P|294:229|298:281,1,76,2|0,0:0|0:0,0:0:0:0:
200,224,24048,2,0,B|211:147|218:54,1,152,8|2,0:0|0:0,0:0:0:0:
116,124,24498,2,0,B|105:201|98:294,1,152,8|8,0:0|0:0,0:0:0:0:
176,344,24948,5,2,0:0:0:0:
352,268,25098,1,2,0:0:0:0:
196,168,25248,2,0,P|228:64|304:40,2,190,4|8|2,0:3|0:0|0:0,0:1:0:0:
264,256,25998,1,0,0:0:0:0:
288,144,26148,1,8,0:0:0:0:
148,224,26298,1,0,0:0:0:0:
88,120,26448,5,2,0:0:0:0:
193,73,26598,2,0,P|197:149|193:193,1,95,0|8,0:0|0:0,0:0:0:0:
152,328,26898,2,0,P|68:308|40:208,1,190,2|2,0:0|0:0,0:0:0:0:
236,252,27348,2,0,P|296:244|344:244,1,95,8|0,0:0|0:0,0:0:0:0:
472,100,27648,6,0,P|384:132|284:112,1,190,2|8,0:0|0:0,0:0:0:0:
291,115,28098,1,0,0:0:0:0:
84,84,28248,2,0,P|132:64|188:64,1,95,2|0,0:0|0:0,0:0:0:0:
208,232,28548,2,0,P|160:252|104:252,1,95,8|0,0:0|0:0,0:0:0:0:
40,184,28848,5,2,0:0:0:0:
136,148,28998,2,0,L|240:160,1,95,0|8,0:0|0:0,0:0:0:0:
416,144,29298,1,2,0:0:0:0:
484,216,29448,2,0,L|376:232,1,95,0|2,0:0|0:0,0:0:0:0:
188,48,29748,2,0,L|336:80,1,142.5,8|0,0:0|0:0,0:0:0:0:
384,80,30048,6,0,P|332:100|296:152,1,95,2|0,0:0|0:0,0:0:0:0:
200,252,30348,2,0,P|284:284|320:272,1,95,8|0,0:0|0:0,0:0:0:0:
192,128,30648,1,2,0:0:0:0:
72,200,30798,1,0,0:0:0:0:
104,340,30948,2,0,L|216:380,1,95,8|0,0:0|0:0,0:0:0:0:
380,248,31248,6,0,P|408:160|336:88,1,190,2|8,0:0|0:0,0:0:0:0:
152,248,31698,2,0,L|268:276,1,95,2|0,0:0|0:0,0:0:0:0:
104,120,31998,1,2,0:0:0:0:
12,168,32148,2,0,L|24:68,1,95,8|0,0:0|0:0,0:0:0:0:
192,160,32448,6,0,B|264:184|312:124|312:124|332:160|384:156,1,190,2|8,0:0|0:0,0:0:0:0:
448,112,32898,1,0,0:0:0:0:
500,244,33048,2,0,L|464:348,1,95,2|0,0:0|0:0,0:0:0:0:
212,308,33348,2,0,L|333:297,1,95,8|0,0:0|0:0,0:0:0:0:
339,298,33573,5,0,0:0:0:0:
339,298,33648,2,0,L|333:221,1,56.9999982604981,8|0,0:0|0:0,0:0:0:0:
249,177,33798,2,0,L|257:253,1,56.9999982604981
333,161,33948,2,0,L|325:81,1,56.9999982604981,8|0,0:0|0:0,0:0:0:0:
241,41,34098,2,0,L|245:113,1,56.9999982604981
168,264,34248,5,0,0:0:0:0:
120,272,34323,1,0,0:0:0:0:
72,260,34398,1,0,0:0:0:0:
40,228,34473,1,0,0:0:0:0:
32,180,34548,2,2,L|40:32,1,142.5,8|0,0:0|0:0,0:0:0:0:
112,112,34848,6,0,P|176:128|232:104,1,95,4|0,0:0|0:0,0:0:0:0:
300,184,35148,2,0,P|396:140|484:156,1,190,8|8,0:2|0:2,0:0:0:0:
476,152,35598,1,0,0:0:0:0:
304,80,35748,2,0,P|248:48|224:4,1,95,8|0,0:2|0:0,0:0:0:0:
36,236,36048,6,0,P|148:252|180:316,1,190,8|8,0:2|0:2,0:0:0:0:
416,232,36498,2,0,P|346:320|274:316,1,190
160,144,36948,1,8,0:2:0:0:
220,64,37098,5,0,0:0:0:0:
220,64,37173,1,0,0:0:0:0:
220,64,37248,2,0,P|272:40|344:48,1,95,8|0,0:2|0:0,0:0:0:0:
296,216,37548,2,0,P|244:240|172:232,1,95,8|0,0:2|0:0,0:0:0:0:
360,128,37848,1,8,0:2:0:0:
332,312,37998,1,0,0:0:0:0:
256,144,38148,1,8,0:2:0:0:
412,192,38298,1,0,0:0:0:0:
432,40,38448,5,2,0:1:0:0:
60,192,38898,1,2,0:1:0:0:
388,344,39348,1,2,0:1:0:0:
388,344,39648,2,0,L|372:240,1,95,4|0,0:0|0:0,0:0:0:0:
264,312,39948,6,0,L|288:116,1,190,4|8,0:2|0:2,0:0:0:0:
287,123,40398,1,0,0:0:0:0:
100,168,40548,2,0,P|176:184|224:176,1,95,8|0,0:2|0:0,0:0:0:0:
373,250,40848,2,0,P|401:154|377:66,1,190,8|8,0:2|0:2,0:0:0:0:
208,24,41298,2,0,P|196:76|204:132,1,95,0|8,0:0|0:2,0:0:0:0:
280,244,41598,1,0,0:0:0:0:
292,144,41748,1,8,0:2:0:0:
100,208,41898,5,8,0:3:0:0:
100,208,41973,1,4,0:3:0:0:
100,208,42048,2,0,P|100:144|108:96,1,95,4|0,0:0|0:0,0:0:0:0:
248,320,42348,2,0,P|224:240|232:132,1,190,8|8,0:2|0:2,0:0:0:0:
320,212,42798,1,0,0:0:0:0:
152,324,42948,1,8,0:2:0:0:
24,256,43098,5,8,0:0:0:0:
24,256,43173,1,8,0:0:0:0:
24,256,43248,1,14,0:0:0:0:
144,184,43398,1,8,0:0:0:0:
144,184,43473,1,8,0:0:0:0:
144,184,43548,2,0,L|140:116,1,47.5,4|0,0:3|0:0,0:0:0:0:
268,240,43698,1,8,0:2:0:0:
272,248,43773,1,8,0:2:0:0:
276,256,43848,2,0,L|268:320,1,47.5,8|0,0:0|0:0,0:0:0:0:
396,196,43998,2,0,L|404:144,1,47.5,8|8,0:2|0:2,0:0:0:0:
308,48,44148,5,8,0:0:0:0:
300,56,44223,1,8,0:0:0:0:
292,64,44298,1,8,0:0:0:0:
284,72,44373,1,8,0:0:0:0:
276,80,44448,2,0,P|196:88|168:84,1,95,4|0,0:0|0:0,0:0:0:0:
48,48,44748,2,0,P|88:124|72:208,1,142.5,8|0,0:0|2:0,0:0:0:0:
56,220,45048,1,0,0:0:0:0:
208,344,45198,2,0,P|264:332|312:284,1,95,2|8,0:2|0:0,0:0:0:0:
312,216,45498,1,2,0:2:0:0:
272,44,45648,6,0,P|240:92|236:148,1,95,2|0,0:0|0:0,0:0:0:0:
376,280,45948,1,8,0:0:0:0:
208,344,46098,2,0,L|188:244,1,95,2|0,0:0|0:0,0:0:0:0:
152,72,46398,1,2,0:0:0:0:
256,196,46548,5,8,0:0:0:0:
264,204,46623,1,2,0:0:0:0:
272,212,46698,1,2,0:0:0:0:
280,220,46773,1,2,0:0:0:0:
288,228,46848,2,0,P|312:180|300:128,1,95,4|0,0:2|0:0,0:0:0:0:
80,240,47148,2,0,L|224:288,1,142.5,8|0,0:0|2:0,0:0:0:0:
260,304,47448,1,0,0:0:0:0:
184,184,47598,2,0,L|64:140,1,95,2|8,0:2|0:0,0:0:0:0:
16,108,47898,1,2,0:2:0:0:
256,120,48048,5,2,0:2:0:0:
256,120,48198,2,0,P|320:120|368:104,1,95,8|8,0:2|0:0,0:0:0:0:
328,300,48498,2,0,P|380:312|440:304,1,95,2|0,0:2|0:0,0:0:0:0:
180,236,48798,1,8,0:2:0:0:
44,336,48948,5,8,0:0:0:0:
48,328,49023,1,2,0:0:0:0:
52,320,49098,1,2,0:0:0:0:
56,312,49173,1,2,0:0:0:0:
60,304,49248,2,0,L|44:184,1,95,4|0,0:2|0:0,0:0:0:0:
108,40,49548,2,0,B|76:80|88:152|140:168,1,142.5,8|0,0:0|2:0,0:0:0:0:
176,168,49848,1,0,0:0:0:0:
292,324,49998,1,2,0:2:0:0:
292,324,50148,2,0,B|248:300|188:320,1,95,8|2,0:0|0:2,0:0:0:0:
368,140,50448,6,0,L|472:100,1,95,2|0,0:0|0:0,0:0:0:0:
348,232,50748,1,8,0:0:0:0:
280,168,50898,2,0,L|292:56,1,95,2|0,1:1|0:0,0:0:0:0:
260,260,51198,1,2,0:0:0:0:
104,320,51348,5,10,0:0:0:0:
104,320,51423,1,2,0:0:0:0:
104,320,51498,1,2,0:0:0:0:
104,320,51573,1,2,0:0:0:0:
104,320,51648,2,0,P|96:268|108:216,1,95,4|0,0:2|0:0,0:0:0:0:
144,60,51948,2,0,L|36:120,1,95,8|0,0:0|0:0,0:0:0:0:
60,106,52173,1,0,0:0:0:0:
60,106,52248,1,10,0:2:0:0:
236,204,52398,1,8,0:2:0:0:
324,172,52548,2,0,P|332:116|312:60,1,95,8|2,0:0|0:2,0:0:0:0:
152,40,52848,5,4,0:2:0:0:
292,280,53148,5,8,0:0:0:0:
160,232,53298,1,12,0:2:0:0:
384,240,53598,5,8,0:2:0:0:
56,352,53748,2,0,P|48:288|44:236,1,95,10|0,0:0|0:0,0:0:0:0:
120,208,54048,6,0,P|188:172|272:176,1,142.5,4|0,0:0|2:0,0:0:0:0:
328,212,54348,2,0,L|424:200,1,95,8|0,0:0|0:0,0:0:0:0:
352,120,54648,1,0,0:0:0:0:
376,300,54798,1,10,0:2:0:0:
224,348,54948,2,0,P|208:288|216:224,1,95,8|2,0:0|0:2,0:0:0:0:
264,32,55248,6,0,P|340:32|376:36,1,95,2|0,0:0|0:0,0:0:0:0:
320,124,55548,1,8,0:0:0:0:
172,176,55698,2,0,P|116:176|68:180,1,95,2|0,0:0|0:0,0:0:0:0:
128,88,55998,1,2,0:0:0:0:
320,272,56148,2,0,L|304:376,1,95,8|0,0:0|0:0,0:0:0:0:
232,152,56448,6,0,P|316:128|384:144,1,142.5,4|0,0:2|2:0,0:0:0:0:
436,192,56748,2,0,L|460:80,1,95,8|0,0:0|0:0,0:0:0:0:
320,224,57048,1,0,0:0:0:0:
236,276,57198,1,10,0:2:0:0:
236,276,57273,1,0,0:0:0:0:
236,276,57348,2,0,L|124:288,1,95,8|0,0:0|0:0,0:0:0:0:
48,160,57648,5,10,0:2:0:0:
164,204,57798,1,8,0:2:0:0:
144,84,57948,1,8,0:0:0:0:
28,56,58098,1,2,0:2:0:0:
232,128,58248,2,0,P|296:116|332:112,1,95,0|8,0:0|0:2,0:0:0:0:
452,200,58548,2,2,B|496:228|500:296|452:328,1,142.5,8|0,0:0|2:0,0:1:0:0:
368,304,58848,6,0,P|312:316|264:332,1,95,4|0,0:2|0:0,0:0:0:0:
184,268,59148,1,8,0:0:0:0:
112,204,59298,1,0,0:0:0:0:
112,204,59373,1,0,0:0:0:0:
112,204,59448,1,2,0:2:0:0:
48,272,59598,1,10,0:2:0:0:
216,168,59748,1,8,0:0:0:0:
48,132,59898,1,2,0:2:0:0:
228,44,60048,6,0,P|276:49|336:60,1,95,2|0,0:0|0:0,0:0:0:0:
322,56,60348,1,8,0:0:0:0:
416,264,60498,2,0,B|368:264|320:252,1,95,2|0,0:0|0:0,0:0:0:0:
248,152,60798,1,2,0:0:0:0:
96,252,60948,1,8,0:0:0:0:
108,300,61023,1,0,0:0:0:0:
148,324,61098,1,2,0:0:0:0:
196,324,61173,1,2,0:0:0:0:
232,292,61248,1,12,0:0:0:0:
148,156,61398,5,12,0:0:0:0:
308,68,61548,1,8,0:2:0:0:
308,68,61623,1,8,0:2:0:0:
308,68,61698,1,8,0:0:0:0:
104,48,61848,5,8,0:0:0:0:
300,188,61998,1,8,0:2:0:0:
300,188,62073,1,8,0:2:0:0:
300,188,62148,1,12,0:1:0:0:
188,228,62298,1,12,0:1:0:0:
224,52,62448,5,4,0:2:0:0:
368,244,62598,1,8,0:2:0:0:
368,244,62673,1,8,0:2:0:0:
368,244,62748,1,8,0:0:0:0:
120,296,62898,1,8,0:2:0:0:
120,296,62973,1,8,0:2:0:0:
120,296,63048,1,8,0:2:0:0:
52,108,63198,5,0,0:0:0:0:
100,84,63273,1,0,0:0:0:0:
152,88,63348,1,12,0:2:0:0:
192,120,63423,1,0,0:0:0:0:
240,144,63498,1,12,0:2:0:0:
292,148,63573,1,0,0:0:0:0:
336,124,63648,1,6,0:0:0:0:
312,232,63798,5,2,0:0:0:0:
392,312,63948,2,2,L|412:116,1,190,10|0,0:0|0:0,0:0:0:0:
304,320,64398,2,0,P|256:310|196:300,1,95,10|8,0:2|0:0,0:0:0:0:
144,224,64698,1,0,0:0:0:0:
176,56,64848,2,0,B|232:4|324:32|332:112,1,190,10|8,0:2|0:0,0:0:0:0:
432,328,65298,2,0,B|360:328|328:232|388:180,1,190,10|8,0:2|0:2,0:0:0:0:
488,76,65748,1,8,0:0:0:0:
144,224,66048,6,0,L|44:216,1,95,2|0,0:0|0:0,0:0:0:0:
128,324,66348,2,2,B|200:328|200:328|252:352|252:352|328:356,1,190,10|0,0:0|0:0,0:0:0:0:
436,272,66798,1,8,0:2:0:0:
436,272,66948,2,0,P|388:267|339:265,1,95,10|0,0:0|0:0,0:0:0:0:
164,128,67248,6,0,P|210:134|272:136,1,95,2|2,0:0|0:0,0:0:0:0:
424,144,67548,1,10,0:0:0:0:
428,48,67698,2,0,B|352:44|352:44|304:64|304:64|224:56,1,190,8|8,0:2|0:2,0:0:0:0:
332,228,68148,2,0,P|336:180|340:116,1,95,8|0,0:0|0:0,0:0:0:0:
136,256,68448,6,0,P|188:288|252:276,1,95,2|0,0:0|0:0,0:0:0:0:
180,112,68748,2,2,P|76:136|36:216,1,190,10|0,0:0|0:0,0:0:0:0:
256,200,69198,1,8,0:2:0:0:
340,133,69348,2,0,P|344:84|324:20,1,95,10|0,0:0|0:0,0:0:0:0:
380,248,69648,6,0,P|440:276|496:264,1,95,2|2,0:0|0:0,0:0:0:0:
284,296,69948,1,10,0:0:0:0:
184,252,70098,2,0,P|72:256|0:324,1,190,8|8,0:2|0:2,0:0:0:0:
232,152,70548,2,0,P|268:108|280:48,1,95,10|0,0:0|0:0,0:0:0:0:
36,104,70848,6,0,P|88:140|156:136,1,95,2|2,0:0|0:0,0:0:0:0:
320,188,71148,2,2,P|388:132|492:136,1,190,10|0,0:0|0:0,0:0:0:0:
428,232,71598,1,8,0:2:0:0:
328,288,71748,2,0,L|192:264,1,95,10|0,0:0|0:0,0:0:0:0:
120,244,72048,5,12,0:2:0:0:
320,188,72198,1,0,0:0:0:0:
148,120,72348,1,10,0:0:0:0:
252,88,72498,2,0,L|240:204,1,95,12|0,0:2|0:0,0:0:0:0:
224,348,72798,1,2,0:0:0:0:
120,244,72948,1,10,0:0:0:0:
288,272,73098,1,2,0:0:0:0:
324,36,73248,5,4,0:0:0:0:
368,124,73398,1,0,0:0:0:0:
472,120,73548,1,10,0:0:0:0:
272,112,73698,5,2,0:0:0:0:
324,200,73848,1,0,0:0:0:0:
432,204,73998,1,2,0:0:0:0:
156,72,74148,5,10,0:0:0:0:
248,36,74298,1,2,0:0:0:0:
168,212,74448,5,2,0:0:0:0:
68,152,74598,1,0,0:0:0:0:
32,260,74748,1,10,0:0:0:0:
276,192,74898,5,2,0:0:0:0:
172,136,75048,1,0,0:0:0:0:
124,244,75198,1,2,0:0:0:0:
344,272,75348,6,0,L|380:156,1,95,10|2,0:0|0:0,0:0:0:0:
104,84,75648,5,2,0:0:0:0:
104,84,75798,2,0,P|160:80|216:68,1,95,2|8,0:0|0:0,0:0:0:0:
462,151,76098,1,2,0:0:0:0:
462,151,76248,2,0,P|406:147|350:135,1,95,2|0,0:0|0:0,0:0:0:0:
112,248,76548,2,0,P|159:237|220:232,1,95,10|0,0:0|0:0,0:0:0:0:
364,312,76848,5,2,0:0:0:0:
256,344,76998,1,8,0:2:0:0:
304,184,77148,1,8,0:0:0:0:
220,116,77298,5,2,0:0:0:0:
256,264,77448,1,0,0:0:0:0:
384,160,77598,1,2,0:0:0:0:
164,184,77748,2,0,P|108:196|40:216,1,95,10|0,0:0|0:0,0:0:0:0:
120,56,78048,5,6,0:0:0:0:
300,64,78198,2,0,P|368:68|424:76,1,95,0|8,0:0|0:0,0:0:0:0:
256,200,78498,1,2,0:0:0:0:
336,284,78648,2,0,P|344:204|344:168,1,95,0|8,0:0|0:2,0:0:0:0:
168,172,78948,2,0,P|161:224|160:288,1,95,10|0,0:0|0:0,0:0:0:0:
288,368,79248,5,2,0:0:0:0:
232,292,79398,1,0,0:0:0:0:
256,200,79548,1,8,0:0:0:0:
164,48,79698,5,2,0:0:0:0:
252,96,79848,1,0,0:0:0:0:
344,48,79998,1,8,0:2:0:0:
168,156,80148,2,0,L|56:168,1,95,10|0,0:0|0:0,0:0:0:0:
344,216,80448,5,2,0:0:0:0:
392,136,80598,1,0,0:0:0:0:
268,280,80748,5,8,0:0:0:0:
348,328,80898,1,2,0:0:0:0:
260,176,81048,5,8,0:2:0:0:
92,256,81198,1,12,0:0:0:0:
176,72,81348,1,8,0:0:0:0:
156,168,81498,1,8,0:0:0:0:
156,168,81573,1,8,0:0:0:0:
156,168,81648,1,4,0:0:0:0:
276,88,81798,5,0,3:0:0:0:
276,88,81873,1,0,3:0:0:0:
276,88,81948,2,0,L|260:16,1,47.5,4|8,2:3|2:3,2:0:0:0:
260,176,82098,2,0,L|324:212,1,47.5,8|8,2:3|2:3,2:0:0:0:
400,104,82248,2,0,L|352:128,1,47.5,8|8,2:3|2:3,2:0:0:0:
388,256,82398,2,0,L|400:200,1,47.5,4|8,2:3|2:3,2:0:0:0:
260,284,82548,2,0,P|184:292|112:304,1,142.5,8|0,0:0|2:0,0:0:0:0:
104,316,82848,6,0,P|112:252|116:208,1,95,4|0,0:0|0:0,0:0:0:0:
76,44,83148,2,0,P|68:108|64:152,1,95,8|0,0:0|0:0,0:0:0:0:
344,218,83448,2,0,P|356:162|356:102,1,95,2|8,0:2|0:2,0:0:0:0:
212,162,83748,2,0,P|200:218|200:278,1,95,8|0,0:0|0:0,0:0:0:0:
400,328,84048,2,0,P|448:308|496:264,1,95,10|0,0:2|0:0,0:0:0:0:
300,36,84348,2,0,P|292:88|304:148,1,95,8|8,0:0|0:2,0:0:0:0:
48,288,84648,2,0,P|52:240|44:184,1,95,2|8,0:2|0:2,0:0:0:0:
168,48,84948,2,0,P|164:100|168:152,1,95,8|0,0:0|0:0,0:0:0:0:
208,336,85248,5,10,0:2:0:0:
216,240,85398,1,0,0:0:0:0:
120,228,85548,1,8,0:0:0:0:
112,324,85698,1,0,0:0:0:0:
300,308,85848,5,2,0:2:0:0:
368,224,85998,1,8,0:2:0:0:
284,156,86148,1,8,0:0:0:0:
216,240,86298,1,0,0:0:0:0:
372,116,86448,5,8,0:2:0:0:
192,156,86598,2,0,P|136:144|76:124,1,95,8|8,0:2|0:0,0:0:0:0:
256,52,86898,1,8,0:2:0:0:
316,204,87048,1,2,0:2:0:0:
332,104,87198,1,8,0:2:0:0:
208,236,87348,1,8,0:0:0:0:
380,300,87498,1,8,0:2:0:0:
424,212,87648,6,0,P|428:156|424:104,1,95,10|0,0:2|0:0,0:0:0:0:
256,36,87948,2,0,P|240:112|264:188,1,142.5,8|0,0:0|2:0,0:0:0:0:
280,192,88248,2,0,L|164:214,1,95,2|8,0:2|0:2,0:0:0:0:
40,296,88548,2,0,P|120:288|192:328,1,142.5,8|0,0:0|2:0,0:0:0:0:
192,336,88848,1,8,0:2:0:0:
304,284,88998,5,0,0:0:0:0:
186,210,89148,1,8,0:0:0:0:
236,80,89298,2,0,P|288:52|348:44,1,95,8|2,0:2|0:2,0:0:0:0:
404,240,89598,1,8,0:2:0:0:
292,192,89748,1,8,0:0:0:0:
308,336,89898,1,0,0:0:0:0:
476,120,90048,6,0,L|376:128,1,95,10|0,0:2|0:0,0:0:0:0:
224,200,90348,2,0,L|72:164,1,142.5,8|0,0:0|2:0,0:0:0:0:
64,160,90648,1,2,0:2:0:0:
184,112,90798,1,8,0:2:0:0:
184,280,90948,1,8,0:0:0:0:
80,256,91098,1,8,0:2:0:0:
104,84,91248,5,4,0:0:0:0:
228,220,91398,1,8,0:2:0:0:
264,192,91473,1,8,0:0:0:0:
272,144,91548,2,0,L|260:64,1,47.5,8|4,2:3|2:3,0:0:0:0:
180,332,91698,1,8,0:0:0:0:
384,300,91848,5,8,0:2:0:0:
392,276,91923,1,8,0:0:0:0:
400,252,91998,1,0,0:0:0:0:
408,228,92073,1,0,0:0:0:0:
416,204,92148,1,8,0:0:0:0:
424,180,92223,1,8,0:0:0:0:
432,156,92298,1,8,0:0:0:0:
440,132,92373,1,8,0:0:0:0:
448,108,92448,2,0,L|340:120,1,95,4|0,0:0|0:0,0:0:0:0:
264,60,92748,5,8,0:0:0:0:
88,144,92898,2,0,L|196:132,1,95,2|2,0:0|0:2,0:0:0:0:
276,192,93198,1,2,0:0:0:0:
204,272,93348,2,0,L|96:260,1,95,10|0,0:0|0:0,0:0:0:0:
348,280,93648,6,0,L|448:292,1,95,2|0,0:0|0:0,0:0:0:0:
504,208,93948,1,8,0:0:0:0:
432,120,94098,2,0,L|312:132,1,95,2|2,0:0|0:2,0:0:0:0:
256,196,94398,1,2,0:0:0:0:
88,152,94548,2,0,L|204:140,1,95,10|0,0:0|0:0,0:0:0:0:
296,40,94848,5,2,0:0:0:0:
184,68,94998,1,0,0:0:0:0:
352,200,95148,5,8,0:0:0:0:
332,292,95298,1,2,0:0:0:0:
248,224,95448,5,2,0:2:0:0:
432,264,95598,1,8,0:2:0:0:
392,72,95748,1,10,0:0:0:0:
308,128,95898,1,0,0:0:0:0:
144,32,96048,5,2,0:0:0:0:
56,204,96198,1,6,0:0:0:0:
156,136,96348,1,0,3:0:0:0:
156,136,96423,1,0,3:0:0:0:
156,136,96498,2,0,L|96:108,1,47.5,8|0,3:1|2:0,0:0:0:0:
112,288,96648,1,0,3:0:0:0:
112,288,96723,1,0,3:0:0:0:
112,288,96798,2,0,L|172:260,1,47.5,10|0,3:1|2:0,0:0:0:0:
276,204,96948,5,0,3:0:0:0:
280,196,97023,1,0,3:0:0:0:
284,188,97098,1,8,0:0:0:0:
288,180,97173,1,8,0:0:0:0:
292,172,97248,5,4,3:0:0:0:
328,200,97323,1,0,3:0:0:0:
376,204,97398,1,0,0:0:0:0:
416,176,97473,1,0,0:0:0:0:
432,132,97548,1,8,0:0:0:0:
300,56,97698,5,0,0:0:0:0:
152,268,97848,2,0,L|260:296,1,95,2|8,0:2|0:2,0:0:0:0:
172,72,98148,2,0,L|64:44,1,95,8|0,0:0|0:0,0:0:0:0:
332,248,98448,5,10,0:2:0:0:
200,144,98598,1,0,0:0:0:0:
364,152,98748,1,8,0:0:0:0:
160,224,98898,1,8,0:2:0:0:
240,352,99048,6,0,P|288:352|336:336,1,95,2|8,0:2|0:2,0:0:0:0:
272,48,99348,2,0,P|224:48|176:64,1,95,8|0,0:0|0:0,0:0:0:0:
232,248,99648,5,10,0:2:0:0:
292,152,99798,1,0,0:0:0:0:
304,304,99948,1,8,0:0:0:0:
212,120,100098,1,0,0:0:0:0:
360,224,100248,6,0,P|432:212|468:172,1,95,2|8,0:2|0:2,0:0:0:0:
260,40,100548,1,8,0:0:0:0:
132,196,100698,5,0,3:0:0:0:
132,196,100773,1,0,3:0:0:0:
132,196,100848,2,0,L|144:116,1,61.7499971733095,12|0,3:1|2:0,0:0:0:0:
80,32,100998,2,0,L|68:120,1,61.7499971733095,4|0,0:2|2:0,0:0:0:0:
260,232,101148,5,0,3:0:0:0:
260,232,101223,1,0,3:0:0:0:
260,232,101298,2,0,L|248:148,1,61.7499971733095,4|0,3:2|0:0,0:0:0:0:
200,32,101448,2,0,L|208:112,1,61.7499971733095,4|0,0:2|0:0,0:0:0:0:
360,208,101598,5,0,3:0:0:0:
360,208,101673,1,0,3:0:0:0:
360,208,101748,2,0,L|372:140,1,47.5,8|0,3:1|0:0,0:0:0:0:
328,328,101898,2,0,L|336:280,1,47.5,4|0,0:2|0:0,0:0:0:0:
240,328,102048,6,0,B|128:352,1,95,4|0,0:0|0:0,0:0:0:0:
36,240,102348,2,0,B|132:212|236:200,1,190,8|0,0:0|0:0,0:0:0:0:
208,108,102798,1,8,0:2:0:0:
120,124,102948,1,8,0:0:0:0:
156,292,103098,1,0,0:0:0:0:
308,212,103248,6,0,P|312:164|320:104,1,95,8|0,0:2|0:0,0:0:0:0:
408,176,103548,1,8,0:0:0:0:
352,332,103698,2,0,P|260:304|220:208,1,190,8|8,0:2|0:2,0:0:0:0:
68,144,104148,2,2,L|200:76,1,142.5,10|0,0:0|2:0,0:0:0:0:
216,64,104448,6,0,P|144:48|104:36,1,95,2|0,0:1|2:0,0:0:0:0:
280,160,104748,2,0,P|332:176|388:184,1,95,10|0,0:0|2:0,0:0:0:0:
168,252,105048,2,2,P|80:272|16:380,1,190,2|8,0:0|0:0,0:0:0:0:
252,304,105498,1,2,0:0:0:0:
322,241,105648,6,0,L|368:252,2,31.6666666666667,8|2|2,0:2|0:0|0:0,0:0:0:0:
322,241,105798,2,0,P|282:161|242:141,1,95,8|10,0:2|0:0,0:0:0:0:
64,52,106098,2,2,P|152:100|248:72,1,190,8|8,0:2|0:2,0:1:0:0:
472,204,106548,2,2,P|384:164|276:208,1,190,10|2,0:0|0:0,0:0:0:0:
244,284,106998,5,2,0:0:0:0:
328,352,107148,2,0,P|348:296|348:244,1,95,8|0,0:0|0:0,0:0:0:0:
208,176,107448,1,0,0:0:0:0:
208,176,107598,2,0,L|76:200,1,95,10|8,0:2|0:0,0:0:0:0:
288,56,107898,1,2,0:2:0:0:
288,56,108048,2,0,L|88:88,1,190,10|8,0:2|0:0,0:0:0:0:
284,192,108498,2,0,P|400:136|408:56,1,190,10|8,0:2|0:2,0:0:0:0:
208,276,108948,2,2,P|148:220|76:204,1,142.5,10|0,0:0|2:0,0:0:0:0:
72,164,109248,6,0,L|104:52,1,95,2|0,0:0|2:0,0:0:0:0:
240,200,109548,2,0,L|268:96,1,95,10|0,0:0|2:0,0:0:0:0:
404,304,109848,2,2,B|392:240|392:240|412:176|412:176|400:92,1,190,2|8,1:0|0:0,0:0:0:0:
336,36,110298,5,0,3:0:0:0:
336,36,110373,1,0,3:0:0:0:
336,36,110448,2,0,L|328:116,1,47.5,4|0,0:2|2:0,0:0:0:0:
240,200,110598,5,0,3:0:0:0:
240,200,110673,1,0,3:0:0:0:
240,200,110748,2,0,L|248:120,1,47.5,4|0,0:2|2:0,0:0:0:0:
168,40,110898,5,0,3:0:0:0:
168,40,110973,1,0,3:0:0:0:
168,40,111048,2,0,L|160:120,1,47.5,4|0,0:2|2:0,0:0:0:0:
88,220,111198,5,0,3:0:0:0:
88,220,111273,1,0,3:0:0:0:
88,220,111348,2,0,L|96:140,1,47.5,4|0,0:2|2:0,0:0:0:0:
32,60,111498,6,0,L|28:108,1,47.5,0|0,3:0|3:0,0:0:0:0:
180,160,111648,5,8,0:0:0:0:
204,156,111723,1,8,0:0:0:0:
228,152,111798,1,8,0:0:0:0:
252,148,111873,1,8,0:2:0:0:
276,144,111948,1,8,0:2:0:0:
300,140,112023,1,8,0:2:0:0:
324,136,112098,1,8,0:0:0:0:
348,132,112173,1,8,0:0:0:0:
372,128,112248,1,8,0:0:0:0:
396,124,112323,1,8,0:2:0:0:
420,120,112398,1,8,0:2:0:0:
444,116,112473,1,8,0:2:0:0:
468,112,112548,2,2,P|456:172|476:232,1,113.999996520996,4|0,0:2|2:0,0:1:0:0:
368,320,112848,6,2,P|280:344|176:280,1,190,4|8,0:0|0:0,0:0:0:0:
120,168,113298,2,2,P|208:144|312:208,1,190,2|8,0:0|0:2,0:0:0:0:
352,108,113748,2,0,L|468:72,1,95,8|0,0:0|0:0,0:0:0:0:
264,296,114048,2,0,P|216:236|220:144,1,142.5,8|0,0:2|0:0,0:0:0:0:
256,104,114348,1,10,0:0:0:0:
156,292,114498,2,2,P|92:232|16:228,1,142.5,2|0,0:0|2:0,0:0:0:0:
108,156,114798,1,8,0:2:0:0:
176,36,114948,2,0,B|116:28|48:60,1,95,10|2,0:0|0:0,0:0:0:0:
256,256,115248,6,2,B|312:272|312:272|388:268|408:192,1,190,2|8,0:0|0:0,0:0:0:0:
192,72,115698,2,2,B|144:112|144:112|115:180|171:235,1,190,2|8,0:0|0:2,0:0:0:0:
416,84,116148,2,0,P|356:84|308:116,1,95,8|0,0:0|0:0,0:0:0:0:
244,360,116448,1,10,0:2:0:0:
244,360,116598,1,8,0:2:0:0:
348,244,116748,1,8,0:0:0:0:
208,196,116898,2,0,B|176:104|176:104|212:76|224:24,1,190,10|8,0:2|0:2,0:0:0:0:
100,184,117348,2,0,L|-8:204,1,95,10|0,0:0|0:0,0:0:0:0:
288,148,117648,6,2,L|492:108,1,190,12|8,0:2|0:0,0:0:0:0:
316,264,118098,2,0,L|428:248,1,95,2|0,0:0|0:0,0:0:0:0:
472,188,118398,1,8,0:2:0:0:
336,348,118548,2,2,B|244:376|244:376|152:324,1,190,10|8,0:0|0:2,0:0:0:0:
52,244,118998,2,0,B|104:208|104:208|168:240|240:188,1,190,2|8,0:0|0:2,0:0:0:0:
456,156,119448,2,0,P|400:164|356:176,1,95,2|8,0:0|0:2,0:0:0:0:
176,92,119748,2,0,P|268:80|304:80,1,95,10|2,0:0|0:0,0:0:0:0:
436,304,120048,6,0,B|392:288|320:264,1,95,12|0,0:2|0:0,0:0:0:0:
241,217,120348,1,8,0:0:0:0:
264,340,120498,1,2,0:0:0:0:
152,264,120648,1,0,0:0:0:0:
236,124,120798,1,8,0:2:0:0:
360,232,120948,2,0,P|424:228|468:216,1,95,10|0,0:0|0:0,0:0:0:0:
104,92,121248,6,0,P|92:152|108:208,1,113.999996520996,4|0,0:2|0:0,0:0:0:0:
196,144,121548,1,8,0:0:0:0:
260,344,121698,6,0,P|272:280|248:220,1,113.999996520996,4|0,0:2|0:0,0:0:0:0:
168,292,121998,1,8,0:2:0:0:
352,256,122148,6,0,L|480:296,1,113.999996520996,4|0,0:2|0:0,0:0:0:0:
424,64,122448,2,0,P|352:84|328:116,1,95,4|0,0:0|0:0,0:0:0:0:
324,132,122673,1,0,0:0:0:0:
324,132,122748,2,2,P|256:52|168:48,1,190,10|0,0:0|0:0,0:0:0:0:
36,144,123198,5,8,0:2:0:0:
160,196,123348,1,8,0:0:0:0:
96,292,123498,1,2,0:2:0:0:
92,48,123648,5,8,0:2:0:0:
92,48,123723,1,2,0:0:0:0:
92,48,123798,1,2,0:0:0:0:
228,156,123948,1,8,0:0:0:0:
256,36,124098,1,2,0:0:0:0:
172,80,124248,5,2,0:0:0:0:
328,116,124398,1,2,0:0:0:0:
144,184,124548,1,10,0:0:0:0:
308,220,124698,1,2,0:0:0:0:
104,332,124848,6,2,P|56:248|76:140,1,190,4|8,0:2|0:0,0:0:0:0:
272,168,125298,2,2,L|468:128,1,190,2|0,0:0|0:0,0:0:0:0:
284,72,125748,2,0,P|168:100|152:104,1,95,8|0,0:0|0:0,0:0:0:0:
224,344,126048,1,8,0:2:0:0:
224,344,126198,2,0,P|248:300|232:232,1,95,8|8,0:2|0:0,0:0:0:0:
60,104,126498,2,2,P|32:196|76:280,1,190,8|8,0:2|0:2,0:0:0:0:
144,184,126948,2,0,L|272:172,1,95,8|0,0:0|0:0,0:0:0:0:
392,188,127248,6,0,P|356:240|384:320,1,142.5,8|0,0:2|0:0,0:0:0:0:
408,328,127548,2,0,L|288:352,1,95,10|2,0:0|0:0,0:0:0:0:
228,320,127848,1,0,0:0:0:0:
312,208,127998,1,8,0:2:0:0:
168,140,128148,2,0,L|188:32,1,95,10|2,0:0|0:0,0:0:0:0:
185,46,128373,1,2,0:0:0:0:
185,46,128448,1,2,0:0:0:0:
340,88,128598,5,0,0:0:0:0:
168,140,128748,1,10,0:0:0:0:
312,208,128898,1,2,0:0:0:0:
204,288,129048,1,2,0:0:0:0:
252,136,129198,1,2,0:0:0:0:
416,200,129348,2,0,P|468:184|512:160,1,95,10|0,0:0|0:0,0:0:0:0:
316,128,129648,6,0,P|288:188|316:296,1,142.5,4|0,0:0|2:0,0:0:0:0:
316,284,129948,1,8,0:0:0:0:
140,192,130098,2,0,L|4:224,1,95,4|0,0:2|0:0,0:0:0:0:
184,64,130398,1,4,0:2:0:0:
316,284,130548,1,8,0:0:0:0:
316,128,130698,1,8,0:0:0:0:
176,332,130848,5,4,0:0:0:0:
400,264,130998,1,8,0:0:0:0:
400,264,131073,1,8,0:0:0:0:
400,264,131148,1,8,0:0:0:0:
336,368,131298,1,8,0:2:0:0:
272,120,131448,5,0,3:0:0:0:
288,108,131523,1,0,3:0:0:0:
304,96,131598,1,8,0:0:0:0:
320,84,131673,1,0,3:0:0:0:
272,60,131748,5,4,0:2:0:0:
252,56,131823,1,0,0:0:0:0:
232,52,131898,1,8,0:0:0:0:
212,48,131973,1,0,0:0:0:0:
192,44,132048,6,2,B|104:52|104:52|96:48|96:48|4:56,1,190,6|8,0:0|0:0,0:0:0:0:
3,56,132498,1,0,0:0:0:0:
188,140,132648,2,0,L|64:152,1,95,0|2,0:0|0:0,0:0:0:0:
272,252,132948,2,0,L|172:248,1,95,8|0,0:0|0:0,0:0:0:0:
24,208,133248,2,0,P|40:264|28:312,1,95,2|0,0:0|0:0,0:0:0:0:
104,376,133548,1,10,0:0:0:0:
208,324,133698,5,2,0:0:0:0:
380,316,133848,1,2,2:2:0:0:
296,360,133998,5,2,0:0:0:0:
472,344,134148,1,10,0:0:0:0:
456,248,134298,5,0,1:0:0:0:
456,248,134373,1,0,1:0:0:0:
456,248,134448,2,2,B|452:168|452:168|460:160|460:160|456:52,1,190,4|8,0:2|0:0,0:0:0:0:
320,132,134898,2,2,B|248:136|248:136|216:160|216:160|120:164,1,190,2|8,0:0|0:2,0:0:0:0:
364,300,135348,2,0,L|380:184,1,95,8|0,0:0|0:0,0:0:0:0:
68,152,135648,5,10,0:2:0:0:
176,288,135798,1,8,0:2:0:0:
308,180,135948,1,8,0:0:0:0:
208,40,136098,1,10,0:2:0:0:
208,40,136398,1,10,0:2:0:0:
332,124,136548,1,8,0:0:0:0:
308,36,136698,1,0,1:0:0:0:
312,232,136848,6,0,B|328:288|392:292,1,95,2|0,0:0|0:0,0:0:0:0:
408,184,137148,1,8,0:0:0:0:
212,168,137298,2,0,B|156:152|104:208,1,95,2|0,0:0|0:0,0:0:0:0:
196,280,137598,1,0,0:0:0:0:
320,132,137748,2,0,B|356:92|332:20,1,95,10|0,0:0|0:0,0:0:0:0:
216,64,138048,1,0,0:0:0:0:
196,280,138198,6,0,B|240:300|240:300|300:280,1,95,2|8,0:0|0:0,0:0:0:0:
404,188,138498,1,0,0:0:0:0:
472,124,138648,2,0,L|444:16,1,95,2|8,0:0|0:2,0:0:0:0:
192,40,138948,2,0,L|220:148,1,95,10|2,0:0|0:0,0:0:0:0:
260,296,139248,5,2,0:0:0:0:
236,292,139323,1,0,0:0:0:0:
212,288,139398,1,0,0:0:0:0:
188,284,139473,1,0,0:0:0:0:
164,280,139548,1,10,0:0:0:0:
140,276,139623,1,0,0:0:0:0:
116,272,139698,1,0,0:0:0:0:
92,264,139773,1,0,0:0:0:0:
68,256,139848,5,0,0:0:0:0:
61,233,139923,1,0,0:0:0:0:
59,209,139998,1,8,0:2:0:0:
60,185,140073,1,0,0:0:0:0:
62,161,140148,1,10,0:0:0:0:
69,138,140223,1,0,0:0:0:0:
77,115,140298,1,10,0:0:0:0:
88,94,140373,1,8,0:0:0:0:
104,76,140448,1,6,0:0:0:0:
176,176,140598,5,8,0:2:0:0:
224,28,140748,1,8,0:0:0:0:
376,48,140898,2,2,P|432:112|408:228,1,190,6|8,0:0|0:2,0:0:0:0:
408,232,141273,1,8,0:2:0:0:
392,248,141348,1,8,0:0:0:0:
112,328,141648,6,2,B|76:228|152:240|96:128,1,190,6|8,0:0|0:0,0:0:0:0:
276,120,142098,2,2,B|312:220|236:208|292:320,1,190,2|8,0:0|0:2,0:0:0:0:
436,256,142548,2,0,P|444:192|440:132,1,95,8|0,0:0|0:0,0:0:0:0:
396,40,142848,5,2,0:0:0:0:
304,64,142998,1,0,0:0:0:0:
104,112,143148,5,10,0:0:0:0:
192,140,143298,1,2,0:0:0:0:
432,192,143448,5,2,0:0:0:0:
344,224,143598,1,2,0:0:0:0:
108,308,143748,5,10,0:0:0:0:
200,344,143898,1,0,0:0:0:0:
292,164,144048,6,0,L|288:48,1,95,6|0,0:0|0:0,0:0:0:0:
196,216,144348,1,8,0:0:0:0:
320,312,144498,2,2,P|408:264|416:160,1,190,2|8,0:0|0:2,0:0:0:0:
208,52,144948,2,0,P|176:92|168:148,1,95,8|0,0:0|2:0,0:0:0:0:
212,344,145248,5,10,0:2:0:0:
264,212,145398,1,8,0:2:0:0:
128,232,145548,1,8,0:0:0:0:
320,312,145698,2,0,P|372:296|440:280,1,95,2|0,0:2|2:0,0:0:0:0:
464,196,145998,1,10,0:2:0:0:
320,76,146148,5,8,0:0:0:0:
296,84,146223,1,0,0:0:0:0:
272,92,146298,1,0,0:0:0:0:
248,100,146373,1,0,0:0:0:0:
224,108,146448,2,0,P|168:100|132:64,1,95,8|0,0:2|0:0,0:0:0:0:
184,240,146748,2,2,B|232:256|280:228|280:228|324:244|328:320,1,190,10|0,0:0|0:0,0:0:0:0:
244,360,147198,1,8,0:2:0:0:
352,184,147348,6,0,P|352:112|344:64,1,95,8|0,0:0|0:0,0:0:0:0:
349,89,147573,1,0,0:0:0:0:
349,89,147648,2,0,P|412:96|464:80,1,95,2|2,0:0|0:0,0:0:0:0:
144,128,147948,2,0,P|80:116|36:124,1,95,8|2,0:0|0:0,0:0:0:0:
328,328,148248,2,0,P|400:312|456:296,1,95,2|8,0:0|0:2,0:0:0:0:
420,306,148473,1,8,0:2:0:0:
420,306,148548,1,8,0:0:0:0:
336,192,148698,1,2,0:0:0:0:
152,156,148848,6,2,P|84:216|104:320,1,190,6|8,0:0|0:0,0:0:0:0:
94,307,149298,1,8,0:2:0:0:
270,260,149448,2,0,P|304:224|350:180,1,95,8|4,0:0|0:2,0:0:0:0:
280,56,149748,1,8,0:0:0:0:
256,64,149823,1,8,0:2:0:0:
232,72,149898,1,8,0:2:0:0:
208,80,149973,1,8,0:2:0:0:
184,88,150048,2,0,P|112:92|68:92,1,95,4|0,0:2|0:2,0:0:0:0:
328,296,150348,2,0,P|400:292|444:292,1,95,4|8,0:2|0:2,0:0:0:0:
152,252,150648,5,8,0:0:0:0:
352,136,150798,1,4,0:2:0:0:
272,256,150948,1,8,0:0:0:0:
232,232,151023,1,0,0:0:0:0:
208,192,151098,1,8,0:0:0:0:
204,144,151173,1,0,0:0:0:0:
228,104,151248,1,12,0:2:0:0:
456,216,151398,1,12,0:2:0:0:
256,192,151548,12,2,154248,2:2:0:0:
184,256,154698,6,0,L|232:220,2,47.5,8|4|8,0:3|0:3|0:3,0:0:0:0:
68,324,154998,2,0,B|28:288|52:216,1,95,8|4,0:0|0:3,0:0:0:0:
64,204,155223,1,4,0:3:0:0:
64,204,155298,2,0,L|26:156,2,47.5,8|8|8,0:3|0:3|0:0,0:0:0:0:
180,164,155598,1,8,0:2:0:0:
280,224,155748,2,0,P|372:208|408:140,1,142.5,8|0,0:0|2:0,0:0:0:0:
380,92,156048,5,4,0:2:0:0:
380,92,156198,1,4,0:2:0:0:
376,268,159348,6,0,L|264:304,1,95,10|2,0:0|0:0,0:0:0:0:
88,236,159648,2,2,B|148:216|148:216|188:244|244:224|244:224|228:172,1,190,2|0,0:0|0:0,0:0:0:0:
452,152,160098,2,2,B|432:140|408:144|408:144|412:140|412:140|372:168|316:168|276:132,1,190,2|0,0:0|0:0,0:0:0:0:
64,100,160548,2,0,B|116:80|184:100,1,95,4|0,0:2|0:0,0:0:0:0:
316,48,160848,5,2,0:0:0:0:
316,48,160998,1,2,0:0:0:0:
392,288,164298,5,8,0:3:0:0:
392,288,164373,1,4,0:3:0:0:
392,288,164448,1,4,0:3:0:0:
248,196,164598,1,8,0:0:0:0:
376,80,164748,1,8,0:0:0:0:
384,88,164823,1,8,0:2:0:0:
392,96,164898,1,8,0:2:0:0:
400,104,164973,1,8,0:2:0:0:
408,112,165048,1,8,0:0:0:0:
316,348,165198,1,8,0:3:0:0:
316,348,165273,1,4,0:3:0:0:
316,348,165348,2,0,P|296:272|336:212,1,142.5,8|0,0:0|0:0,0:0:0:0:
400,204,165648,5,4,0:2:0:0:
260,112,165798,1,4,0:2:0:0:
456,280,168048,6,0,L|328:300,1,95,12|0,0:2|0:0,0:0:0:0:
56,280,168348,2,0,L|184:300,1,95,12|0,0:2|0:0,0:0:0:0:
256,300,168648,1,4,0:2:0:0:
196,216,168798,5,8,0:0:0:0:
328,224,168948,1,8,0:0:0:0:
256,116,169098,1,2,0:2:0:0:
256,376,169248,5,2,0:0:0:0:
440,156,169698,5,2,0:0:0:0:
164,44,170148,6,0,P|136:124|176:212,1,142.5,6|0,0:0|2:2,0:0:0:0:
208,232,170448,5,4,0:0:0:0:
196,344,170598,2,0,B|156:312|104:320,1,95,8|0,0:2|2:0,0:0:0:0:
52,184,170898,1,0,3:0:0:0:
88,192,170973,1,0,3:0:0:0:
124,184,171048,1,8,0:0:0:0:
264,144,171198,2,0,P|268:92|264:48,1,95,2|8,0:0|0:2,0:0:0:0:
16,68,171498,6,2,B|64:128|144:100|144:100|132:52,1,190
240,220,171948,1,2,0:0:0:0:
356,192,172098,1,2,0:0:0:0:
264,316,172248,1,10,0:0:0:0:
216,128,172398,1,2,0:0:0:0:
144,256,172548,2,0,P|88:272|36:288,1,95,2|0,0:0|2:0,0:0:0:0:
404,304,172848,5,8,0:2:0:0:
404,304,172923,1,0,0:0:0:0:
404,304,172998,2,0,P|408:248|412:192,1,95,8|8,0:2|0:2,0:0:0:0:
416,56,173298,1,0,0:0:0:0:
272,220,173448,1,8,0:0:0:0:
360,132,173598,1,2,0:0:0:0:
240,92,173748,1,2,0:0:0:0:
156,188,173898,1,2,0:0:0:0:
288,324,174048,5,8,0:2:0:0:
288,324,174123,1,0,0:0:0:0:
288,324,174198,2,0,P|352:332|424:320,1,95,8|0,0:0|0:0,0:0:0:0:
496,244,174498,1,0,3:0:0:0:
488,236,174573,1,0,3:0:0:0:
480,228,174648,2,0,L|472:96,1,95,10|4,0:0|0:2,0:0:0:0:
340,164,174948,2,2,L|352:84,2,63.3333333333333,2|2|0,0:0|0:0|0:0,0:0:0:0:
244,192,175248,5,4,0:0:0:0:
244,192,175398,2,2,P|88:212|16:228,1,190,8|2,0:2|0:0,0:0:0:0:
156,112,175848,2,0,P|208:108|280:92,1,95,10|2,0:0|0:0,0:0:0:0:
336,140,176148,2,0,L|384:132,6,31.6666666666667,0|0|0|2|2|2|2,2:0|2:0|2:0|0:0|0:0|0:0|0:0,0:0:0:0:
312,236,176598,5,2,0:0:0:0:
404,216,176748,1,2,0:0:0:0:
492,200,176898,1,8,0:2:0:0:
312,236,177048,2,0,P|272:232|212:232,1,95,10|8,0:0|0:2,0:0:0:0:
140,228,177348,1,2,0:0:0:0:
404,216,177498,1,2,0:0:0:0:
224,144,177648,5,2,0:0:0:0:
216,312,177798,2,0,L|220:348,3,31.6666666666667,8|2|2|0,0:2|0:0|0:0|0:0,0:0:0:0:
140,228,178098,1,8,0:2:0:0:
312,176,178248,2,2,P|384:224|396:308,1,142.5,10|0,0:0|2:0,0:0:0:0:
484,268,178548,2,2,P|408:296|376:360,1,142.5,8|0,0:2|2:0,0:0:0:0:
496,352,178848,6,0,L|456:164,1,190,4|8,0:0|0:0,0:0:0:0:
192,56,179298,2,0,L|232:244,1,190,12|8,0:2|0:2,0:0:0:0:
336,152,179748,2,0,L|312:40,1,95,12|8,0:2|0:2,0:0:0:0:
316,272,180048,5,8,0:2:0:0:
316,272,180198,1,8,0:2:0:0:
64,184,180498,1,8,0:2:0:0:
64,184,180573,1,8,0:2:0:0:
64,184,180648,1,10,0:0:0:0:
152,80,180798,1,2,0:0:0:0:
16,32,180948,2,0,L|0:132,1,95,8|0,0:2|0:0,0:0:0:0:
204,224,181248,6,2,L|396:204,1,190,2|8,0:0|0:2,0:0:0:0:
392,204,181698,1,10,0:2:0:0:
288,104,181848,2,2,B|196:152|104:120,1,190,10|0,0:0|0:0,0:0:0:0:
104,120,182298,1,0,0:0:0:0:
144,304,182448,5,8,0:2:0:0:
144,304,182598,2,0,P|200:296|256:296,1,95,2|8,0:1|0:2,0:0:0:0:
328,324,182898,1,0,0:0:0:0:
448,200,183048,1,8,0:0:0:0:
512,280,183198,2,0,P|460:300|404:292,1,95,8|0,0:2|0:0,0:0:0:0:
384,64,183498,1,0,0:0:0:0:
476,120,183648,5,4,0:2:0:0:
304,200,183798,2,0,P|288:144|296:88,1,95,8|0,0:0|0:0,0:0:0:0:
184,172,184098,1,2,0:0:0:0:
104,96,184248,6,0,P|56:100|12:108,1,63.3333333333333,8|8,0:0|0:2,0:0:0:0:
68,248,184448,2,0,P|156:236|180:228,1,63.3333333333333,8|8,0:2|0:2,0:0:0:0:
246,161,184648,2,0,P|194:169|158:177,1,63.3333333333333,8|8,0:2|0:2,0:0:0:0:
272,336,184848,5,4,0:0:0:0:
272,336,184998,2,2,P|372:320|468:316,1,190,4|0,0:2|3:0,0:0:0:0:
460,315,185373,1,0,3:0:0:0:
460,315,185448,1,10,0:0:0:0:
328,208,185598,1,2,0:0:0:0:
328,208,185748,2,0,P|260:216|216:228,1,95,8|2,0:2|0:0,0:0:0:0:
168,60,186048,5,4,0:2:0:0:
272,112,186198,2,2,P|392:100|444:24,1,190,2|8,0:0|0:2,0:0:0:0:
464,176,186648,1,8,0:0:0:0:
448,192,186723,1,0,0:0:0:0:
432,208,186798,1,8,0:2:0:0:
416,224,186873,1,0,0:0:0:0:
400,240,186948,1,0,0:0:0:0:
312,304,187098,1,8,0:2:0:0:
136,224,187248,5,8,0:2:0:0:
108,116,187398,2,2,P|212:124|256:208,1,190,8|8,0:2|0:2,0:0:0:0:
108,360,187848,2,0,P|68:320|60:264,1,95,8|8,0:0|0:2,0:0:0:0:
312,304,188148,2,0,L|416:356,1,95,8|0,0:0|2:0,0:0:0:0:
376,140,188448,6,2,P|304:76|192:64,1,190,6|8,0:0|0:0,0:0:0:0:
376,72,188898,2,0,P|488:88|508:84,1,95,12|0,0:2|0:0,0:0:0:0:
240,184,189198,1,8,0:0:0:0:
240,184,189273,1,8,0:0:0:0:
240,184,189348,2,0,P|160:232|152:252,1,95,8|0,0:0|0:0,0:0:0:0:
360,324,189648,6,2,L|432:128,2,190,4|8|0,0:0|0:0|0:0,0:0:0:0:
204,348,190398,1,8,0:2:0:0:
136,280,190548,5,8,0:0:0:0:
176,252,190648,1,0,0:0:0:0:
228,248,190748,1,0,0:0:0:0:
276,264,190848,6,0,P|320:216|328:188,2,63.3333333333333,2|0|0,0:0|0:0|0:0,0:0:0:0:
232,152,191148,2,0,P|220:112|192:72,2,63.3333333333333,10|0|0,0:0|0:0|0:0,0:0:0:0:
144,212,191448,2,0,P|72:196|44:196,2,63.3333333333333,2|0|0,0:0|0:0|0:0,0:0:0:0:
192,296,191748,2,0,P|148:320|120:352,2,63.3333333333333,10|0|0,0:0|0:0|0:0,0:0:0:0:
280,340,192048,5,2,0:0:0:0:
328,352,192148,1,0,0:0:0:0:
376,336,192248,1,0,0:0:0:0:
372,284,192348,5,10,0:0:0:0:
392,236,192448,1,0,0:0:0:0:
436,216,192548,1,2,0:0:0:0:
484,236,192648,5,2,0:0:0:0:
480,228,192723,1,0,0:0:0:0:
476,220,192798,1,0,0:0:0:0:
472,212,192873,1,0,0:0:0:0:
468,204,192948,1,10,0:0:0:0:
464,196,193023,1,0,0:0:0:0:
460,188,193098,1,0,0:0:0:0:
456,180,193173,1,0,0:0:0:0:
452,172,193248,5,2,0:0:0:0:
444,172,193323,1,0,0:0:0:0:
436,172,193398,1,2,0:0:0:0:
428,172,193473,1,0,0:0:0:0:
420,172,193548,1,10,0:0:0:0:
412,172,193623,1,0,0:0:0:0:
404,172,193698,1,2,0:0:0:0:
396,172,193773,1,0,0:0:0:0:
388,172,193848,1,0,0:0:0:0:
296,208,193998,5,8,0:2:0:0:
204,168,194148,2,0,P|104:176|48:144,1,142.5,8|0,0:0|2:0,0:0:0:0:
136,104,194448,6,0,L|252:72,1,95,8|0,0:2|0:0,0:0:0:0:
192,288,194748,2,0,L|76:320,1,95,8|0,0:0|0:0,0:0:0:0:
100,313,195048,1,0,0:0:0:0:
256,188,195198,1,8,0:2:0:0:
388,280,195348,2,0,L|384:376,1,95,8|0,0:0|0:0,0:0:0:0:
392,184,195648,6,2,L|400:32,1,142.5,2|0,0:0|2:0,0:0:0:0:
399,41,195948,1,8,0:0:0:0:
256,188,196098,2,0,L|244:88,1,95,2|0,0:0|0:0,0:0:0:0:
144,248,196398,1,2,0:0:0:0:
52,216,196548,2,0,P|36:168|44:120,1,95,10|0,0:0|2:0,0:0:0:0:
256,268,196848,6,0,L|364:288,1,95,2|0,0:0|0:0,0:0:0:0:
256,160,197148,2,0,L|148:180,1,95,10|0,0:0|0:0,0:0:0:0:
256,64,197448,1,0,0:0:0:0:
256,268,197598,1,2,0:0:0:0:
84,120,197748,1,8,0:0:0:0:
92,252,197898,1,2,0:0:0:0:
256,160,198048,6,0,L|368:136,1,95,4|0,0:2|0:0,0:0:0:0:
184,328,198348,1,8,0:0:0:0:
400,348,198498,6,0,L|384:236,1,95,4|0,0:2|0:0,0:0:0:0:
296,320,198798,1,0,0:0:0:0:
160,240,198948,5,4,0:2:0:0:
140,196,199023,1,0,0:0:0:0:
156,152,199098,1,0,0:0:0:0:
192,124,199173,1,0,0:0:0:0:
240,128,199248,6,0,L|232:52,1,47.5,4|0,0:0|0:0,0:0:0:0:
316,184,199398,2,0,L|324:260,1,47.5
348,100,199548,2,0,L|340:28,1,47.5,8|0,0:0|0:0,0:0:0:0:
424,168,199698,2,0,L|432:240,1,47.5
380,316,199848,6,0,P|368:348|344:376,1,47.5
296,320,199998,2,0,P|272:344|248:360,1,47.5,8|0,0:2|0:0,0:0:0:0:
220,288,200148,2,0,P|188:304|156:312,1,47.5,10|0,0:0|0:0,0:0:0:0:
160,232,200298,2,0,P|112:240|80:240,1,47.5,2|0,0:0|0:0,0:0:0:0:
296,232,200448,6,0,L|304:160,1,47.5,2|0,0:0|0:0,0:0:0:0:
388,200,200598,2,0,L|380:140,1,47.5,2|0,0:0|0:0,0:0:0:0:
304,56,200748,2,0,L|296:128,1,47.5,10|0,0:0|0:0,0:0:0:0:
212,92,200898,2,0,L|220:152,1,47.5,2|0,0:0|0:0,0:0:0:0:
124,84,201048,6,0,P|96:136|112:200,1,95,0|2,0:0|0:0,0:0:0:0:
144,232,201273,2,0,L|160:340,1,95,0|2,0:0|0:0,0:0:0:0:
88,360,201498,2,0,L|24:336,1,47.5,2|0,0:0|0:0,0:0:0:0:
220,244,201648,6,0,L|328:264,1,95,2|0,0:0|0:0,0:0:0:0:
348,268,201873,1,0,0:0:0:0:
348,268,201948,2,0,P|360:216|360:188,1,47.5,10|0,0:0|0:0,0:0:0:0:
304,128,202098,2,0,P|292:180|292:208,1,47.5,2|0,0:0|0:0,0:0:0:0:
200,160,202248,6,0,P|168:156|132:144,1,47.5,2|0,0:0|2:0,0:0:0:0:
80,228,202398,2,0,P|112:232|148:244,1,47.5,2|0,0:0|2:0,0:0:0:0:
212,344,202548,6,0,P|216:308|224:272,1,47.5,10|0,0:0|2:0,0:0:0:0:
116,320,202698,2,0,P|112:356|104:392,1,47.5,2|0,0:0|2:0,0:0:0:0:
296,308,202848,6,0,P|396:316|420:320,1,95,2|2,0:0|0:0,0:0:0:0:
436,328,203073,1,0,0:0:0:0:
480,308,203148,1,10,0:0:0:0:
472,260,203223,1,2,0:0:0:0:
432,232,203298,1,8,0:2:0:0:
408,192,203373,1,0,0:0:0:0:
428,148,203448,1,0,0:0:0:0:
468,124,203523,1,0,0:0:0:0:
456,80,203598,1,8,0:2:0:0:
408,76,203673,1,0,0:0:0:0:
364,92,203748,1,10,0:0:0:0:
344,136,203823,1,0,0:0:0:0:
304,160,203898,1,0,0:0:0:0:
256,160,203973,1,0,0:0:0:0:
212,144,204048,6,0,P|168:120|144:112,3,47.5,8|0|0|0,0:2|0:0|0:0|0:0,0:0:0:0:
152,204,204348,2,0,P|108:180|84:172,3,47.5,8|0|0|0,0:0|0:0|0:0|0:0,0:0:0:0:
120,284,204648,1,2,0:0:0:0:
164,300,204723,1,0,0:0:0:0:
208,284,204798,1,2,0:0:0:0:
244,252,204873,1,0,0:0:0:0:
284,228,204948,1,8,0:0:0:0:
332,228,205023,1,0,0:0:0:0:
376,244,205098,1,2,0:0:0:0:
404,280,205173,1,0,0:0:0:0:
412,328,205248,6,0,L|392:384,3,47.5,2|0|0|0,0:0|0:0|0:0|0:0,0:0:0:0:
484,256,205548,2,0,L|472:180,1,47.5,10|0,0:0|0:0,0:0:0:0:
392,128,205698,1,2,0:0:0:0:
392,128,205773,1,0,0:0:0:0:
392,128,205848,1,2,0:0:0:0:
392,128,205923,1,0,0:0:0:0:
392,128,205998,1,2,0:0:0:0:
392,128,206073,1,0,0:0:0:0:
392,128,206148,2,0,L|400:64,1,47.5,8|0,0:0|0:0,0:0:0:0:
324,268,206298,5,8,0:2:0:0:
324,268,206373,1,8,0:2:0:0:
324,268,206448,2,0,L|336:368,1,95,12|0,0:0|0:0,0:0:0:0:
188,124,206748,2,0,L|176:24,1,95,8|0,0:0|0:0,0:0:0:0:
184,272,207048,2,0,L|172:372,1,95,8|0,0:0|0:0,0:0:0:0:
328,124,207348,2,0,L|340:24,1,95,8|0,0:0|0:0,0:0:0:0:
256,324,207648,5,0,0:0:0:0:
76,192,207798,1,8,0:0:0:0:
76,192,207873,1,8,0:0:0:0:
76,192,207948,1,8,0:0:0:0:
256,56,208098,1,8,0:0:0:0:
256,56,208173,1,8,0:0:0:0:
256,56,208248,1,8,0:0:0:0:
432,192,208398,1,8,0:0:0:0:
432,192,208473,1,8,0:0:0:0:
432,192,208548,1,4,0:2:0:0:
432,192,208623,1,0,0:0:0:0:
432,192,208698,1,0,0:0:0:0:
432,192,208773,1,0,0:0:0:0:
432,192,208848,1,4,0:0:0:0:
256,192,208998,12,0,211248,0:0:0:0:
296,128,217248,5,4,0:0:0:0:
336,276,217398,1,0,2:0:0:0:
196,244,217548,1,8,0:0:0:0:
160,140,217698,5,4,0:2:0:0:
128,328,217848,1,0,2:0:0:0:
336,276,217998,1,2,0:0:0:0:
256,152,218148,2,0,L|256:40,1,95,10|0,0:0|0:0,0:0:0:0:
172,40,218448,5,4,0:0:0:0:
352,84,218598,1,0,0:0:0:0:
172,40,218748,1,8,0:0:0:0:
168,136,218898,5,0,0:0:0:0:
348,184,219048,1,0,0:0:0:0:
168,136,219198,1,8,0:2:0:0:
168,244,219348,5,8,0:0:0:0:
344,288,219498,1,0,0:0:0:0:
116,344,219648,5,10,0:2:0:0:
256,260,219798,1,0,0:0:0:0:
116,344,219948,1,8,0:0:0:0:
80,172,220098,5,8,0:2:0:0:
228,92,220248,1,0,0:0:0:0:
80,172,220398,1,8,0:2:0:0:
144,40,220548,5,8,0:0:0:0:
220,208,220698,1,0,0:0:0:0:
356,232,220848,5,10,0:2:0:0:
332,72,220998,1,0,0:0:0:0:
208,172,221148,1,8,0:0:0:0:
376,212,221298,5,0,0:0:0:0:
300,84,221448,1,0,0:0:0:0:
220,208,221598,1,8,0:2:0:0:
384,160,221748,5,8,0:0:0:0:
316,288,221898,1,0,0:0:0:0:
120,216,222048,5,10,0:2:0:0:
120,216,222198,2,0,P|120:156|124:108,1,95,8|8,0:2|0:0,0:0:0:0:
224,44,222498,2,0,P|224:160|216:256,1,190,10|8,0:2|0:2,0:0:0:0:
40,340,222948,2,0,P|120:348|164:352,1,95,8|0,0:0|0:0,0:0:0:0:
348,280,223248,5,10,0:2:0:0:
372,144,223398,1,0,0:0:0:0:
420,328,223548,1,8,0:0:0:0:
276,192,223698,5,2,0:2:0:0:
248,104,223848,1,0,0:0:0:0:
184,300,223998,1,8,0:2:0:0:
120,108,224148,5,8,0:0:0:0:
100,192,224298,1,2,0:2:0:0:
344,120,224448,5,10,0:2:0:0:
208,188,224598,1,0,0:0:0:0:
204,36,224748,1,8,0:0:0:0:
332,232,224898,5,10,0:2:0:0:
460,112,225048,1,0,0:0:0:0:
284,56,225198,1,8,0:2:0:0:
208,188,225348,2,0,P|280:172|316:168,1,95,8|2,0:0|0:2,0:0:0:0:
372,96,225648,5,10,0:2:0:0:
272,300,225798,1,0,0:0:0:0:
120,120,225948,1,4,0:2:0:0:
300,48,226098,1,0,0:0:0:0:
188,332,226248,1,10,0:2:0:0:
356,228,226398,5,4,0:2:0:0:
140,244,226548,1,4,0:2:0:0:
240,136,226698,5,0,0:0:0:0:
240,136,226773,1,0,0:0:0:0:
240,136,226848,1,6,0:0:0:0:
264,328,226998,1,0,3:0:0:0:
264,328,227073,1,0,3:0:0:0:
264,328,227148,2,0,L|236:272,1,47.5,8|0,3:1|2:0,0:0:0:0:
348,160,227298,2,2,B|340:228|376:268|376:268|364:352,1,190,4|8,0:2|0:0,0:0:0:0:
496,308,227748,2,0,P|508:264|500:204,1,95,12|0,0:0|0:0,0:0:0:0:
332,40,228048,6,2,B|288:56|248:48|248:48|236:56|236:56|188:40|136:56,1,190,4|4,0:0|0:2,0:0:0:0:
64,128,228498,1,0,0:0:0:0:
164,236,228648,2,0,P|224:236|272:236,1,95,2|8,0:2|0:2,0:0:0:0:
336,64,228948,2,0,L|316:164,1,95,8|0,0:0|0:0,0:0:0:0:
216,336,229248,2,0,L|324:324,1,95,10|0,0:2|0:0,0:0:0:0:
436,184,229548,5,10,0:0:0:0:
492,272,229698,2,2,B|400:296|400:296|320:236,1,190,2|8,0:0|0:2,0:0:0:0:
104,268,230148,2,0,B|148:248|148:248|204:260,1,95,10|2,0:0|0:0,0:0:0:0:
268,32,230448,6,2,B|216:112|216:112|256:208,1,190,10|8,0:2|0:0,0:0:0:0:
16,132,230898,2,2,B|68:48|68:48|184:48,1,190,2|8,0:0|0:2,0:0:0:0:
116,324,231348,2,0,B|68:324|68:324|36:280,1,95,10|2,0:0|0:0,0:0:0:0:
268,172,231648,5,10,0:2:0:0:
200,232,231798,2,0,L|200:344,1,95,8|8,0:2|0:0,0:0:0:0:
360,200,232098,2,2,B|360:124|360:124|384:88|384:88|384:8,1,190,8|8,0:2|0:2,0:0:0:0:
444,252,232548,2,0,B|448:202|444:144,1,95,10|0,0:0|0:0,0:0:0:0:
268,172,232848,5,10,0:2:0:0:
200,327,232998,1,0,0:0:0:0:
200,327,233073,1,0,0:0:0:0:
200,327,233148,1,4,0:2:0:0:
52,296,233298,2,0,B|40:248|40:248|48:196,1,95,2|2,0:0|0:2,0:0:0:0:
220,156,233598,1,8,0:2:0:0:
220,156,233748,2,0,B|228:108|228:108|216:56,1,95,10|0,0:0|0:0,0:0:0:0:
376,292,234048,5,8,0:2:0:0:
376,292,234198,2,0,B|356:248|356:248|368:188,1,95,2|8,0:0|0:0,0:0:0:0:
456,240,234498,1,8,0:2:0:0:
240,336,234648,2,0,P|188:344|128:320,1,95,2|8,0:0|0:2,0:0:0:0:
60,104,234948,2,0,P|112:96|172:120,1,95,10|0,0:0|0:0,0:0:0:0:
384,224,235248,6,2,B|336:224|336:224|292:208|292:208|256:224|256:224|184:224,1,190,2|8,0:0|0:0,0:0:0:0:
199,224,235698,1,2,0:0:0:0:
345,140,235848,2,0,B|425:140|453:140,1,95,2|8,0:2|0:2,0:0:0:0:
232,316,236148,2,0,L|124:316,1,95,10|0,0:0|0:0,0:0:0:0:
56,256,236448,5,2,0:0:0:0:
224,204,236598,1,8,0:2:0:0:
72,92,236748,1,8,0:0:0:0:
296,44,236898,2,2,P|412:88|432:132,1,142.5,2|0,0:0|2:0,0:0:0:0:
436,124,237198,2,0,L|424:184,1,47.5,8|8,0:2|0:2,0:0:0:0:
380,236,237348,1,8,0:0:0:0:
404,312,237498,1,8,0:0:0:0:
324,344,237648,6,2,B|288:348|256:356,1,56.9999982604981,2|8,1:1|0:2,0:0:0:0:
208,296,237948,6,2,B|96:320|96:320|80:332|80:332|16:344|16:344|48:308|24:248,1,285,10|2,0:0|0:0,0:0:0:0:
32,188,238548,2,0,L|40:76,1,95,10|0,0:0|0:0,0:0:0:0:
304,176,238848,5,0,0:0:0:0:
352,188,238923,1,2,0:1:0:0:
400,196,238998,1,2,0:0:0:0:
280,264,239148,1,10,0:0:0:0:
252,92,239298,1,2,0:0:0:0:
208,208,239448,5,2,0:0:0:0:
352,116,239598,1,2,0:0:0:0:
332,320,239748,1,10,0:0:0:0:
136,224,239898,1,0,0:0:0:0:
416,164,240048,6,2,B|408:232|408:232|428:280|428:280|416:360,1,190,2|8,0:0|0:0,0:0:0:0:
332,320,240498,1,2,0:0:0:0:
156,320,240648,2,0,L|260:340,1,95,2|8,0:2|0:2,0:0:0:0:
64,140,240948,2,0,B|48:188|48:188|64:240,1,95,8|0,0:0|0:0,0:0:0:0:
340,224,241248,5,10,0:2:0:0:
340,224,241398,1,8,0:2:0:0:
348,64,241548,1,8,0:0:0:0:
184,56,241698,2,0,B|172:208|172:208|216:184,1,190,8|8,0:2|0:2,0:0:0:0:
420,148,242148,2,0,L|424:28,1,95,8|0,0:0|0:0,0:0:0:0:
244,288,242448,6,0,B|292:272|292:272|348:288,1,95,10|0,0:2|0:0,0:0:0:0:
152,344,242748,2,2,B|72:304|72:304|44:192,1,190,10|2,0:0|0:2,0:0:0:0:
292,356,243198,1,8,0:2:0:0:
400,332,243348,2,0,L|516:352,1,95,10|2,0:0|0:0,0:0:0:0:
493,348,243573,1,2,0:0:0:0:
493,348,243648,1,2,0:0:0:0:
292,212,243798,5,2,0:0:0:0:
344,88,243948,1,10,0:0:0:0:
404,148,244098,1,8,0:2:0:0:
288,304,244248,1,2,0:2:0:0:
220,240,244398,1,2,0:0:0:0:
444,216,244548,1,10,0:0:0:0:
392,284,244698,1,0,0:0:0:0:
404,148,244848,6,2,L|192:168,1,190,6|10,0:0|0:0,0:0:0:0:
128,176,245298,1,0,0:0:0:0:
92,96,245448,2,0,P|148:80|212:84,1,95,10|4,0:0|0:2,0:0:0:0:
235,273,245748,5,8,0:3:0:0:
215,285,245823,1,8,0:3:0:0:
192,292,245898,1,4,0:3:0:0:
168,292,245973,1,4,0:3:0:0:
146,283,246048,2,0,B|136:224|136:224|88:180,1,113.999996520996,4|0,0:2|0:0,0:0:0:0:
424,152,246348,2,0,B|444:208|444:208|432:272,1,113.999996520996,4|0,0:2|0:0,0:0:0:0:
256,192,246648,5,8,0:0:0:0:
228,60,246798,1,2,0:0:0:0:
228,60,246873,1,2,0:0:0:0:
228,60,246948,1,2,0:0:0:0:
288,336,247098,1,2,0:0:0:0:
96,187,247248,6,0,L|100:111,2,56.9999982604981,4|2|0,0:0|0:0|0:0,0:0:0:0:
192,344,247548,2,2,B|172:268|216:216|216:216|176:108,1,227.999993041992,10|2,0:0|0:0,0:0:0:0:
384,264,247998,1,2,0:2:0:0:
440,352,248148,2,0,P|376:360|320:336,1,113.999996520996,8|0,0:0|0:0,0:0:0:0:
264,88,248448,6,2,B|368:72|368:72|396:92|396:92|504:72,1,227.999993041992,2|8,0:2|0:0,0:0:0:0:
204,288,248898,2,2,B|102:258|102:258|86:228|86:228|-20:201,1,227.999993041992,2|0,0:2|0:0,0:0:0:0:
288,216,249348,2,0,L|160:176,1,113.999996520996,2|0,0:0|0:0,0:0:0:0:
408,344,249648,6,0,B|456:296|432:228,1,113.999996520996,2|0,1:0|2:0,0:0:0:0:
104,40,249948,2,0,B|56:88|80:156,1,113.999996520996,10|0,1:0|2:0,0:0:0:0:
384,140,250248,1,2,1:0:0:0:
220,80,250398,1,8,0:2:0:0:
128,228,250548,1,8,0:0:0:0:
248,352,250698,1,2,1:0:0:0:
328,64,250848,6,0,L|372:48,2,37.9999988403321,2|0|0,0:0|0:0|0:0,0:0:0:0:
328,64,250998,2,0,L|308:184,1,113.999996520996,2|8,1:0|0:0,0:0:0:0:
400,348,251298,2,2,B|424:240|424:240|492:236|516:160,1,227.999993041992,2|2,0:1|0:1,0:1:0:0:
252,260,251748,2,2,B|124:232|124:232|160:268,1,170.999994781494,10|0,0:1|2:0,0:0:0:0:
216,344,252048,6,0,P|288:344|328:312,1,113.999996520996,6|2,0:0|0:0,0:0:0:0:
208,132,252348,2,2,B|84:116|84:116|56:136|56:136|32:124|32:124|-28:116,1,227.999993041992,10|2,0:0|0:0,0:0:0:0:
280,64,252798,1,2,0:2:0:0:
248,212,252948,2,0,P|336:208|384:164,1,113.999996520996,8|0,0:0|0:2,0:0:0:0:
160,104,253248,5,2,0:2:0:0:
76,236,253398,2,0,L|100:368,1,113.999996520996,0|8,0:0|0:0,0:0:0:0:
480,208,253698,2,2,L|240:248,1,227.999993041992,2|2,0:2|0:2,0:0:0:0:
96,120,254148,1,10,0:0:0:0:
256,88,254298,1,0,0:0:0:0:
256,348,254448,5,2,0:0:0:0:
132,200,254598,1,0,2:0:0:0:
256,348,254748,1,10,0:0:0:0:
384,116,254898,1,0,2:0:0:0:
136,320,255048,5,2,0:0:0:0:
256,88,255198,1,8,0:2:0:0:
384,320,255348,1,10,0:0:0:0:
256,212,255498,5,2,0:0:0:0:
256,212,255573,1,0,0:0:0:0:
256,212,255648,2,0,L|168:200,1,56.9999982604981,8|0,0:0|0:0,0:0:0:0:
108,72,255798,5,0,0:0:0:0:
108,72,255873,1,0,0:0:0:0:
108,72,255948,2,0,L|124:152,1,56.9999982604981,8|0,0:0|0:0,0:0:0:0:
144,316,256098,6,0,P|76:324|40:308,1,85.4999973907472,4|0,0:2|2:0,0:0:0:0:
52,308,256398,1,10,0:0:0:0:
276,288,256548,5,10,0:0:0:0:
260,360,256698,1,2,0:0:0:0:
416,180,256848,5,4,0:0:0:0:
416,180,256998,2,2,P|312:128|204:164,1,227.999993041992
210,158,257448,1,0,0:0:0:0:
380,288,257598,1,8,0:2:0:0:
380,288,257748,2,0,L|512:268,1,113.999996520996,8|0,0:0|0:0,0:0:0:0:
128,120,258048,6,0,L|108:352,1,227.999993041992,2|0,0:2|0:0,0:0:0:0:
436,348,258498,2,0,L|416:116,1,227.999993041992,2|0,0:2|0:0,0:0:0:0:
192,292,258948,6,2,P|256:324|320:296,1,114,2|0,0:0|2:2,0:0:0:0:
336,240,259248,6,0,L|296:104,1,113.999996520996,2|2,0:0|0:0,0:0:0:0:
92,196,259548,2,0,L|216:212,1,113.999996520996,10|2,0:0|0:0,0:0:0:0:
48,72,259848,2,2,B|172:88|172:88|196:40|260:24,1,227.999993041992,2|10,0:0|0:0,0:0:0:0:
250,26,260298,1,2,0:0:0:0:
312,320,260448,5,10,0:2:0:0:
240,236,260598,2,0,L|268:112,1,113.999996520996,2|8,0:2|0:0,0:0:0:0:
216,332,260898,2,0,B|152:340|120:280|120:280|144:168,1,227.999993041992,8|8,0:2|0:2,0:0:0:0:
396,160,261348,2,0,B|344:188|344:188|332:256,1,113.999996520996,10|0,0:0|0:0,0:0:0:0:
432,360,261648,6,0,B|460:300|416:252,1,113.999996520996,2|0,0:0|2:0,0:0:0:0:
264,88,261948,2,2,P|220:196|292:284,1,227.999993041992,10|0,0:0|0:0,0:0:0:0:
136,116,262398,1,10,0:2:0:0:
68,180,262548,2,0,P|36:240|48:304,1,113.999996520996,8|0,0:0|0:0,0:0:0:0:
360,340,262848,6,2,B|380:160|380:160|408:196|464:208,1,227.999993041992,2|8,0:2|0:0,0:1:0:0:
136,116,263298,2,2,B|208:160|208:160|288:152|296:60,1,227.999993041992,2|0,0:2|0:0,0:1:0:0:
108,232,263748,6,2,B|80:292|104:352,1,114,2|0,0:0|2:2,0:0:0:0:
184,304,264048,5,2,0:0:0:0:
332,344,264198,1,0,0:0:0:0:
380,64,264348,5,10,0:0:0:0:
232,24,264498,1,0,0:0:0:0:
256,364,264648,5,2,0:0:0:0:
128,76,264798,1,2,0:0:0:0:
436,152,264948,1,10,0:0:0:0:
88,320,265098,5,8,0:2:0:0:
88,320,265173,1,8,0:2:0:0:
88,320,265248,2,0,L|4:300,1,76,4|0,0:2|1:0,0:0:0:0:
424,320,265398,5,8,0:2:0:0:
424,320,265473,1,8,0:2:0:0:
424,320,265548,2,0,L|508:300,1,76,4|0,0:2|1:0,0:0:0:0:
192,208,265698,5,8,0:2:0:0:
192,208,265773,1,8,0:2:0:0:
192,208,265848,2,0,L|136:140,1,76,4|0,0:2|1:0,0:0:0:0:
320,208,265998,5,8,0:2:0:0:
320,208,266073,1,8,0:2:0:0:
320,208,266148,2,0,L|376:140,1,76,4|0,0:2|1:0,0:0:0:0:
252,36,266298,5,8,0:2:0:0:
252,36,266373,1,8,0:2:0:0:
252,36,266448,2,0,L|276:116,1,76,8|0,0:0|0:0,0:0:0:0:
213,280,266598,6,0,L|189:200,1,76,8|0,0:0|0:0,0:0:0:0:
164,56,266748,6,0,L|188:136,1,76,8|0,0:0|0:0,0:0:0:0:
125,300,266898,6,0,L|101:220,1,76,8|0,0:0|0:0,0:0:0:0:
72,80,267048,6,0,L|96:160,1,76,8|0,0:0|0:0,0:0:0:0:
33,324,267198,6,0,L|9:244,1,76,8|0,0:0|0:0,0:0:0:0:
280,184,267348,6,2,L|436:208,1,142.5,10|0,0:0|2:0,0:0:0:0:
468,148,267648,6,0,P|456:108|424:68,1,76,4|0,0:0|2:0,0:0:0:0:
424,324,267948,2,0,P|460:296|476:256,1,76,0|0,0:0|2:0,0:0:0:0:
240,272,268248,1,2,0:2:0:0:
240,272,268398,2,0,L|340:288,1,76,2|0,0:2|2:0,0:0:0:0:
296,192,268698,1,2,2:0:0:0:
168,328,268848,6,0,L|-12:348,1,152,2|0,0:2|0:0,0:0:0:0:
120,248,269298,2,0,L|32:256,1,76,2|0,0:2|2:0,0:0:0:0:
160,152,269598,1,2,0:2:0:0:
160,152,269748,1,0,0:0:0:0:
180,160,269823,1,0,0:0:0:0:
200,168,269898,1,0,0:0:0:0:
220,176,269973,1,0,0:0:0:0:
240,184,270048,2,0,P|296:168|328:168,1,76,4|0,0:0|2:0,0:0:0:0:
240,184,270348,6,0,P|264:148|264:72,1,114,2|0,0:2|2:0,0:0:0:0:
196,248,270648,1,2,0:0:0:0:
316,272,270798,2,0,P|256:292|216:336,1,114,2|0,0:2|2:0,0:0:0:0:
180,328,271098,2,0,L|212:384,1,38,0|0,0:0|2:0,0:0:0:0:
120,232,271248,5,2,0:0:0:0:
424,356,271698,1,2,0:0:0:0:
196,80,272148,1,2,0:0:0:0:
196,80,272448,2,0,P|272:76|360:72,2,152,4|2|10,0:0|0:2|0:2,0:0:0:0:
116,128,273198,5,2,0:2:0:0:
172,204,273348,1,8,0:2:0:0:
256,156,273498,1,8,0:2:0:0:
96,292,273648,2,0,L|88:200,1,76,2|0,0:2|0:0,0:0:0:0:
244,272,273948,1,8,0:2:0:0:
312,224,274098,2,0,P|316:308|312:376,1,152,10|8,0:2|0:2,0:0:0:0:
400,288,274548,2,0,L|488:272,1,76,2|0,0:0|0:0,0:0:0:0:
176,328,274848,6,0,P|168:285|164:224,1,76,4|0,0:0|2:0,0:0:0:0:
232,196,275148,2,0,P|228:132|180:84,1,114,10|0,0:2|2:0,0:0:0:0:
148,88,275448,1,8,0:2:0:0:
312,136,275598,2,0,P|368:112|388:84,1,76,2|0,0:2|0:2,0:0:0:0:
472,172,275898,5,8,0:0:0:0:
452,212,275973,1,8,0:0:0:0:
456,256,276048,1,6,0:0:0:0:
276,220,276198,5,8,0:0:0:0:
232,236,276273,1,8,0:0:0:0:
212,276,276348,1,8,0:0:0:0:
128,32,276498,5,8,0:0:0:0:
120,76,276573,1,8,0:0:0:0:
144,116,276648,1,8,0:0:0:0:
312,132,276798,5,8,0:0:0:0:
228,352,276948,1,4,0:0:0:0:
8,240,277098,1,0,0:0:0:0:
412,292,277248,5,4,0:0:0:0:
256,192,277398,12,4,278448,2:2:0:0:
336,72,278748,5,4,2:2:0:0:
140,208,279048,5,4,2:2:0:0:
344,328,279348,5,4,1:2:0:0:
260,368,279498,1,2,2:0:0:0:
368,200,279648,5,0,0:0:0:0:
256,176,279798,2,0,L|280:288,1,95,0|8,0:0|0:0,0:0:0:0:
360,104,280098,1,0,2:0:0:0:
276,40,280248,2,0,P|192:80|180:104,1,95,0|0,0:0|2:0,0:0:0:0:
96,196,280548,5,8,0:0:0:0:
76,240,280623,1,0,0:0:0:0:
84,288,280698,1,2,0:0:0:0:
124,316,280773,1,0,0:0:0:0:
176,320,280848,2,0,L|260:296,1,66.4999979705811,4|0,0:2|0:0,0:0:0:0:
312,156,280998,2,0,L|288:240,1,66.4999979705811,0|0,3:0|3:0,0:0:0:0:
252,384,281148,1,8,0:2:0:0:
88,188,281298,6,0,L|172:164,1,66.4999979705811,4|0,0:2|0:0,0:0:0:0:
224,24,281448,2,0,L|200:108,1,66.4999979705811
164,252,281598,1,0,0:0:0:0:
60,132,281748,6,2,P|48:72|72:20,1,114,10|0,0:0|2:0,0:0:0:0:
0,192,282048,1,4,0:0:0:0:
256,192,282198,12,0,282948,0:0:0:0:
256,192,283098,5,0,0:0:0:0:
