osu file format v14

[General]
AudioFilename: audio.mp3
AudioLeadIn: 0
PreviewTime: 67718
Countdown: 0
SampleSet: Normal
StackLeniency: 0.7
Mode: 1
LetterboxInBreaks: 0
WidescreenStoryboard: 1

[Editor]
Bookmarks: 20496,59088,67855,107301,142372,180964
DistanceSpacing: 1
BeatDivisor: 4
GridSize: 32
TimelineZoom: 3.100005

[Metadata]
Title:Resplendent Black
TitleUnicode:Resplendent Black
Artist:Zenpaku
ArtistUnicode:Zenpaku
Creator:Ulqui
Version:Muzukashii
Source:
Tags:electronic instrumental artcore dj-jo Odyssey Cycle EP gamelan4 o!tfac #3 osu!taiko featured artist cup mappers guild mpg
BeatmapID:3944115
BeatmapSetID:1908846

[Difficulty]
HPDrainRate:5
CircleSize:7
OverallDifficulty:5
ApproachRate:7
SliderMultiplier:1.3
SliderTickRate:1

[Events]
//Background and Video events
0,0,"41507950_p0.jpg",0,100
//Break Periods
//Storyboard Layer 0 (Background)
//Storyboard Layer 1 (Fail)
//Storyboard Layer 2 (Pass)
//Storyboard Layer 3 (Foreground)
//Storyboard Layer 4 (Overlay)
//Storyboard Sound Samples

[TimingPoints]
-13,301.507537688442,4,1,0,30,1,0
-13,-55.5555555555556,4,1,0,30,0,0
1187,-809.531330200971,4,1,0,30,0,0
2393,-680.010613246659,4,1,0,30,0,0
3599,-586.218727662616,4,1,0,30,0,0
4805,-515.163697580341,4,1,0,30,0,0
6011,-459.471572955651,4,1,0,30,0,0
7217,-414.645984589561,4,1,0,30,0,0
8423,-377.789242873726,4,1,0,30,0,0
9629,-346.94982655047,4,1,0,30,0,0
10835,-320.765343638042,4,1,0,30,0,0
12041,-298.255822411009,4,1,0,30,0,0
13247,-278.698329414004,4,1,0,30,0,0
14453,-261.547881772142,4,1,0,30,0,0
15659,-246.385867932464,4,1,0,30,0,0
16865,-232.885425777212,4,1,0,30,0,0
18071,-220.787611858329,4,1,0,30,0,0
19277,-142.840222669667,4,1,0,30,0,0
20484,-142.857142857143,4,1,0,30,0,0
37294,-125,4,1,0,30,0,0
38198,-111.111111111111,4,1,0,30,0,0
39103,-111.111111111111,4,1,0,30,0,0
39706,-100,4,1,0,70,0,0
46339,-111.111111111111,4,1,0,70,0,0
46866,-100,4,1,0,70,0,0
51464,-111.111111111111,4,1,0,70,0,0
51840,-100,4,1,0,70,0,0
56289,-99.9999999999999,4,1,0,70,0,0
56439,-83.3333333333333,4,1,0,100,0,0
56670,-66.6666666666667,4,1,0,100,0,1
57796,-66.6666666666667,4,1,0,100,0,1
59077,-166.666666666667,4,1,0,100,0,1
59082,273.972602739726,4,1,0,100,1,0
59082,-166.666666666667,4,1,0,100,0,0
59213,-170.406700178329,4,1,0,30,0,0
59214,-138.049124186862,4,1,0,30,0,0
61268,-133.262681703864,4,1,0,30,0,0
62364,-128.797028113678,4,1,0,30,0,0
62500,-168.264660396398,4,1,0,43,0,0
62911,-161.72156005867,4,1,0,46,0,0
63459,-124.620959988167,4,1,0,51,0,0
63733,-123.61891626194,4,1,0,54,0,0
63870,-123.123913075248,4,1,0,55,0,0
64144,-122.145704965567,4,1,0,58,0,0
64281,-121.662406677353,4,1,0,59,0,0
64418,-121.18291788329,4,1,0,61,0,0
64555,-120.707193718928,4,1,0,62,0,0
64692,-120.23519002155,4,1,0,64,0,0
64966,-119.302170803891,4,1,0,67,0,0
65103,-118.84107034545,4,1,0,69,0,0
65514,-117.478909572614,4,1,0,74,0,0
65651,-117.031768742447,4,1,0,75,0,0
65788,-116.58801876479,4,1,0,77,0,0
65856,-116.369010621694,4,1,0,78,0,0
65925,-116.147621214001,4,1,0,79,0,0
66199,-115.276732571663,4,1,0,82,0,0
66267,-115.062618647656,4,1,0,83,0,0
66336,-114.846167477746,4,1,0,84,0,0
66610,-113.994614853803,4,1,0,87,0,0
66678,-113.785232905204,4,1,0,88,0,0
66747,-113.57355657109,4,1,0,89,0,0
67021,-112.740703073773,4,1,0,93,0,0
67089,-112.535897949643,4,1,0,94,0,0
67158,-112.328840179726,4,1,0,95,0,0
67432,-111.514076584029,4,1,0,98,0,0
67569,-111.111111111111,4,1,0,100,0,0
67707,-833.333333333333,4,1,0,99,0,0
67844,-125,4,1,0,100,0,0
67849,-125,4,1,0,100,0,1
67878,-125,4,1,0,100,0,1
74418,-125,4,1,0,100,0,1
74555,-125.984251968504,4,1,0,100,0,1
74623,-126.478564422134,4,1,0,100,0,1
74692,-126.984126984127,4,1,0,100,0,1
74966,-129.032258064516,4,1,0,100,0,1
75034,-129.550827423168,4,1,0,100,0,1
75103,-130.081300813008,4,1,0,100,0,1
75514,-133.333333333333,4,1,0,100,0,1
75651,-132.231404958678,4,1,0,100,0,1
75788,-131.147540983607,4,1,0,100,0,1
76062,-129.032258064516,4,1,0,100,0,1
76199,-128,4,1,0,100,0,1
76473,-125.984251968504,4,1,0,100,0,1
76611,-125,4,1,0,100,0,1
76680,-125,4,1,0,100,0,1
83152,-125,4,1,0,100,0,1
84282,-125,4,1,0,100,0,1
84287,-125,4,1,0,100,0,0
84829,-111.111111111111,4,1,0,100,0,0
84920,-109.098148516823,4,1,0,100,0,0
85012,-107.13587487781,4,1,0,100,0,0
85103,-105.263157894737,4,1,0,100,0,0
85240,-102.564102564103,4,1,0,100,0,0
85378,-100,4,1,0,100,0,0
85383,-100,4,1,0,100,0,1
85447,-98.0392156862745,4,1,0,100,0,1
85584,-96.1538461538461,4,1,0,100,0,1
85721,-100,4,1,0,100,0,1
92775,-111.111111111111,4,1,0,100,0,1
93049,-108.693926161175,4,1,0,100,0,1
93323,-106.379672080193,4,1,0,100,0,1
93597,-104.161911283573,4,1,0,100,0,1
93871,-102.034732056346,4,1,0,100,0,1
94145,-100,4,1,0,100,0,1
94214,-98.0392156862745,4,1,0,100,0,1
94351,-96.1538461538461,4,1,0,100,0,1
94488,-100,4,1,0,100,0,1
98465,-100,4,1,0,100,0,1
102912,-100,4,1,0,100,0,1
102917,-100,4,1,0,100,0,0
103048,-86.9289340101523,4,1,0,100,0,0
103185,-90.8789386401327,4,1,0,100,0,0
103368,-96.7514124293785,4,1,0,100,0,0
103550,-103.396226415094,4,1,0,100,0,0
103779,-113.176373399422,4,1,0,100,0,0
104008,-124.943000455996,4,1,0,100,0,0
104145,-125,4,1,0,100,0,0
105036,-111.111111111111,4,1,0,100,0,0
106132,-100,4,1,0,100,0,0
107296,-83.3333333333333,4,1,0,100,0,0
107301,-90.9090909090909,4,1,0,100,0,1
111130,-90.9090909090909,4,1,0,100,0,1
111342,-100,4,1,0,100,0,1
111679,-100,4,1,0,100,0,1
113837,-100,4,1,0,100,0,1
114933,-100,4,1,0,100,0,1
115103,-98.7654320987654,4,1,0,100,0,1
115241,-97.5609756097561,4,1,0,100,0,1
115377,-96.3855421686747,4,1,0,100,0,1
115515,-95.2380952380952,4,1,0,100,0,1
115651,-93.0232558139535,4,1,0,100,0,1
115925,-91.9540229885057,4,1,0,100,0,1
116063,-90.9090909090909,4,1,0,100,0,1
116337,-100,4,1,0,100,0,1
118598,-100,4,1,0,100,0,1
119349,-100,4,1,0,100,0,1
119486,-99.009900990099,4,1,0,100,0,1
119623,-98.0392156862745,4,1,0,100,0,1
119760,-97.0873786407767,4,1,0,100,0,1
119898,-96.1538461538461,4,1,0,100,0,1
120172,-94.3396226415094,4,1,0,100,0,1
120309,-93.4579439252336,4,1,0,100,0,1
120446,-92.5925925925926,4,1,0,100,0,1
120583,-91.743119266055,4,1,0,100,0,1
120720,-90.9090909090909,4,1,0,100,0,1
120994,-92.3076923076923,4,1,0,100,0,1
121062,-92.6614812309773,4,1,0,100,0,1
121131,-93.0232558139535,4,1,0,100,0,1
121268,-93.75,4,1,0,100,0,1
121405,-94.488188976378,4,1,0,100,0,1
121542,-95.2380952380952,4,1,0,100,0,1
121816,-96.7741935483871,4,1,0,100,0,1
121953,-97.5609756097561,4,1,0,100,0,1
122090,-98.3606557377049,4,1,0,100,0,1
122158,-98.7624654571669,4,1,0,100,0,1
122227,-99.1735537190083,4,1,0,100,0,1
122364,-100,4,1,0,100,0,1
123734,-100,4,1,0,100,0,1
123739,-100,4,1,0,100,0,0
124281,-101.010101010101,4,1,0,100,0,0
124372,-99.5428096425603,4,1,0,100,0,0
124464,-99.009900990099,4,1,0,100,0,0
124555,-98.0392156862745,4,1,0,100,0,0
124830,-90.9090909090909,4,1,0,100,0,0
124835,-90.9090909090909,4,1,0,100,0,1
124864,-90.9090909090909,4,1,0,100,0,1
133597,-90.9090909090909,4,1,0,100,0,1
133734,-135.135135135135,4,1,0,50,0,1
134624,-151.515151515152,4,1,0,50,0,1
135698,-172.413793103448,4,1,0,50,0,1
136794,-200,4,1,0,50,0,1
138872,-200,4,1,0,5,0,1
139031,-200,4,1,0,5,0,1
139168,-10,4,1,0,5,0,1
139259,-166.666666666667,4,1,0,5,0,1
140172,-153.729883524495,4,1,0,5,0,1
141816,-125,4,1,0,5,0,1
141821,-125,4,1,0,5,0,0
142364,-105.263157894737,4,1,0,70,0,0
142369,301.507537688442,4,1,0,70,1,0
142664,-106.664308141335,4,1,0,70,0,0
142815,-107.381355177633,4,1,0,70,0,0
142966,-108.108108108108,4,1,0,70,0,0
143041,-108.472746896924,4,1,0,70,0,0
143116,-108.839853797211,4,1,0,70,0,0
143267,-109.586551567469,4,1,0,70,0,0
143418,-110.343565579395,4,1,0,70,0,0
143569,-111.111111111111,4,1,0,70,0,0
145944,-111.111111111111,4,1,0,70,0,0
160453,-111.111111111111,4,1,0,70,0,0
160755,-108.103262818214,4,1,0,70,0,0
161056,-105.263157894737,4,1,0,70,0,0
161358,-102.559741474615,4,1,0,70,0,0
161509,-101.259445843829,4,1,0,70,0,0
161659,-100,4,1,0,70,0,0
161735,-100,4,1,0,70,0,0
179599,-100,4,1,0,70,0,0
179749,-98.7634100401278,4,1,0,70,0,0
179825,-110.059131313359,4,1,0,70,0,0
179900,-97.5570296068597,4,1,0,70,0,0
179976,-108.268333637661,4,1,0,70,0,0
180051,-96.3874680306905,4,1,0,70,0,0
180202,-95.2380952380952,4,1,0,70,0,0
180352,-101.140504835,4,1,0,70,0,0
180428,-99.4340278113832,4,1,0,70,0,0
180503,-93.0196683378326,4,1,0,70,0,0
180654,-91.9557758292032,4,1,0,70,0,0
180805,-90.9090909090909,4,1,0,70,0,0
180956,-100,4,1,0,15,0,0
181485,-200,4,1,0,15,0,0
181635,-116.883116883117,4,1,0,15,0,0
184574,-130.434782608696,4,1,0,15,0,0
185780,-147.540983606557,4,1,0,15,0,0
186986,-169.811320754717,4,1,0,15,0,0
188192,-200,4,1,0,15,0,0

[HitObjects]
154,197,20489,5,0,0:0:0:0:
154,197,20941,1,8,0:0:0:0:
153,201,21394,1,8,0:0:0:0:
152,201,21846,1,8,0:0:0:0:
166,102,22298,1,0,0:0:0:0:
190,157,25313,1,8,0:0:0:0:
190,157,25765,1,0,0:0:0:0:
190,157,26218,1,8,0:0:0:0:
193,172,30137,1,0,0:0:0:0:
194,157,30590,1,8,0:0:0:0:
194,157,31042,1,8,0:0:0:0:
194,157,31494,1,8,0:0:0:0:
194,157,31946,1,0,0:0:0:0:
161,91,34961,1,8,0:0:0:0:
161,91,35414,1,0,0:0:0:0:
161,91,35866,1,8,0:0:0:0:
256,192,36167,12,0,38579,0:0:0:0:
215,104,39182,5,8,0:0:0:0:
215,104,39333,1,8,0:0:0:0:
215,104,39484,1,8,0:0:0:0:
215,97,39785,1,0,0:0:0:0:
187,108,40087,1,8,0:0:0:0:
187,108,40238,1,8,0:0:0:0:
187,108,40389,1,0,0:0:0:0:
193,81,40690,1,8,0:0:0:0:
198,82,40992,1,0,0:0:0:0:
217,62,41142,1,8,0:0:0:0:
163,111,41595,1,8,0:0:0:0:
232,68,41745,1,0,0:0:0:0:
161,128,41896,1,0,0:0:0:0:
161,128,42047,1,8,0:0:0:0:
161,128,42198,1,0,0:0:0:0:
172,99,42499,1,8,0:0:0:0:
187,80,42650,1,0,0:0:0:0:
172,99,42801,1,0,0:0:0:0:
172,99,42951,1,8,0:0:0:0:
177,93,43253,1,0,0:0:0:0:
175,93,43404,1,8,0:0:0:0:
186,73,43705,1,8,0:0:0:0:
186,73,44007,1,8,0:0:0:0:
186,73,44157,1,0,0:0:0:0:
201,54,44610,1,0,0:0:0:0:
205,83,44911,1,8,0:0:0:0:
205,83,45062,1,0,0:0:0:0:
201,86,45213,1,8,0:0:0:0:
207,66,45514,1,0,0:0:0:0:
190,64,45816,1,0,0:0:0:0:
187,68,45966,1,8,0:0:0:0:
190,95,46419,1,8,0:0:0:0:
176,51,46946,1,0,0:0:0:0:
179,99,47022,1,0,0:0:0:0:
176,51,47323,1,8,0:0:0:0:
176,51,47474,1,0,0:0:0:0:
176,51,47625,1,0,0:0:0:0:
179,99,47775,1,8,0:0:0:0:
194,54,48077,1,0,0:0:0:0:
180,60,48228,1,8,0:0:0:0:
180,60,48378,1,0,0:0:0:0:
180,60,48529,1,0,0:0:0:0:
179,60,48680,1,8,0:0:0:0:
183,73,48831,1,0,0:0:0:0:
209,69,49132,1,8,0:0:0:0:
195,75,49434,1,0,0:0:0:0:
195,77,49735,1,8,0:0:0:0:
194,79,49886,1,8,0:0:0:0:
192,79,50037,1,0,0:0:0:0:
186,85,50338,1,0,0:0:0:0:
186,85,50640,1,0,0:0:0:0:
186,85,50791,1,8,0:0:0:0:
219,61,51544,1,8,0:0:0:0:
218,83,51846,1,0,0:0:0:0:
218,83,51997,1,8,0:0:0:0:
218,83,52147,1,0,0:0:0:0:
219,88,52298,1,0,0:0:0:0:
219,89,52449,1,8,0:0:0:0:
217,89,52750,1,0,0:0:0:0:
217,89,52901,1,8,0:0:0:0:
185,31,53052,1,0,0:0:0:0:
184,73,53353,1,0,0:0:0:0:
184,73,53655,1,8,0:0:0:0:
185,58,53806,1,8,0:0:0:0:
184,64,54258,1,0,0:0:0:0:
216,49,54559,1,8,0:0:0:0:
216,49,54710,1,0,0:0:0:0:
176,33,54861,1,8,0:0:0:0:
214,95,55162,1,0,0:0:0:0:
178,97,55464,1,8,0:0:0:0:
178,97,55615,1,0,0:0:0:0:
181,91,56368,1,8,0:0:0:0:
256,192,56670,12,0,58931,0:0:0:0:
64,320,59082,5,4,0:0:0:0:
195,108,63465,5,0,0:0:0:0:
207,124,63739,1,8,0:0:0:0:
207,124,63876,1,0,0:0:0:0:
230,73,64150,1,8,0:0:0:0:
227,75,64287,1,0,0:0:0:0:
226,75,64424,1,0,0:0:0:0:
225,76,64561,1,8,0:0:0:0:
193,33,64698,1,0,0:0:0:0:
193,33,64972,1,8,0:0:0:0:
193,33,65109,1,0,0:0:0:0:
194,75,65520,1,0,0:0:0:0:
194,75,65657,1,0,0:0:0:0:
214,97,65794,1,8,0:0:0:0:
210,97,65862,1,8,0:0:0:0:
187,87,65931,1,8,0:0:0:0:
201,71,66205,1,8,0:0:0:0:
192,62,66273,1,8,0:0:0:0:
200,72,66342,1,8,0:0:0:0:
199,72,66616,1,8,0:0:0:0:
192,64,66684,1,8,0:0:0:0:
201,71,66753,1,8,0:0:0:0:
192,64,67027,1,8,0:0:0:0:
198,56,67095,1,8,0:0:0:0:
201,71,67164,1,8,0:0:0:0:
153,107,67438,1,8,0:0:0:0:
194,91,67575,1,8,0:0:0:0:
194,91,67849,1,4,0:0:0:0:
185,111,68123,1,8,0:0:0:0:
212,87,68260,1,0,0:0:0:0:
169,123,68328,1,0,0:0:0:0:
190,106,68397,1,0,0:0:0:0:
186,106,68534,1,8,0:0:0:0:
205,128,68808,1,0,0:0:0:0:
214,87,68945,1,8,0:0:0:0:
64,64,69218,1,0,0:0:0:0:
192,89,69355,1,8,0:0:0:0:
192,57,69492,1,0,0:0:0:0:
192,89,69766,1,8,0:0:0:0:
194,34,70040,1,0,0:0:0:0:
172,77,70177,1,8,0:0:0:0:
172,77,70246,1,8,0:0:0:0:
172,68,70314,1,8,0:0:0:0:
448,64,70588,1,8,0:0:0:0:
448,64,70657,1,8,0:0:0:0:
159,64,70725,1,8,0:0:0:0:
448,64,70999,1,8,0:0:0:0:
448,64,71068,1,8,0:0:0:0:
151,75,71136,1,8,0:0:0:0:
208,147,71273,1,0,0:0:0:0:
146,84,71547,1,8,0:0:0:0:
142,93,71958,1,8,0:0:0:0:
161,69,72095,1,8,0:0:0:0:
161,69,72232,1,0,0:0:0:0:
161,69,72369,1,0,0:0:0:0:
161,74,72506,1,8,0:0:0:0:
179,87,72780,1,0,0:0:0:0:
180,93,72917,1,8,0:0:0:0:
178,95,73191,1,0,0:0:0:0:
176,97,73328,1,8,0:0:0:0:
180,61,73465,1,0,0:0:0:0:
166,66,73602,1,0,0:0:0:0:
175,98,73739,1,8,0:0:0:0:
64,64,73876,1,0,0:0:0:0:
155,67,74150,1,8,0:0:0:0:
200,80,74424,1,0,0:0:0:0:
207,53,74561,1,8,0:0:0:0:
202,46,74629,1,8,0:0:0:0:
207,53,74698,1,8,0:0:0:0:
206,83,74972,1,8,0:0:0:0:
205,83,75040,1,8,0:0:0:0:
206,83,75109,1,8,0:0:0:0:
214,89,75520,1,8,0:0:0:0:
213,90,75657,1,8,0:0:0:0:
210,91,75794,1,8,0:0:0:0:
187,87,76068,1,8,0:0:0:0:
187,87,76205,1,8,0:0:0:0:
194,81,76479,1,8,0:0:0:0:
64,320,76616,1,4,0:0:0:0:
448,64,76890,1,8,0:0:0:0:
64,64,77027,1,0,0:0:0:0:
232,157,77095,1,0,0:0:0:0:
64,64,77164,1,0,0:0:0:0:
448,64,77301,1,8,0:0:0:0:
64,64,77575,1,0,0:0:0:0:
448,64,77712,1,8,0:0:0:0:
64,64,77986,1,0,0:0:0:0:
448,64,78123,1,8,0:0:0:0:
64,64,78260,1,0,0:0:0:0:
448,64,78534,1,8,0:0:0:0:
64,64,78808,1,0,0:0:0:0:
448,64,78945,1,8,0:0:0:0:
448,64,79013,1,8,0:0:0:0:
448,64,79082,1,8,0:0:0:0:
448,64,79355,1,8,0:0:0:0:
448,64,79424,1,8,0:0:0:0:
448,64,79492,1,8,0:0:0:0:
448,64,79766,1,8,0:0:0:0:
448,64,79835,1,8,0:0:0:0:
448,64,79903,1,8,0:0:0:0:
64,64,80040,1,0,0:0:0:0:
448,64,80314,1,8,0:0:0:0:
448,64,80725,1,8,0:0:0:0:
448,64,80862,1,8,0:0:0:0:
64,64,80999,1,0,0:0:0:0:
64,64,81136,1,0,0:0:0:0:
448,64,81273,1,8,0:0:0:0:
64,64,81547,1,0,0:0:0:0:
448,64,81684,1,8,0:0:0:0:
64,64,81958,1,0,0:0:0:0:
448,64,82095,1,8,0:0:0:0:
188,79,82232,1,0,0:0:0:0:
64,64,82369,1,0,0:0:0:0:
448,64,82506,1,8,0:0:0:0:
64,64,82643,1,0,0:0:0:0:
448,64,82917,1,8,0:0:0:0:
64,64,83191,1,0,0:0:0:0:
448,64,83328,1,8,0:0:0:0:
448,64,83397,1,8,0:0:0:0:
448,64,83465,1,8,0:0:0:0:
448,64,83739,1,8,0:0:0:0:
448,64,83808,1,8,0:0:0:0:
448,64,83876,1,8,0:0:0:0:
448,64,84150,1,8,0:0:0:0:
448,64,84218,1,8,0:0:0:0:
448,64,84287,1,8,0:0:0:0:
448,64,84835,1,8,0:0:0:0:
448,64,84926,1,8,0:0:0:0:
448,64,85018,1,8,0:0:0:0:
448,64,85109,1,8,0:0:0:0:
64,320,85383,1,4,0:0:0:0:
64,64,85520,1,4,0:0:0:0:
448,64,85657,1,12,0:0:0:0:
64,64,85931,1,0,0:0:0:0:
64,64,85999,1,0,0:0:0:0:
64,64,86068,1,0,0:0:0:0:
64,64,86205,1,0,0:0:0:0:
448,64,86342,1,8,0:0:0:0:
64,64,86479,1,0,0:0:0:0:
448,64,86753,1,8,0:0:0:0:
64,64,86890,1,0,0:0:0:0:
64,64,86958,1,0,0:0:0:0:
64,64,87027,1,0,0:0:0:0:
448,64,87164,1,8,0:0:0:0:
64,64,87301,1,0,0:0:0:0:
448,64,87575,1,8,0:0:0:0:
448,64,87712,1,8,0:0:0:0:
448,64,87849,1,8,0:0:0:0:
64,64,87986,1,0,0:0:0:0:
64,64,88123,1,0,0:0:0:0:
64,64,88397,1,0,0:0:0:0:
448,64,88534,1,8,0:0:0:0:
64,64,88671,1,0,0:0:0:0:
448,64,88945,1,8,0:0:0:0:
64,64,89082,1,0,0:0:0:0:
64,64,89150,1,0,0:0:0:0:
64,64,89218,1,0,0:0:0:0:
448,64,89355,1,8,0:0:0:0:
64,64,89492,1,0,0:0:0:0:
64,64,89629,1,0,0:0:0:0:
64,64,89766,1,0,0:0:0:0:
64,64,89903,1,0,0:0:0:0:
448,64,90040,1,8,0:0:0:0:
64,64,90177,1,0,0:0:0:0:
64,64,90314,1,0,0:0:0:0:
448,64,90451,1,8,0:0:0:0:
64,64,90588,1,0,0:0:0:0:
448,64,90862,1,8,0:0:0:0:
64,64,91136,1,0,0:0:0:0:
448,64,91273,1,8,0:0:0:0:
64,64,91410,1,0,0:0:0:0:
448,64,91684,1,8,0:0:0:0:
448,64,91958,1,8,0:0:0:0:
64,64,92095,1,0,0:0:0:0:
64,64,92232,1,0,0:0:0:0:
448,64,92369,1,8,0:0:0:0:
64,64,92780,1,0,0:0:0:0:
448,320,93054,1,12,0:0:0:0:
64,64,93328,1,0,0:0:0:0:
448,64,93602,1,12,0:0:0:0:
448,64,93876,1,12,0:0:0:0:
64,320,94150,1,4,0:0:0:0:
64,64,94287,1,4,0:0:0:0:
448,64,94424,1,12,0:0:0:0:
64,64,94698,1,0,0:0:0:0:
64,64,94766,1,0,0:0:0:0:
64,64,94835,1,0,0:0:0:0:
64,64,94972,1,0,0:0:0:0:
448,64,95109,1,8,0:0:0:0:
64,64,95246,1,0,0:0:0:0:
448,64,95520,1,8,0:0:0:0:
64,64,95657,1,0,0:0:0:0:
64,64,95725,1,0,0:0:0:0:
64,64,95794,1,0,0:0:0:0:
448,64,95931,1,8,0:0:0:0:
64,64,96068,1,0,0:0:0:0:
448,64,96342,1,8,0:0:0:0:
448,64,96479,1,8,0:0:0:0:
448,64,96616,1,8,0:0:0:0:
64,64,96753,1,0,0:0:0:0:
64,64,96890,1,0,0:0:0:0:
64,64,97164,1,0,0:0:0:0:
448,64,97301,1,8,0:0:0:0:
64,64,97438,1,0,0:0:0:0:
448,64,97712,1,8,0:0:0:0:
64,64,97849,1,0,0:0:0:0:
64,64,97917,1,0,0:0:0:0:
64,64,97986,1,0,0:0:0:0:
448,64,98123,1,8,0:0:0:0:
21,194,98260,6,0,L|218:166,1,195
448,64,98808,1,8,0:0:0:0:
64,64,98945,1,0,0:0:0:0:
64,64,99082,1,0,0:0:0:0:
448,64,99218,1,8,0:0:0:0:
64,64,99355,1,0,0:0:0:0:
448,64,99629,1,8,0:0:0:0:
64,64,99903,1,0,0:0:0:0:
448,64,100040,1,8,0:0:0:0:
64,64,100177,1,0,0:0:0:0:
448,64,100451,1,8,0:0:0:0:
448,64,100725,1,8,0:0:0:0:
64,64,100862,1,0,0:0:0:0:
64,64,100999,1,0,0:0:0:0:
448,64,101136,1,8,0:0:0:0:
205,94,101547,1,8,0:0:0:0:
448,64,101821,1,8,0:0:0:0:
448,64,101890,1,8,0:0:0:0:
244,147,101958,1,8,0:0:0:0:
222,163,102095,1,0,0:0:0:0:
448,64,102369,1,12,0:0:0:0:
448,64,102643,1,12,0:0:0:0:
256,192,102917,12,0,103876,0:0:0:0:
204,208,104013,5,4,0:0:0:0:
448,64,107301,1,12,0:0:0:0:
64,64,107438,1,0,0:0:0:0:
64,64,107575,1,0,0:0:0:0:
448,64,107712,1,8,0:0:0:0:
64,64,107986,1,0,0:0:0:0:
448,64,108123,1,8,0:0:0:0:
64,64,108260,1,0,0:0:0:0:
64,64,108397,1,0,0:0:0:0:
448,64,108534,1,8,0:0:0:0:
64,64,108808,1,0,0:0:0:0:
64,64,108945,1,0,0:0:0:0:
64,64,109082,1,0,0:0:0:0:
448,64,109218,1,8,0:0:0:0:
448,64,109355,1,8,0:0:0:0:
448,64,109492,1,8,0:0:0:0:
64,64,109766,1,0,0:0:0:0:
448,64,109903,1,8,0:0:0:0:
64,64,110177,1,0,0:0:0:0:
448,64,110314,1,8,0:0:0:0:
64,64,110451,1,0,0:0:0:0:
448,64,110725,1,8,0:0:0:0:
64,64,110862,1,0,0:0:0:0:
448,320,111136,1,8,0:0:0:0:
64,64,111684,1,0,0:0:0:0:
448,64,111890,1,8,0:0:0:0:
64,64,112095,1,0,0:0:0:0:
448,64,112301,1,8,0:0:0:0:
64,64,112506,1,0,0:0:0:0:
448,64,112712,1,8,0:0:0:0:
64,64,112917,1,0,0:0:0:0:
448,64,113054,1,8,0:0:0:0:
64,64,113191,1,0,0:0:0:0:
64,64,113328,1,0,0:0:0:0:
448,64,113465,1,8,0:0:0:0:
448,64,113876,1,8,0:0:0:0:
448,64,114150,1,8,0:0:0:0:
448,64,114287,1,0,0:0:0:0:
448,64,114424,1,8,0:0:0:0:
448,64,114492,1,8,0:0:0:0:
448,64,114561,1,8,0:0:0:0:
64,64,114698,1,0,0:0:0:0:
64,64,114835,1,8,0:0:0:0:
448,64,115109,1,8,0:0:0:0:
100,130,115246,1,0,0:0:0:0:
448,64,115383,1,8,0:0:0:0:
100,130,115520,1,0,0:0:0:0:
157,109,115794,1,8,0:0:0:0:
64,320,116068,1,4,0:0:0:0:
64,64,116479,1,0,0:0:0:0:
448,64,116890,1,8,0:0:0:0:
448,64,116958,1,8,0:0:0:0:
448,64,117027,1,8,0:0:0:0:
448,64,117095,1,8,0:0:0:0:
448,64,117164,1,8,0:0:0:0:
448,64,117712,1,8,0:0:0:0:
64,64,117849,1,0,0:0:0:0:
448,64,117986,1,8,0:0:0:0:
448,64,118260,1,8,0:0:0:0:
448,64,118351,1,8,0:0:0:0:
448,64,118442,1,8,0:0:0:0:
448,64,118534,1,8,0:0:0:0:
448,64,118671,1,0,0:0:0:0:
0,384,119082,6,0,L|124:377,1,129.999996032714
448,64,119492,1,8,0:0:0:0:
448,64,119629,1,8,0:0:0:0:
64,64,119766,1,0,0:0:0:0:
64,64,119903,1,0,0:0:0:0:
448,64,120177,1,8,0:0:0:0:
448,64,120314,1,8,0:0:0:0:
448,64,120451,1,0,0:0:0:0:
448,64,120588,1,0,0:0:0:0:
448,64,120725,1,8,0:0:0:0:
64,64,120999,1,0,0:0:0:0:
64,64,121068,1,0,0:0:0:0:
64,64,121136,1,0,0:0:0:0:
448,64,121273,1,8,0:0:0:0:
448,64,121410,1,8,0:0:0:0:
64,64,121547,1,0,0:0:0:0:
64,64,121821,1,0,0:0:0:0:
64,64,121958,1,0,0:0:0:0:
448,64,122095,1,8,0:0:0:0:
448,64,122164,1,8,0:0:0:0:
448,64,122232,1,8,0:0:0:0:
64,64,122369,1,0,0:0:0:0:
448,64,122643,1,8,0:0:0:0:
448,64,122917,1,8,0:0:0:0:
448,64,123191,1,8,0:0:0:0:
448,64,123260,1,8,0:0:0:0:
448,64,123328,1,8,0:0:0:0:
448,64,123465,1,8,0:0:0:0:
448,64,123602,1,8,0:0:0:0:
448,64,123671,1,8,0:0:0:0:
448,64,123739,1,8,0:0:0:0:
64,64,124287,1,0,0:0:0:0:
64,64,124378,1,0,0:0:0:0:
64,64,124470,1,0,0:0:0:0:
64,64,124561,1,0,0:0:0:0:
64,320,124835,1,4,0:0:0:0:
64,64,124972,1,0,0:0:0:0:
448,64,125109,1,8,0:0:0:0:
64,64,125246,1,0,0:0:0:0:
448,64,125520,1,8,0:0:0:0:
64,64,125657,1,0,0:0:0:0:
64,64,125794,1,0,0:0:0:0:
448,64,125931,1,8,0:0:0:0:
64,64,126068,1,0,0:0:0:0:
448,64,126479,1,8,0:0:0:0:
448,64,126616,1,8,0:0:0:0:
64,64,126753,1,0,0:0:0:0:
64,64,126958,1,0,0:0:0:0:
64,64,127027,1,0,0:0:0:0:
64,64,127164,1,0,0:0:0:0:
448,64,127301,1,8,0:0:0:0:
64,64,127438,1,0,0:0:0:0:
448,64,127712,1,8,0:0:0:0:
64,64,127849,1,0,0:0:0:0:
64,64,127986,1,0,0:0:0:0:
448,64,128123,1,8,0:0:0:0:
64,64,128260,1,0,0:0:0:0:
448,64,128671,1,8,0:0:0:0:
448,64,128739,1,8,0:0:0:0:
448,64,128808,1,8,0:0:0:0:
64,64,128945,1,0,0:0:0:0:
448,64,129218,1,8,0:0:0:0:
64,64,129355,1,0,0:0:0:0:
448,64,129492,1,8,0:0:0:0:
64,64,129629,1,0,0:0:0:0:
448,64,129903,1,8,0:0:0:0:
448,64,130040,1,8,0:0:0:0:
64,64,130177,1,0,0:0:0:0:
448,64,130314,1,8,0:0:0:0:
64,64,130451,1,0,0:0:0:0:
64,64,130725,1,0,0:0:0:0:
448,64,130862,1,8,0:0:0:0:
448,64,130999,1,8,0:0:0:0:
64,64,131136,1,0,0:0:0:0:
64,64,131410,1,0,0:0:0:0:
448,64,131547,1,8,0:0:0:0:
448,64,131684,1,8,0:0:0:0:
64,64,131821,1,0,0:0:0:0:
64,64,131958,1,0,0:0:0:0:
64,64,132095,1,0,0:0:0:0:
448,64,132232,1,8,0:0:0:0:
448,64,132369,1,8,0:0:0:0:
0,384,132506,6,0,L|512:384,1,500.550031639934
64,320,133602,1,4,0:0:0:0:
448,64,137986,1,8,0:0:0:0:
64,64,138397,1,0,0:0:0:0:
448,64,138808,1,8,0:0:0:0:
256,192,139082,12,0,141821,0:0:0:0:
64,320,142369,5,4,0:0:0:0:
448,64,142670,1,8,0:0:0:0:
64,64,142821,1,0,0:0:0:0:
64,64,142972,1,0,0:0:0:0:
64,64,143047,1,0,0:0:0:0:
64,64,143122,1,0,0:0:0:0:
448,64,143424,1,8,0:0:0:0:
64,64,143575,1,0,0:0:0:0:
448,64,143725,1,8,0:0:0:0:
64,64,143876,1,8,0:0:0:0:
192,96,144027,1,0,0:0:0:0:
64,64,144102,1,0,0:0:0:0:
64,64,144178,1,0,0:0:0:0:
448,64,144328,1,8,0:0:0:0:
448,64,144781,1,8,0:0:0:0:
224,128,144856,1,8,0:0:0:0:
448,64,144931,1,8,0:0:0:0:
64,64,145082,1,0,0:0:0:0:
448,64,145384,1,8,0:0:0:0:
64,64,145534,1,0,0:0:0:0:
448,64,145836,1,8,0:0:0:0:
0,384,145987,6,0,L|512:384,1,175.398593566418
64,64,146590,1,0,0:0:0:0:
64,64,146740,1,0,0:0:0:0:
448,64,147042,1,8,0:0:0:0:
64,64,147193,1,0,0:0:0:0:
448,64,147494,1,8,0:0:0:0:
448,64,147645,1,8,0:0:0:0:
64,64,147796,1,0,0:0:0:0:
64,64,147871,1,0,0:0:0:0:
64,64,147946,1,0,0:0:0:0:
448,64,148248,1,8,0:0:0:0:
64,64,148399,1,0,0:0:0:0:
224,128,148549,1,8,0:0:0:0:
448,64,148700,1,8,0:0:0:0:
64,64,148851,1,0,0:0:0:0:
64,64,148926,1,0,0:0:0:0:
64,64,149002,1,0,0:0:0:0:
448,64,149152,1,8,0:0:0:0:
448,64,149605,1,8,0:0:0:0:
448,64,149755,1,8,0:0:0:0:
64,64,149906,1,0,0:0:0:0:
448,64,150208,1,8,0:0:0:0:
64,64,150358,1,0,0:0:0:0:
448,64,150660,1,8,0:0:0:0:
0,384,150811,6,0,L|512:384,1,175.398593566418
448,64,151414,1,8,0:0:0:0:
448,64,151564,1,8,0:0:0:0:
448,64,151715,1,0,0:0:0:0:
64,64,152017,1,0,0:0:0:0:
448,64,152318,1,8,0:0:0:0:
64,64,152469,1,0,0:0:0:0:
64,64,152620,1,0,0:0:0:0:
64,64,152695,1,0,0:0:0:0:
64,64,152771,1,0,0:0:0:0:
448,64,153072,1,8,0:0:0:0:
64,64,153223,1,0,0:0:0:0:
224,128,153374,1,8,0:0:0:0:
448,64,153524,1,8,0:0:0:0:
64,64,153675,1,0,0:0:0:0:
64,64,153750,1,0,0:0:0:0:
64,64,153826,1,0,0:0:0:0:
448,64,153977,1,8,0:0:0:0:
448,64,154429,1,8,0:0:0:0:
448,64,154580,1,8,0:0:0:0:
64,64,154730,1,0,0:0:0:0:
448,64,155032,1,8,0:0:0:0:
64,64,155183,1,0,0:0:0:0:
448,64,155484,1,8,0:0:0:0:
0,182,155635,6,0,L|117:178,1,175.786643552184
448,64,156238,1,8,0:0:0:0:
448,64,156389,1,8,0:0:0:0:
448,64,156539,1,8,0:0:0:0:
64,64,156841,1,0,0:0:0:0:
448,64,157142,1,8,0:0:0:0:
448,64,157293,1,8,0:0:0:0:
64,64,157444,1,0,0:0:0:0:
64,64,157519,1,0,0:0:0:0:
64,64,157595,1,0,0:0:0:0:
448,64,157896,1,8,0:0:0:0:
64,64,158047,1,0,0:0:0:0:
256,128,158198,1,8,0:0:0:0:
448,64,158348,1,8,0:0:0:0:
64,64,158499,1,0,0:0:0:0:
64,64,158575,1,0,0:0:0:0:
64,64,158650,1,0,0:0:0:0:
448,64,158801,1,8,0:0:0:0:
448,64,158951,1,8,0:0:0:0:
448,64,159102,1,8,0:0:0:0:
448,64,159178,1,8,0:0:0:0:
448,64,159253,1,8,0:0:0:0:
64,64,159554,1,0,0:0:0:0:
224,128,159655,1,0,0:0:0:0:
224,128,159755,1,0,0:0:0:0:
448,64,159856,1,0,0:0:0:0:
64,64,160007,1,8,0:0:0:0:
224,96,160308,1,0,0:0:0:0:
448,64,160459,1,8,0:0:0:0:
448,64,160760,1,8,0:0:0:0:
448,64,161062,1,8,0:0:0:0:
448,64,161363,1,8,0:0:0:0:
448,64,161514,1,8,0:0:0:0:
64,64,161665,1,4,0:0:0:0:
448,64,162117,1,8,0:0:0:0:
64,64,162268,1,0,0:0:0:0:
64,64,162343,1,0,0:0:0:0:
64,64,162419,1,0,0:0:0:0:
448,64,162570,1,8,0:0:0:0:
448,64,162720,1,8,0:0:0:0:
64,64,162871,1,0,0:0:0:0:
448,64,163022,1,8,0:0:0:0:
64,64,163474,1,0,0:0:0:0:
448,64,164077,1,8,0:0:0:0:
448,64,164152,1,8,0:0:0:0:
448,64,164228,1,8,0:0:0:0:
64,64,164379,1,0,0:0:0:0:
448,64,164680,1,8,0:0:0:0:
64,64,164831,1,0,0:0:0:0:
448,64,165132,1,8,0:0:0:0:
0,384,165283,6,0,L|512:384,1,259.993490463495
64,64,166037,1,0,0:0:0:0:
448,64,166338,1,8,0:0:0:0:
64,64,166489,1,0,0:0:0:0:
448,64,166941,1,8,0:0:0:0:
64,64,167092,1,0,0:0:0:0:
64,64,167243,1,0,0:0:0:0:
448,64,167394,1,8,0:0:0:0:
448,64,167544,1,8,0:0:0:0:
64,64,167695,1,0,0:0:0:0:
448,64,167846,1,8,0:0:0:0:
448,64,168147,1,8,0:0:0:0:
64,64,168298,1,0,0:0:0:0:
205,102,168374,1,0,0:0:0:0:
448,64,168449,1,0,0:0:0:0:
448,64,168600,1,8,0:0:0:0:
64,64,168750,1,0,0:0:0:0:
448,64,168901,1,8,0:0:0:0:
448,64,169052,1,8,0:0:0:0:
64,64,169203,1,0,0:0:0:0:
448,64,169504,1,8,0:0:0:0:
64,64,169655,1,0,0:0:0:0:
448,64,169956,1,8,0:0:0:0:
448,64,170409,1,8,0:0:0:0:
448,64,170710,1,8,0:0:0:0:
448,64,170861,1,8,0:0:0:0:
64,64,171012,1,0,0:0:0:0:
448,64,171162,1,8,0:0:0:0:
64,64,171313,1,0,0:0:0:0:
448,64,171765,1,8,0:0:0:0:
64,64,171916,1,0,0:0:0:0:
64,64,171992,1,0,0:0:0:0:
64,64,172067,1,0,0:0:0:0:
448,64,172218,1,8,0:0:0:0:
448,64,172368,1,8,0:0:0:0:
64,64,172519,1,0,0:0:0:0:
448,64,172670,1,8,0:0:0:0:
64,64,172972,1,0,0:0:0:0:
64,64,173122,1,0,0:0:0:0:
448,64,173273,1,8,0:0:0:0:
64,64,173424,1,0,0:0:0:0:
64,64,173650,1,0,0:0:0:0:
64,64,173725,1,0,0:0:0:0:
448,64,173876,1,8,0:0:0:0:
64,64,174027,1,0,0:0:0:0:
448,64,174328,1,8,0:0:0:0:
64,64,174479,1,0,0:0:0:0:
448,64,174781,1,8,0:0:0:0:
448,64,175082,1,8,0:0:0:0:
64,64,175233,1,0,0:0:0:0:
64,64,175384,1,0,0:0:0:0:
448,64,175534,1,8,0:0:0:0:
448,64,175685,1,8,0:0:0:0:
448,64,176137,1,8,0:0:0:0:
448,64,176590,1,8,0:0:0:0:
64,64,176740,1,0,0:0:0:0:
64,64,176816,1,0,0:0:0:0:
64,64,176891,1,0,0:0:0:0:
448,64,177042,1,8,0:0:0:0:
448,64,177193,1,8,0:0:0:0:
64,64,177343,1,0,0:0:0:0:
448,64,177494,1,8,0:0:0:0:
64,64,177796,1,0,0:0:0:0:
448,64,177946,1,8,0:0:0:0:
448,64,178097,1,8,0:0:0:0:
448,64,178248,1,8,0:0:0:0:
64,64,178399,1,0,0:0:0:0:
448,64,178549,1,8,0:0:0:0:
64,64,178851,1,0,0:0:0:0:
448,64,179077,1,8,0:0:0:0:
448,64,179152,1,8,0:0:0:0:
64,64,179303,1,0,0:0:0:0:
448,64,179605,1,8,0:0:0:0:
448,64,179755,1,8,0:0:0:0:
64,64,179906,1,0,0:0:0:0:
448,64,180057,1,8,0:0:0:0:
448,64,180208,1,8,0:0:0:0:
64,64,180509,1,0,0:0:0:0:
448,64,180660,1,8,0:0:0:0:
448,64,180811,1,8,0:0:0:0:
256,192,181564,12,0,188198,0:0:0:0:
