osu file format v14

[General]
AudioFilename: audio.mp3
AudioLeadIn: 0
PreviewTime: 67718
Countdown: 0
SampleSet: Normal
StackLeniency: 0.7
Mode: 1
LetterboxInBreaks: 0
WidescreenStoryboard: 1

[Editor]
Bookmarks: 20496,59088,67855,107301,142372,180964
DistanceSpacing: 1
BeatDivisor: 2
GridSize: 32
TimelineZoom: 0.6999998

[Metadata]
Title:Resplendent Black
TitleUnicode:Resplendent Black
Artist:Zenpaku
ArtistUnicode:Zenpaku
Creator:Ulqui
Version:Kantan
Source:
Tags:electronic instrumental artcore dj-jo Odyssey Cycle EP gamelan4 o!tfac #3 osu!taiko featured artist cup mappers guild mpg
BeatmapID:3945747
BeatmapSetID:1908846

[Difficulty]
HPDrainRate:7
CircleSize:7
OverallDifficulty:3
ApproachRate:7
SliderMultiplier:1.3
SliderTickRate:1

[Events]
//Background and Video events
0,0,"41507950_p0.jpg",0,100
//Break Periods
2,59282,66949
2,104213,106401
2,133802,138182
//Storyboard Layer 0 (Background)
//Storyboard Layer 1 (Fail)
//Storyboard Layer 2 (Pass)
//Storyboard Layer 3 (Foreground)
//Storyboard Layer 4 (Overlay)
//Storyboard Sound Samples

[TimingPoints]
-13,301.507537688442,4,1,0,30,1,0
-13,-100,4,1,0,30,0,0
1192,-809.531330200971,4,1,0,30,0,0
2398,-680.010613246659,4,1,0,30,0,0
3604,-586.218727662616,4,1,0,30,0,0
4810,-515.163697580341,4,1,0,30,0,0
6016,-459.471572955651,4,1,0,30,0,0
7222,-414.645984589561,4,1,0,30,0,0
8428,-377.789242873726,4,1,0,30,0,0
9634,-346.94982655047,4,1,0,30,0,0
10840,-320.765343638042,4,1,0,30,0,0
12046,-298.255822411009,4,1,0,30,0,0
13252,-278.698329414004,4,1,0,30,0,0
14458,-261.547881772142,4,1,0,30,0,0
15664,-246.385867932464,4,1,0,30,0,0
16870,-232.885425777212,4,1,0,30,0,0
18076,-220.787611858329,4,1,0,30,0,0
19282,-142.840222669667,4,1,0,30,0,0
20489,-142.857142857143,4,1,0,30,0,0
37299,-111.111111111111,4,1,0,30,0,0
38203,-111.111111111111,4,1,0,30,0,0
39108,-111.111111111111,4,1,0,30,0,0
39711,-111.111111111111,4,1,0,70,0,0
46344,-111.111111111111,4,1,0,70,0,0
46871,-111.111111111111,4,1,0,70,0,0
51469,-111.111111111111,4,1,0,70,0,0
51845,-111.111111111111,4,1,0,70,0,0
56294,-111.111111111111,4,1,0,70,0,0
56444,-111.111111111111,4,1,0,100,0,0
56670,-111.111111111111,4,1,0,100,0,1
59082,273.972602739726,4,1,0,100,1,0
59082,-111.111111111111,4,1,0,100,0,0
59116,-111.111111111111,4,1,0,30,0,0
59218,-111.111111111111,4,1,0,30,0,0
59219,-111.111111111111,4,1,0,30,0,0
62505,-111.111111111111,4,1,0,43,0,0
62916,-111.111111111111,4,1,0,46,0,0
63464,-111.111111111111,4,1,0,51,0,0
63738,-111.111111111111,4,1,0,54,0,0
63875,-111.111111111111,4,1,0,55,0,0
64149,-111.111111111111,4,1,0,58,0,0
64286,-111.111111111111,4,1,0,59,0,0
64423,-111.111111111111,4,1,0,61,0,0
64560,-111.111111111111,4,1,0,62,0,0
64697,-111.111111111111,4,1,0,64,0,0
64971,-111.111111111111,4,1,0,67,0,0
65108,-111.111111111111,4,1,0,69,0,0
65519,-111.111111111111,4,1,0,74,0,0
65656,-111.111111111111,4,1,0,75,0,0
65793,-111.111111111111,4,1,0,77,0,0
65861,-111.111111111111,4,1,0,78,0,0
65930,-111.111111111111,4,1,0,79,0,0
66204,-111.111111111111,4,1,0,82,0,0
66272,-111.111111111111,4,1,0,83,0,0
66341,-111.111111111111,4,1,0,84,0,0
66615,-111.111111111111,4,1,0,87,0,0
66683,-111.111111111111,4,1,0,88,0,0
66752,-111.111111111111,4,1,0,89,0,0
67026,-111.111111111111,4,1,0,93,0,0
67094,-111.111111111111,4,1,0,94,0,0
67163,-111.111111111111,4,1,0,95,0,0
67437,-111.111111111111,4,1,0,98,0,0
67574,-111.111111111111,4,1,0,100,0,0
67712,-111.111111111111,4,1,0,99,0,0
67849,-111.111111111111,4,1,0,100,0,1
67883,-111.111111111111,4,1,0,100,0,1
74423,-111.111111111111,4,1,0,100,0,1
76478,-111.111111111111,4,1,0,100,0,1
76616,-111.111111111111,4,1,0,100,0,1
76685,-111.111111111111,4,1,0,100,0,1
83157,-111.111111111111,4,1,0,100,0,1
84287,-111.111111111111,4,1,0,100,0,0
84834,-111.111111111111,4,1,0,100,0,0
84925,-111.111111111111,4,1,0,100,0,0
85017,-111.111111111111,4,1,0,100,0,0
85108,-111.111111111111,4,1,0,100,0,0
85245,-111.111111111111,4,1,0,100,0,0
85383,-111.111111111111,4,1,0,100,0,1
85726,-111.111111111111,4,1,0,100,0,1
94150,-111.111111111111,4,1,0,100,0,1
94493,-111.111111111111,4,1,0,100,0,1
102917,-111.111111111111,4,1,0,100,0,0
103053,-111.111111111111,4,1,0,100,0,0
103190,-111.111111111111,4,1,0,100,0,0
103373,-111.111111111111,4,1,0,100,0,0
103555,-111.111111111111,4,1,0,100,0,0
103784,-111.111111111111,4,1,0,100,0,0
104013,-111.111111111111,4,1,0,100,0,0
104150,-111.111111111111,4,1,0,100,0,0
105041,-111.111111111111,4,1,0,100,0,0
106137,-111.111111111111,4,1,0,100,0,0
107301,-111.111111111111,4,1,0,100,0,1
111135,-111.111111111111,4,1,0,100,0,1
111377,-111.111111111111,4,1,0,100,0,1
111684,-111.111111111111,4,1,0,100,0,1
113842,-111.111111111111,4,1,0,100,0,1
114938,-111.111111111111,4,1,0,100,0,1
115108,-111.111111111111,4,1,0,100,0,1
115382,-111.111111111111,4,1,0,100,0,1
115656,-111.111111111111,4,1,0,100,0,1
115930,-111.111111111111,4,1,0,100,0,1
116068,-111.111111111111,4,1,0,100,0,1
116342,-111.111111111111,4,1,0,100,0,1
118603,-111.111111111111,4,1,0,100,0,1
119354,-111.111111111111,4,1,0,100,0,1
122369,-111.111111111111,4,1,0,100,0,1
123739,-111.111111111111,4,1,0,100,0,0
124286,-111.111111111111,4,1,0,100,0,0
124377,-111.111111111111,4,1,0,100,0,0
124469,-111.111111111111,4,1,0,100,0,0
124560,-111.111111111111,4,1,0,100,0,0
124835,-111.111111111111,4,1,0,100,0,1
124869,-111.111111111111,4,1,0,100,0,1
133602,-111.111111111111,4,1,0,100,0,1
133739,-111.111111111111,4,1,0,50,0,1
134629,-111.111111111111,4,1,0,50,0,1
135703,-111.111111111111,4,1,0,50,0,1
136799,-111.111111111111,4,1,0,50,0,1
138877,-111.111111111111,4,1,0,5,0,1
139036,-111.111111111111,4,1,0,5,0,1
139173,-111.111111111111,4,1,0,5,0,1
139264,-111.111111111111,4,1,0,5,0,1
140177,-111.111111111111,4,1,0,5,0,1
141821,-111.111111111111,4,1,0,5,0,0
142369,301.507537688442,4,1,0,70,1,0
142369,-111.111111111111,4,1,0,70,0,0
142669,-111.111111111111,4,1,0,70,0,0
142820,-111.111111111111,4,1,0,70,0,0
142971,-111.111111111111,4,1,0,70,0,0
143046,-111.111111111111,4,1,0,70,0,0
143121,-111.111111111111,4,1,0,70,0,0
143272,-111.111111111111,4,1,0,70,0,0
143423,-111.111111111111,4,1,0,70,0,0
143574,-111.111111111111,4,1,0,70,0,0
145949,-111.111111111111,4,1,0,70,0,0
160458,-111.111111111111,4,1,0,70,0,0
160760,-111.111111111111,4,1,0,70,0,0
161061,-111.111111111111,4,1,0,70,0,0
161363,-111.111111111111,4,1,0,70,0,0
161514,-111.111111111111,4,1,0,70,0,0
161664,-111.111111111111,4,1,0,70,0,0
161740,-111.111111111111,4,1,0,70,0,0
179604,-111.111111111111,4,1,0,70,0,0
179754,-111.111111111111,4,1,0,70,0,0
179830,-111.111111111111,4,1,0,70,0,0
179905,-111.111111111111,4,1,0,70,0,0
179981,-111.111111111111,4,1,0,70,0,0
180056,-111.111111111111,4,1,0,70,0,0
180207,-111.111111111111,4,1,0,70,0,0
180357,-111.111111111111,4,1,0,70,0,0
180433,-111.111111111111,4,1,0,70,0,0
180508,-111.111111111111,4,1,0,70,0,0
180659,-111.111111111111,4,1,0,70,0,0
180810,-111.111111111111,4,1,0,70,0,0
180961,-111.111111111111,4,1,0,15,0,0
181490,-111.111111111111,4,1,0,15,0,0
181640,-111.111111111111,4,1,0,15,0,0
184579,-111.111111111111,4,1,0,15,0,0
185785,-111.111111111111,4,1,0,15,0,0
186991,-111.111111111111,4,1,0,15,0,0
188197,-111.111111111111,4,1,0,15,0,0

[HitObjects]
160,256,20489,5,0,0:0:0:0:
224,64,21394,1,8,0:0:0:0:
224,64,22298,1,0,0:0:0:0:
128,288,25313,1,8,0:0:0:0:
160,128,26218,1,8,0:0:0:0:
128,288,30137,1,0,0:0:0:0:
224,64,31042,1,8,0:0:0:0:
224,64,31946,1,0,0:0:0:0:
128,256,34961,1,8,0:0:0:0:
256,64,35866,1,8,0:0:0:0:
192,96,39785,1,4,0:0:0:0:
192,160,40389,1,8,0:0:0:0:
192,96,40690,1,0,0:0:0:0:
192,160,40992,1,0,0:0:0:0:
160,192,41595,1,8,0:0:0:0:
128,128,42198,1,0,0:0:0:0:
128,160,43404,1,8,0:0:0:0:
128,160,43705,1,0,0:0:0:0:
128,160,44007,1,8,0:0:0:0:
160,64,44610,1,0,0:0:0:0:
192,96,45213,1,8,0:0:0:0:
192,64,45514,1,8,0:0:0:0:
156,93,45816,1,0,0:0:0:0:
166,60,46419,1,8,0:0:0:0:
160,96,47022,1,0,0:0:0:0:
192,96,48228,1,8,0:0:0:0:
192,96,48529,1,8,0:0:0:0:
160,96,48831,1,8,0:0:0:0:
192,64,49434,1,0,0:0:0:0:
192,64,50037,1,8,0:0:0:0:
192,64,50640,1,0,0:0:0:0:
192,64,51544,1,8,0:0:0:0:
192,64,51846,1,0,0:0:0:0:
160,32,52449,1,8,0:0:0:0:
192,64,53052,1,0,0:0:0:0:
192,64,53353,1,0,0:0:0:0:
192,64,53655,1,8,0:0:0:0:
192,64,54258,1,0,0:0:0:0:
192,64,54861,1,8,0:0:0:0:
186,97,55162,1,0,0:0:0:0:
192,64,55464,1,0,0:0:0:0:
192,64,56368,1,8,0:0:0:0:
256,192,56670,12,0,59082,0:0:0:0:
279,159,67849,5,4,0:0:0:0:
217,107,68123,1,8,0:0:0:0:
192,64,68534,1,8,0:0:0:0:
176,74,68945,1,8,0:0:0:0:
192,96,69355,1,8,0:0:0:0:
160,64,69766,1,8,0:0:0:0:
224,64,70314,1,8,0:0:0:0:
176,74,70725,1,8,0:0:0:0:
176,74,71136,1,8,0:0:0:0:
215,133,71958,1,0,0:0:0:0:
118,117,72232,1,0,0:0:0:0:
176,74,72506,1,8,0:0:0:0:
176,74,72917,1,8,0:0:0:0:
176,74,73328,1,8,0:0:0:0:
192,64,73739,1,8,0:0:0:0:
160,96,74150,1,8,0:0:0:0:
192,96,74424,1,8,0:0:0:0:
178,75,75520,1,8,0:0:0:0:
160,128,76616,1,4,0:0:0:0:
192,96,76890,1,8,0:0:0:0:
192,96,77301,1,8,0:0:0:0:
192,96,77712,1,8,0:0:0:0:
224,128,78123,1,8,0:0:0:0:
192,64,78534,1,8,0:0:0:0:
192,96,79082,1,8,0:0:0:0:
192,96,79492,1,8,0:0:0:0:
192,96,79903,1,8,0:0:0:0:
191,99,80725,1,8,0:0:0:0:
248,143,80999,1,0,0:0:0:0:
192,96,81273,1,8,0:0:0:0:
192,96,81684,1,8,0:0:0:0:
192,96,82095,1,8,0:0:0:0:
192,64,82506,1,8,0:0:0:0:
192,64,82917,1,8,0:0:0:0:
160,64,83191,1,0,0:0:0:0:
192,96,84287,1,8,0:0:0:0:
160,96,85383,1,4,0:0:0:0:
192,64,85657,1,4,0:0:0:0:
192,128,86342,1,8,0:0:0:0:
224,64,86753,1,8,0:0:0:0:
192,64,87164,1,8,0:0:0:0:
160,128,87575,1,8,0:0:0:0:
160,128,87849,1,8,0:0:0:0:
160,96,88534,1,8,0:0:0:0:
160,32,88945,1,8,0:0:0:0:
160,32,89355,1,8,0:0:0:0:
192,96,89766,1,0,0:0:0:0:
192,128,90040,1,8,0:0:0:0:
192,128,90451,1,8,0:0:0:0:
192,128,90862,1,8,0:0:0:0:
192,128,91273,1,8,0:0:0:0:
192,64,91958,1,8,0:0:0:0:
192,96,92369,1,8,0:0:0:0:
160,96,92780,1,8,0:0:0:0:
160,96,93054,1,8,0:0:0:0:
160,96,94150,1,4,0:0:0:0:
192,64,94424,1,4,0:0:0:0:
192,128,95109,1,8,0:0:0:0:
224,64,95520,1,8,0:0:0:0:
192,64,95931,1,8,0:0:0:0:
160,128,96342,1,8,0:0:0:0:
160,128,96616,1,8,0:0:0:0:
160,96,97301,1,8,0:0:0:0:
160,32,97712,1,8,0:0:0:0:
160,32,98123,1,8,0:0:0:0:
192,96,98534,1,0,0:0:0:0:
192,128,98808,1,0,0:0:0:0:
192,128,99218,1,8,0:0:0:0:
192,128,99629,1,8,0:0:0:0:
192,128,100040,1,8,0:0:0:0:
192,64,100725,1,8,0:0:0:0:
192,128,101136,1,8,0:0:0:0:
192,128,101547,1,0,0:0:0:0:
160,96,101821,1,8,0:0:0:0:
160,96,102369,1,0,0:0:0:0:
192,96,102643,1,0,0:0:0:0:
224,96,102917,1,8,0:0:0:0:
192,192,104013,1,4,0:0:0:0:
192,192,107301,5,12,0:0:0:0:
160,224,107575,1,0,0:0:0:0:
160,224,107849,1,8,0:0:0:0:
160,224,108123,1,8,0:0:0:0:
160,224,108671,1,8,0:0:0:0:
160,224,108945,1,0,0:0:0:0:
160,160,109492,1,0,0:0:0:0:
160,160,109766,1,8,0:0:0:0:
160,160,110040,1,0,0:0:0:0:
160,160,110314,1,0,0:0:0:0:
160,160,110862,1,0,0:0:0:0:
160,160,111136,1,8,0:0:0:0:
128,96,111684,1,0,0:0:0:0:
192,128,112506,1,8,0:0:0:0:
192,160,112780,1,0,0:0:0:0:
160,128,113054,1,0,0:0:0:0:
192,128,113328,1,8,0:0:0:0:
160,96,113876,1,8,0:0:0:0:
224,64,114424,1,8,0:0:0:0:
192,64,114698,1,8,0:0:0:0:
146,166,114972,1,0,0:0:0:0:
160,96,116068,1,12,0:0:0:0:
142,107,116479,1,0,0:0:0:0:
192,96,116890,1,8,0:0:0:0:
192,96,117164,1,8,0:0:0:0:
192,96,117712,1,8,0:0:0:0:
192,96,117986,1,8,0:0:0:0:
192,96,118260,1,0,0:0:0:0:
192,96,119082,1,8,0:0:0:0:
192,96,119355,1,0,0:0:0:0:
192,96,119903,1,0,0:0:0:0:
192,96,120451,1,8,0:0:0:0:
192,96,120725,1,8,0:0:0:0:
192,128,120999,1,8,0:0:0:0:
192,128,121547,1,0,0:0:0:0:
192,64,122095,1,0,0:0:0:0:
192,128,122643,1,8,0:0:0:0:
192,64,123191,1,8,0:0:0:0:
192,64,123739,1,0,0:0:0:0:
192,64,124835,1,4,0:0:0:0:
160,128,125109,1,8,0:0:0:0:
192,160,125383,1,0,0:0:0:0:
192,32,125657,1,0,0:0:0:0:
192,160,125931,1,8,0:0:0:0:
192,128,126479,1,8,0:0:0:0:
192,128,127027,1,8,0:0:0:0:
192,128,127301,1,0,0:0:0:0:
192,128,127575,1,0,0:0:0:0:
192,96,127849,1,8,0:0:0:0:
192,128,128123,1,0,0:0:0:0:
192,128,129218,1,0,0:0:0:0:
192,128,129492,1,8,0:0:0:0:
192,128,129766,1,0,0:0:0:0:
192,128,130040,1,8,0:0:0:0:
192,128,130314,1,8,0:0:0:0:
160,64,130862,1,8,0:0:0:0:
160,64,131410,1,8,0:0:0:0:
160,64,131684,1,8,0:0:0:0:
160,64,131958,1,0,0:0:0:0:
160,64,132232,1,8,0:0:0:0:
160,64,132506,1,0,0:0:0:0:
160,64,133602,1,12,0:0:0:0:
256,192,139082,12,0,141821,0:0:0:0:
192,224,142369,5,4,0:0:0:0:
192,128,142670,1,8,0:0:0:0:
192,160,143122,1,0,0:0:0:0:
192,160,143575,1,0,0:0:0:0:
160,64,143876,1,8,0:0:0:0:
160,64,144781,1,8,0:0:0:0:
160,128,145082,1,0,0:0:0:0:
160,128,145534,1,0,0:0:0:0:
160,128,145987,1,8,0:0:0:0:
192,256,147193,1,0,0:0:0:0:
192,256,147494,1,8,0:0:0:0:
192,256,147946,1,8,0:0:0:0:
192,256,148399,1,0,0:0:0:0:
192,128,149605,1,8,0:0:0:0:
192,128,149906,1,0,0:0:0:0:
192,128,150358,1,8,0:0:0:0:
192,128,150811,1,8,0:0:0:0:
256,64,151715,1,0,0:0:0:0:
192,224,152017,5,0,0:0:0:0:
224,160,152318,1,8,0:0:0:0:
192,160,152771,1,8,0:0:0:0:
192,160,153223,1,0,0:0:0:0:
160,64,154429,1,8,0:0:0:0:
160,128,154730,1,0,0:0:0:0:
160,128,155183,1,0,0:0:0:0:
160,128,155635,1,8,0:0:0:0:
192,96,155936,1,0,0:0:0:0:
192,256,156841,1,0,0:0:0:0:
192,256,157142,1,8,0:0:0:0:
192,256,157595,1,8,0:0:0:0:
192,256,158047,1,0,0:0:0:0:
192,128,159253,1,8,0:0:0:0:
192,128,159554,1,0,0:0:0:0:
192,128,160007,1,8,0:0:0:0:
192,128,160459,1,8,0:0:0:0:
160,96,161665,1,4,0:0:0:0:
192,192,162117,1,8,0:0:0:0:
192,160,162570,1,8,0:0:0:0:
192,160,163022,1,8,0:0:0:0:
192,160,163474,1,0,0:0:0:0:
224,160,164379,1,8,0:0:0:0:
224,160,164831,1,0,0:0:0:0:
224,64,166037,1,8,0:0:0:0:
192,160,166489,1,8,0:0:0:0:
224,128,166941,1,0,0:0:0:0:
224,96,167394,1,8,0:0:0:0:
192,32,167846,1,8,0:0:0:0:
224,64,168901,1,0,0:0:0:0:
192,128,169203,1,8,0:0:0:0:
192,128,169655,1,8,0:0:0:0:
224,64,171012,1,8,0:0:0:0:
192,96,171313,1,0,0:0:0:0:
192,96,171765,1,8,0:0:0:0:
192,96,172218,1,8,0:0:0:0:
192,96,172670,1,8,0:0:0:0:
160,96,173122,1,0,0:0:0:0:
192,96,174027,1,8,0:0:0:0:
192,96,174479,1,8,0:0:0:0:
192,96,176137,1,8,0:0:0:0:
192,96,176590,1,0,0:0:0:0:
192,96,177042,1,8,0:0:0:0:
224,64,177343,1,0,0:0:0:0:
192,128,177645,1,8,0:0:0:0:
192,96,177946,1,8,0:0:0:0:
224,160,178549,1,0,0:0:0:0:
224,32,178851,1,8,0:0:0:0:
224,64,179303,1,8,0:0:0:0:
224,64,179755,1,0,0:0:0:0:
224,160,180057,1,8,0:0:0:0:
224,128,180358,1,8,0:0:0:0:
224,128,180660,1,8,0:0:0:0:
256,192,181564,12,0,188198,0:0:0:0:
