osu file format v14

[General]
AudioFilename: audio.mp3
AudioLeadIn: 0
PreviewTime: 67718
Countdown: 0
SampleSet: Normal
StackLeniency: 0.7
Mode: 1
LetterboxInBreaks: 0
WidescreenStoryboard: 0

[Editor]
Bookmarks: 20496,59088,67855,107301,142372,180964
DistanceSpacing: 1
BeatDivisor: 4
GridSize: 32
TimelineZoom: 2.999999

[Metadata]
Title:Resplendent Black
TitleUnicode:Resplendent Black
Artist:Zenpaku
ArtistUnicode:Zenpaku
Creator:Ulqui
Version:Inner Oni
Source:
Tags:electronic instrumental artcore dj-jo Odyssey Cycle EP gamelan4 o!tfac #3 osu!taiko featured artist cup mappers guild mpg
BeatmapID:3937023
BeatmapSetID:1908846

[Difficulty]
HPDrainRate:7
CircleSize:7
OverallDifficulty:7
ApproachRate:7
SliderMultiplier:1.3
SliderTickRate:1

[Events]
//Background and Video events
0,0,"41507950_p0.jpg",0,100
//Break Periods
2,22498,24413
2,26870,29237
2,32146,34061
//Storyboard Layer 0 (Background)
//Storyboard Layer 1 (Fail)
//Storyboard Layer 2 (Pass)
//Storyboard Layer 3 (Foreground)
//Storyboard Layer 4 (Overlay)
//Storyboard Sound Samples

[TimingPoints]
-13,301.507537688442,4,1,0,30,1,0
-13,-20,4,1,0,30,0,0
1187,-809.531330200971,4,1,0,30,0,0
2393,-680.010613246659,4,1,0,30,0,0
3599,-586.218727662616,4,1,0,30,0,0
4805,-515.163697580341,4,1,0,30,0,0
6011,-459.471572955651,4,1,0,30,0,0
7217,-414.645984589561,4,1,0,30,0,0
8423,-377.789242873726,4,1,0,30,0,0
9629,-346.94982655047,4,1,0,30,0,0
10835,-320.765343638042,4,1,0,30,0,0
12041,-298.255822411009,4,1,0,30,0,0
13247,-278.698329414004,4,1,0,30,0,0
14453,-261.547881772142,4,1,0,30,0,0
15659,-246.385867932464,4,1,0,30,0,0
16865,-232.885425777212,4,1,0,30,0,0
18071,-220.787611858329,4,1,0,30,0,0
19277,-142.840222669667,4,1,0,30,0,0
20484,-142.857142857143,4,1,0,30,0,0
20634,-145.441389290883,4,1,0,30,0,0
20785,-148.139049256848,4,1,0,30,0,0
20935,-150.919784757853,4,1,0,30,0,0
21388,-159.989387105333,4,1,0,30,0,0
21538,-163.237682728749,4,1,0,30,0,0
21689,-166.643636866105,4,1,0,30,0,0
21840,-170.194750211685,4,1,0,30,0,0
22292,-181.790774796503,4,1,0,30,0,0
22896,-200.03317299718,4,1,0,30,0,0
25308,-200,4,1,0,30,0,0
25458,-195.145631067961,4,1,0,30,0,0
25609,-190.491233612383,4,1,0,30,0,0
25759,-186.082394692177,4,1,0,30,0,0
26212,-173.925584078454,4,1,0,30,0,0
26362,-170.242800677583,4,1,0,30,0,0
26513,-166.689702833449,4,1,0,30,0,0
26664,-163.281884646629,4,1,0,30,0,0
27720,-142.840222669667,4,1,0,30,0,0
30132,-142.857142857143,4,1,0,30,0,0
30282,-145.441389290883,4,1,0,30,0,0
30433,-148.139049256848,4,1,0,30,0,0
30584,-150.938673341677,4,1,0,30,0,0
31036,-159.989387105333,4,1,0,30,0,0
31187,-163.259780695817,4,1,0,30,0,0
31337,-166.643636866105,4,1,0,30,0,0
31488,-170.194750211685,4,1,0,30,0,0
32544,-200.03317299718,4,1,0,30,0,0
34956,-200,4,1,0,30,0,0
35106,-195.145631067961,4,1,0,30,0,0
35257,-190.491233612383,4,1,0,30,0,0
35408,-186.053687133601,4,1,0,30,0,0
35860,-173.925584078454,4,1,0,30,0,0
36011,-170.218772053634,4,1,0,30,0,0
36161,-166.689702833449,4,1,0,30,0,0
36312,-163.281884646629,4,1,0,30,0,0
37368,-142.857142857143,4,1,0,30,0,0
39103,-200,4,1,0,30,0,0
39706,-100,4,1,0,70,0,0
39930,-102.551020408163,4,1,0,70,0,0
40081,-105.253971024612,4,1,0,70,0,0
40232,-108.103262818214,4,1,0,70,0,0
40383,-111.111111111111,4,1,0,70,0,0
40684,-100,4,1,0,70,0,0
40835,-96.7880085653105,4,1,0,70,0,0
40986,-93.7564820576644,4,1,0,70,0,0
41136,-90.9273787970227,4,1,0,70,0,0
41589,-83.3333333333333,4,1,0,70,0,0
41739,-85.1797598317732,4,1,0,70,0,0
41890,-87.107972472352,4,1,0,70,0,0
42041,-89.0939877373609,4,1,0,70,0,0
42192,-91.1234724433487,4,1,0,70,0,0
42342,-93.1658717140399,4,1,0,70,0,0
42493,-95.2290024104857,4,1,0,70,0,0
42644,-97.277183540083,4,1,0,70,0,0
42795,-99.2858097150016,4,1,0,70,0,0
42945,-101.215519649178,4,1,0,70,0,0
43096,-103.075582954289,4,1,0,70,0,0
43247,-104.787782266986,4,1,0,70,0,0
43398,-106.357936807432,4,1,0,70,0,0
43548,-107.736649171879,4,1,0,70,0,0
43699,-108.915253917154,4,1,0,70,0,0
43850,-109.859659050075,4,1,0,70,0,0
44001,-110.5496314603,4,1,0,70,0,0
44151,-110.968065712405,4,1,0,70,0,0
44303,-111.111111111111,4,1,0,70,0,0
44604,-100,4,1,0,70,0,0
44754,-102.551020408163,4,1,0,70,0,0
44905,-105.253971024612,4,1,0,70,0,0
45056,-108.103262818214,4,1,0,70,0,0
45207,-111.111111111111,4,1,0,70,0,0
45508,-100,4,1,0,70,0,0
45659,-96.7880085653105,4,1,0,70,0,0
45810,-93.7564820576644,4,1,0,70,0,0
45960,-90.9273787970227,4,1,0,70,0,0
46413,-83.3333333333333,4,1,0,70,0,0
46563,-85.1797598317732,4,1,0,70,0,0
46714,-87.107972472352,4,1,0,70,0,0
46865,-89.0939877373609,4,1,0,70,0,0
46940,-90.0975685617699,4,1,0,70,0,0
47016,-91.1234724433487,4,1,0,70,0,0
47166,-93.1658717140399,4,1,0,70,0,0
47317,-95.2290024104857,4,1,0,70,0,0
47468,-97.277183540083,4,1,0,70,0,0
47619,-99.2858097150016,4,1,0,70,0,0
47769,-101.215519649178,4,1,0,70,0,0
47920,-103.063724076136,4,1,0,70,0,0
48071,-104.787782266986,4,1,0,70,0,0
48222,-106.357936807432,4,1,0,70,0,0
48372,-107.736649171879,4,1,0,70,0,0
48448,-108.357696882725,4,1,0,70,0,0
48523,-108.915253917154,4,1,0,70,0,0
48674,-109.859659050075,4,1,0,70,0,0
48825,-110.5496314603,4,1,0,70,0,0
48976,-110.969938121099,4,1,0,70,0,0
49127,-111.111111111111,4,1,0,70,0,0
49428,-100,4,1,0,70,0,0
49578,-102.551020408163,4,1,0,70,0,0
49729,-105.253971024612,4,1,0,70,0,0
49880,-108.103262818214,4,1,0,70,0,0
50031,-111.111111111111,4,1,0,70,0,0
50332,-100,4,1,0,70,0,0
50483,-96.7880085653105,4,1,0,70,0,0
50634,-93.7564820576644,4,1,0,70,0,0
50785,-90.9090909090909,4,1,0,70,0,0
51464,-200,4,1,0,70,0,0
51840,-83.3333333333333,4,1,0,70,0,0
51991,-85.7365926608037,4,1,0,70,0,0
52141,-88.2325884072789,4,1,0,70,0,0
52292,-90.8272195779759,4,1,0,70,0,0
52367,-92.1362055808936,4,1,0,70,0,0
52443,-93.4698581943852,4,1,0,70,0,0
52594,-96.1190144489987,4,1,0,70,0,0
52744,-98.709107075289,4,1,0,70,0,0
52895,-101.220014541351,4,1,0,70,0,0
53046,-103.574315792975,4,1,0,70,0,0
53197,-105.709225919866,4,1,0,70,0,0
53347,-107.550888237595,4,1,0,70,0,0
53498,-109.06523750929,4,1,0,70,0,0
53649,-110.187624976328,4,1,0,70,0,0
53800,-110.878058165766,4,1,0,70,0,0
53951,-111.111111111111,4,1,0,70,0,0
54252,-100,4,1,0,70,0,0
54403,-102.568464024494,4,1,0,70,0,0
54553,-105.253971024612,4,1,0,70,0,0
54704,-108.103262818214,4,1,0,70,0,0
54855,-111.111111111111,4,1,0,70,0,0
55156,-100,4,1,0,70,0,0
55307,-96.7880085653105,4,1,0,70,0,0
55458,-93.7564820576644,4,1,0,70,0,0
55609,-90.9090909090909,4,1,0,70,0,0
55759,-83.3333333333333,4,1,0,70,0,0
55835,-81.6409423233144,4,1,0,70,0,0
55910,-80.015923566879,4,1,0,70,0,0
55986,-78.4339229968783,4,1,0,70,0,0
56061,-76.9328910436336,4,1,0,70,0,0
56136,-75.4882323485228,4,1,0,70,0,0
56212,-74.0786240786241,4,1,0,70,0,0
56287,-72.7382388419783,4,1,0,70,0,0
56362,-71.4454976303318,4,1,0,70,0,0
56514,-67.3362812480267,4,1,0,100,0,0
56590,-67.3362812480267,4,1,0,100,0,0
56664,-65.359477124183,4,1,0,100,0,0
56670,-66.6666666666667,4,1,0,100,0,1
56890,-68.8872512896094,4,1,0,100,0,1
57116,-71.2608629364232,4,1,0,100,0,1
57154,-71.6761232939733,4,1,0,100,0,1
57192,-72.0962517353077,4,1,0,100,0,1
57342,-73.8038844149692,4,1,0,100,0,1
57568,-76.5351236286229,4,1,0,100,0,1
57719,-78.4754869039624,4,1,0,100,0,1
57795,-79.4897959183673,4,1,0,100,0,1
57870,-80.5167958656331,4,1,0,100,0,1
57945,-81.5706806282722,4,1,0,100,0,1
58096,-83.7784549202366,4,1,0,100,0,1
58234,-86.1090641120118,4,1,0,100,0,1
58272,-86.7161410018553,4,1,0,100,0,1
58309,-87.3155240052307,4,1,0,100,0,1
58347,-87.9397930385701,4,1,0,100,0,1
58385,-88.5730528709494,4,1,0,100,0,1
58523,-91.1644236395553,4,1,0,100,0,1
58674,-93.4613077384523,4,1,0,100,0,1
58774,-95.3682921852683,4,1,0,100,0,1
58875,-97.375,4,1,0,100,0,1
58975,-99.4468085106383,4,1,0,100,0,1
59082,273.972602739726,4,1,0,100,1,0
59082,-200,4,1,0,100,0,0
59083,-66.6666666666667,4,1,0,100,0,0
59111,-66.6666666666667,4,1,0,30,0,0
59213,-200,4,1,0,30,0,0
60172,-197.540702491152,4,1,0,30,0,0
61268,-189.566013175573,4,1,0,30,0,0
62330,-178.402446858983,4,1,0,32,0,0
62500,-176.917629934869,4,1,0,33,0,0
62911,-172.463176907261,4,1,0,35,0,0
63460,-166.666658272269,4,1,0,36,0,0
63733,-166.043962767759,4,1,0,38,0,0
63870,-165.270349700604,4,1,0,39,0,0
64144,-162.851746438631,4,1,0,41,0,0
64281,-161.239061176144,4,1,0,43,0,0
64349,-160.347212248731,4,1,0,44,0,0
64418,-159.383975352507,4,1,0,46,0,0
64486,-158.380148284608,4,1,0,47,0,0
64555,-157.30923820718,4,1,0,49,0,0
64692,-155.039136559461,4,1,0,50,0,0
64760,-153.847589719103,4,1,0,52,0,0
64829,-152.598874195532,4,1,0,54,0,0
64897,-151.33235084986,4,1,0,55,0,0
64966,-150.013983969819,4,1,0,57,0,0
65103,-147.309793236129,4,1,0,58,0,0
65171,-145.930920223973,4,1,0,60,0,0
65240,-144.510957470417,4,1,0,61,0,0
65308,-143.093948418185,4,1,0,63,0,0
65377,-141.641071111614,4,1,0,64,0,0
65514,-138.72235922628,4,1,0,66,0,0
65651,-135.77544895068,4,1,0,68,0,0
65788,-132.81921598334,4,1,0,69,0,0
65856,-131.353764293439,4,1,0,71,0,0
65925,-129.870698758276,4,1,0,72,0,0
66062,-126.9450712813,4,1,0,74,0,0
66199,-124.055664840253,4,1,0,75,0,0
66267,-122.638593752607,4,1,0,77,0,0
66336,-121.214028743492,4,1,0,79,0,0
66473,-118.430020723049,4,1,0,80,0,0
66610,-115.711918489462,4,1,0,82,0,0
66678,-114.389423426453,4,1,0,83,0,0
66747,-113.066544994172,4,1,0,85,0,0
66884,-110.499401119413,4,1,0,86,0,0
67021,-108.014800680823,4,1,0,88,0,0
67089,-106.813266286571,4,1,0,90,0,0
67158,-105.616003728459,4,1,0,91,0,0
67295,-103.305345125511,4,1,0,93,0,0
67432,-101.084356248444,4,1,0,94,0,0
67500,-100.015551007789,4,1,0,96,0,0
67570,-99.009900990099,4,1,0,97,0,0
67707,-833.333333333333,4,1,0,99,0,0
67844,-125,4,1,0,100,0,0
67849,-125,4,1,0,100,0,1
67850,-100,4,1,0,100,0,1
67878,-125,4,1,0,100,0,1
71919,-99.9999999999999,4,1,0,100,0,1
72056,-111.111111111111,4,1,0,100,0,1
72193,-125,4,1,0,100,0,1
72330,-111.111111111111,4,1,0,100,0,1
72467,-100,4,1,0,100,0,1
72570,-125,4,1,0,100,0,1
74385,-111.111111111111,4,1,0,100,0,1
74555,-115.942028985507,4,1,0,100,0,1
74623,-118.499297221321,4,1,0,100,0,1
74692,-121.212121212121,4,1,0,100,0,1
74829,-126.984126984127,4,1,0,100,0,1
74897,-130.058146434081,4,1,0,100,0,1
74966,-133.333333333333,4,1,0,100,0,1
75034,-136.726546906188,4,1,0,100,0,1
75103,-140.350877192982,4,1,0,100,0,1
75240,-148.148148148148,4,1,0,100,0,1
75377,-156.862745098039,4,1,0,100,0,1
75445,-161.580421642341,4,1,0,100,0,1
75515,-166.666666666667,4,1,0,100,0,1
75520,-166.666666666667,4,1,0,100,0,0
75651,-160,4,1,0,100,0,0
75788,-153.846153846154,4,1,0,100,0,0
75925,-148.148148148148,4,1,0,100,0,0
76062,-142.857142857143,4,1,0,100,0,0
76199,-137.931034482759,4,1,0,100,0,0
76336,-133.333333333333,4,1,0,100,0,0
76473,-129.032258064516,4,1,0,100,0,0
76616,-125,4,1,0,100,0,1
76617,-100,4,1,0,100,0,1
76645,-125,4,1,0,100,0,1
80687,-100,4,1,0,100,0,1
80824,-111.111111111111,4,1,0,100,0,1
80961,-125,4,1,0,100,0,1
81098,-111.111111111111,4,1,0,100,0,1
81235,-100,4,1,0,100,0,1
81303,-125,4,1,0,100,0,1
81440,-125,4,1,0,100,0,1
83152,-125,4,1,0,100,0,1
84282,-125,4,1,0,100,0,1
84287,-125,4,1,0,100,0,0
84317,-125,4,1,0,100,0,0
84418,-121.212121212121,4,1,0,100,0,0
84464,-119.991241515218,4,1,0,100,0,0
84509,-118.820468343452,4,1,0,100,0,0
84555,-117.647058823529,4,1,0,100,0,0
84829,-111.111111111111,4,1,0,100,0,0
84920,-109.098148516823,4,1,0,100,0,0
85012,-107.13587487781,4,1,0,100,0,0
85103,-105.263157894737,4,1,0,100,0,0
85240,-102.564102564103,4,1,0,100,0,0
85286,-101.688624976805,4,1,0,100,0,0
85331,-100.846521899154,4,1,0,100,0,0
85378,-83.3333333333333,4,1,0,100,0,0
85383,-83.3333333333333,4,1,0,100,0,1
85447,-71.4285714285714,4,1,0,100,0,1
85584,-62.5,4,1,0,100,0,1
85721,-100,4,1,0,100,0,1
93049,-125,4,1,0,100,0,1
93054,-125,4,1,0,100,0,0
93094,-123.728813559322,4,1,0,100,0,0
93139,-122.48322147651,4,1,0,100,0,0
93185,-121.235606731621,4,1,0,100,0,0
93254,-119.411123227917,4,1,0,100,0,0
93322,-117.666021921341,4,1,0,100,0,0
93391,-115.946632782719,4,1,0,100,0,0
93459,-114.300626304802,4,1,0,100,0,0
93596,-111.12238684798,4,1,0,100,0,0
93642,-110.094510355922,4,1,0,100,0,0
93687,-109.107214029494,4,1,0,100,0,0
93733,-108.116113744076,4,1,0,100,0,0
93802,-106.66277030976,4,1,0,100,0,0
93870,-105.268217650452,4,1,0,100,0,0
93939,-103.889943074004,4,1,0,100,0,0
94007,-102.56650430873,4,1,0,100,0,0
94076,-101.257628999445,4,1,0,100,0,0
94145,-83.3333333333333,4,1,0,100,0,0
94150,-83.3333333333333,4,1,0,100,0,1
94214,-71.4285714285714,4,1,0,100,0,1
94351,-62.5,4,1,0,100,0,1
94488,-100,4,1,0,100,0,1
102917,-100,4,1,0,100,0,0
102918,-100.016223231668,4,1,0,100,0,0
103048,-102.272727272727,4,1,0,100,0,0
103185,-104.651162790698,4,1,0,100,0,0
103328,-108.006306937631,4,1,0,100,0,0
103550,-111.563517915309,4,1,0,100,0,0
103779,-116.386633943742,4,1,0,100,0,0
104007,-121.621621621622,4,1,0,100,0,0
104145,-125,4,1,0,100,0,0
105036,-100,4,1,0,100,0,0
106132,-66.6666666666667,4,1,0,100,0,0
106680,-50,4,1,0,100,0,0
107296,-83.3333333333333,4,1,0,100,0,0
107301,-83.3333333333333,4,1,0,100,0,1
107432,-90.9090909090909,4,1,0,100,0,1
107500,-93.0074677528853,4,1,0,100,0,1
107569,-95.2380952380952,4,1,0,100,0,1
107637,-97.5436098255607,4,1,0,100,0,1
107706,-100,4,1,0,100,0,1
107844,-100,4,1,0,100,0,1
107911,-97.5783475783476,4,1,0,100,0,1
107980,-95.2380952380952,4,1,0,100,0,1
108048,-93.0390492359932,4,1,0,100,0,1
108117,-90.9090909090909,4,1,0,100,0,1
108254,-100,4,1,0,100,0,1
108322,-102.544910179641,4,1,0,100,0,1
108391,-105.263157894737,4,1,0,100,0,1
108459,-108.086785009862,4,1,0,100,0,1
108528,-111.111111111111,4,1,0,100,0,1
108665,-100,4,1,0,100,0,1
108733,-98.7743330930065,4,1,0,100,0,1
108802,-97.5609756097561,4,1,0,100,0,1
108870,-96.3940193491645,4,1,0,100,0,1
108939,-95.2380952380952,4,1,0,100,0,1
109007,-94.1257299896943,4,1,0,100,0,1
109076,-93.0232558139535,4,1,0,100,0,1
109144,-91.961738546736,4,1,0,100,0,1
109212,-90.9241745478679,4,1,0,100,0,1
109349,-86.9565217391304,4,1,0,100,0,1
109487,-83.3333333333333,4,1,0,100,0,1
109591,-90.9090909090909,4,1,0,100,0,1
109659,-93.0074677528853,4,1,0,100,0,1
109728,-95.2380952380952,4,1,0,100,0,1
109796,-97.5436098255607,4,1,0,100,0,1
109865,-100,4,1,0,100,0,1
110003,-100,4,1,0,100,0,1
110070,-97.5783475783476,4,1,0,100,0,1
110139,-95.2380952380952,4,1,0,100,0,1
110207,-93.0390492359932,4,1,0,100,0,1
110276,-90.9090909090909,4,1,0,100,0,1
110413,-100,4,1,0,100,0,1
110481,-102.544910179641,4,1,0,100,0,1
110550,-105.263157894737,4,1,0,100,0,1
110618,-108.086785009862,4,1,0,100,0,1
110687,-111.111111111111,4,1,0,100,0,1
110856,-89.5473609673729,4,1,0,100,0,1
110925,-89.8851831601968,4,1,0,100,0,1
110993,-90.2206124464932,4,1,0,100,0,1
111062,-90.5635432159973,4,1,0,100,0,1
111130,-90.9040641415538,4,1,0,100,0,1
111199,-91.3810187580937,4,1,0,100,0,1
111267,-92.8081309076969,4,1,0,100,0,1
111336,-95.2671742466907,4,1,0,100,0,1
111404,-98.742102548906,4,1,0,100,0,1
111473,-103.409579353107,4,1,0,100,0,1
111542,-109.312910130973,4,1,0,100,0,1
111587,-113.869366161402,4,1,0,100,0,1
111633,-119.126749110562,4,1,0,100,0,1
111679,-125,4,1,0,100,0,1
111815,-123.467916366258,4,1,0,100,0,1
111884,-122.704881325571,4,1,0,100,0,1
111952,-121.962076025995,4,1,0,100,0,1
112021,-121.217483631216,4,1,0,100,0,1
112089,-120.492524186456,4,1,0,100,0,1
112158,-119.76571378617,4,1,0,100,0,1
112226,-119.057964717129,4,1,0,100,0,1
112295,-118.348306841742,4,1,0,100,0,1
112363,-117.657162487118,4,1,0,100,0,1
112432,-116.96405703065,4,1,0,100,0,1
112500,-116.288939818352,4,1,0,100,0,1
112637,-114.95217318342,4,1,0,100,0,1
112706,-114.290481354801,4,1,0,100,0,1
112775,-113.636363636364,4,1,0,100,0,1
112843,-112.999010227648,4,1,0,100,0,1
112911,-112.3687664042,4,1,0,100,0,1
113048,-111.12012328656,4,1,0,100,0,1
113185,-109.898925076207,4,1,0,100,0,1
113322,-108.704276759502,4,1,0,100,0,1
113459,-107.535321821036,4,1,0,100,0,1
113528,-106.956046529784,4,1,0,100,0,1
113596,-106.391240195698,4,1,0,100,0,1
113665,-105.824192800865,4,1,0,100,0,1
113734,-105.263157894737,4,1,0,100,0,1
113871,-100,4,1,0,100,0,1
113916,-101.669758812616,4,1,0,100,0,1
113961,-103.396226415094,4,1,0,100,0,1
114007,-105.222734254992,4,1,0,100,0,1
114144,-105.263157894737,4,1,0,100,0,1
114190,-103.435258588146,4,1,0,100,0,1
114235,-101.707498144024,4,1,0,100,0,1
114281,-100,4,1,0,100,0,1
114418,-100,4,1,0,100,0,1
114464,-101.707498144024,4,1,0,100,0,1
114509,-103.435258588146,4,1,0,100,0,1
114555,-105.263157894737,4,1,0,100,0,1
114623,-100,4,1,0,100,0,1
114692,-98.0504587155963,4,1,0,100,0,1
114760,-96.1754780652418,4,1,0,100,0,1
114829,-94.3448275862069,4,1,0,100,0,1
114897,-92.6076360682372,4,1,0,100,0,1
114966,-90.9090909090909,4,1,0,100,0,1
115103,-83.3333333333333,4,1,0,100,0,1
115171,-86.9289340101523,4,1,0,100,0,1
115240,-90.9090909090909,4,1,0,100,0,1
115377,-100,4,1,0,100,0,1
115445,-95.2712100139082,4,1,0,100,0,1
115514,-90.9090909090909,4,1,0,100,0,1
115651,-83.3333333333333,4,1,0,100,0,1
115719,-86.9289340101523,4,1,0,100,0,1
115788,-90.9090909090909,4,1,0,100,0,1
115925,-83.3333333333333,4,1,0,100,0,1
115970,-85.6785490931832,4,1,0,100,0,1
116016,-88.2163554410818,4,1,0,100,0,1
116063,-66.6666666666667,4,1,0,100,0,1
116337,-111.111111111111,4,1,0,100,0,1
116473,-112,4,1,0,100,0,1
116610,-112.903225806452,4,1,0,100,0,1
116747,-113.821138211382,4,1,0,100,0,1
116884,-114.754098360656,4,1,0,100,0,1
116952,-115.222876366695,4,1,0,100,0,1
117021,-115.702479338843,4,1,0,100,0,1
117089,-116.179053849415,4,1,0,100,0,1
117158,-116.666666666667,4,1,0,100,0,1
117295,-117.647058823529,4,1,0,100,0,1
117363,-118.139821373576,4,1,0,100,0,1
117432,-118.64406779661,4,1,0,100,0,1
117500,-119.145235432973,4,1,0,100,0,1
117569,-119.65811965812,4,1,0,100,0,1
117706,-120.689655172414,4,1,0,100,0,1
117843,-121.739130434783,4,1,0,100,0,1
117980,-122.80701754386,4,1,0,100,0,1
118117,-123.893805309735,4,1,0,100,0,1
118185,-124.440407448258,4,1,0,100,0,1
118254,-125,4,1,0,100,0,1
118345,-120.017520805957,4,1,0,100,0,1
118436,-115.41701769166,4,1,0,100,0,1
118528,-111.111111111111,4,1,0,100,0,1
119076,-111.111111111111,4,1,0,100,0,1
119144,-109.105388903637,4,1,0,100,0,1
119212,-107.170795306388,4,1,0,100,0,1
119281,-105.276639344262,4,1,0,100,0,1
119349,-103.474320241692,4,1,0,100,0,1
119418,-101.707498144024,4,1,0,100,0,1
119486,-99.995717944925,4,1,0,100,0,1
119623,-103.436560168116,4,1,0,100,0,1
119760,-107.122639001398,4,1,0,100,0,1
119897,-111.081141124941,4,1,0,100,0,1
119966,-106.697819314642,4,1,0,100,0,1
120034,-102.621722846442,4,1,0,100,0,1
120103,-98.792139895439,4,1,0,100,0,1
120171,-95.2877760389498,4,1,0,100,0,1
120240,-91.9771735481705,4,1,0,100,0,1
120308,-88.932164881532,4,1,0,100,0,1
120377,-86.0417647982415,4,1,0,100,0,1
120446,-83.3206629162232,4,1,0,100,0,1
120514,-84.2040565457898,4,1,0,100,0,1
120582,-85.0931677018634,4,1,0,100,0,1
120651,-86.0147543556741,4,1,0,100,0,1
120719,-86.9427256861812,4,1,0,100,0,1
120788,-87.9050368944498,4,1,0,100,0,1
120856,-88.8744729159909,4,1,0,100,0,1
120925,-89.8802689847466,4,1,0,100,0,1
120993,-90.894012274009,4,1,0,100,0,1
121062,-91.9463087248322,4,1,0,100,0,1
121130,-93.0074677528853,4,1,0,100,0,1
121199,-94.109565516057,4,1,0,100,0,1
121267,-95.2215464813206,4,1,0,100,0,1
121336,-96.3770664790714,4,1,0,100,0,1
121404,-97.5436098255607,4,1,0,100,0,1
121473,-98.7565327085962,4,1,0,100,0,1
121542,-100,4,1,0,100,0,1
121678,-100,4,1,0,100,0,1
121747,-99.1050276388523,4,1,0,100,0,1
121815,-98.2259326897991,4,1,0,100,0,1
121884,-97.349709114415,4,1,0,100,0,1
121952,-96.5013456362937,4,1,0,100,0,1
122021,-95.655487804878,4,1,0,100,0,1
122089,-94.8362720403023,4,1,0,100,0,1
122158,-94.0192283680859,4,1,0,100,0,1
122226,-93.227683545871,4,1,0,100,0,1
122295,-92.4380063835011,4,1,0,100,0,1
122363,-91.672753834916,4,1,0,100,0,1
122397,-91.2948593598448,4,1,0,100,0,1
122432,-90.9090909090909,4,1,0,100,0,1
122502,-100,4,1,0,100,0,1
122638,-100.595803471203,4,1,0,100,0,1
122706,-101.189959176583,4,1,0,100,0,1
122774,-101.791175185671,4,1,0,100,0,1
122911,-103.024407499116,4,1,0,100,0,1
122980,-103.656908977667,4,1,0,100,0,1
123048,-104.287888282159,4,1,0,100,0,1
123185,-105.582744245061,4,1,0,100,0,1
123254,-106.2471500228,4,1,0,100,0,1
123322,-106.910158759292,4,1,0,100,0,1
123459,-108.271375464684,4,1,0,100,0,1
123528,-108.970161818352,4,1,0,100,0,1
123596,-109.6677021557,4,1,0,100,0,1
123665,-110.38468826985,4,1,0,100,0,1
123734,-111.100514972344,4,1,0,100,0,1
123739,-111.111111111111,4,1,0,100,0,0
123870,-111.111111111111,4,1,0,100,0,0
123916,-109.963269054178,4,1,0,100,0,0
123961,-108.838900249943,4,1,0,100,0,0
124007,-107.713064987632,4,1,0,100,0,0
124144,-104.493891797557,4,1,0,100,0,0
124281,-101.461554755348,4,1,0,100,0,0
124372,-99.5428096425603,4,1,0,100,0,0
124464,-97.6753670473083,4,1,0,100,0,0
124555,-95.8958958958959,4,1,0,100,0,0
124601,-95.0208292005554,4,1,0,100,0,0
124646,-94.1801022414471,4,1,0,100,0,0
124693,-92.5067593665508,4,1,0,100,0,0
124830,-66.6666666666667,4,1,0,100,0,0
124835,-66.6666666666667,4,1,0,100,0,1
124864,-90.9090909090909,4,1,0,100,0,1
124966,-90.9149138305537,4,1,0,100,0,1
125103,-91.0012817488685,4,1,0,100,0,1
125240,-91.191213125833,4,1,0,100,0,1
125309,-91.324089083229,4,1,0,100,0,1
125377,-91.4852095944532,4,1,0,100,0,1
125446,-91.6700084873613,4,1,0,100,0,1
125514,-91.8840440059746,4,1,0,100,0,1
125651,-92.388757643178,4,1,0,100,0,1
125788,-93.0006561459354,4,1,0,100,0,1
125925,-93.7213038646329,4,1,0,100,0,1
126062,-94.5525162698189,4,1,0,100,0,1
126131,-95.0067742835808,4,1,0,100,0,1
126199,-95.4963499502021,4,1,0,100,0,1
126268,-96.0073423987819,4,1,0,100,0,1
126336,-96.5550896241593,4,1,0,100,0,1
126473,-97.7312314706886,4,1,0,100,0,1
126542,-98.359431456974,4,1,0,100,0,1
126610,-99.0274619530205,4,1,0,100,0,1
126747,-100.446631161134,4,1,0,100,0,1
126953,-102.806332066879,4,1,0,100,0,1
127021,-103.665796682057,4,1,0,100,0,1
127090,-104.54558691635,4,1,0,100,0,1
127158,-105.471970727012,4,1,0,100,0,1
127227,-106.418477110758,4,1,0,100,0,1
127295,-107.413326623716,4,1,0,100,0,1
127432,-109.492851444472,4,1,0,100,0,1
127501,-110.577209503958,4,1,0,100,0,1
127569,-111.713344671007,4,1,0,100,0,1
127638,-112.868625725578,4,1,0,100,0,1
127706,-114.077311279492,4,1,0,100,0,1
127843,-116.586835352237,4,1,0,100,0,1
127980,-119.243431946603,4,1,0,100,0,1
128026,-120.148280531876,4,1,0,100,0,1
128071,-121.089738772667,4,1,0,100,0,1
128117,-122.047875080352,4,1,0,100,0,1
128186,-123.494756846624,4,1,0,100,0,1
128254,-125,4,1,0,100,0,1
128396,-122.809082129022,4,1,0,100,0,1
128528,-120.693643249748,4,1,0,100,0,1
128665,-118.649848938183,4,1,0,100,0,1
128734,-117.660901282504,4,1,0,100,0,1
128802,-116.674120169959,4,1,0,100,0,1
128871,-115.717700991259,4,1,0,100,0,1
128939,-114.763112404359,4,1,0,100,0,1
129008,-113.837642805045,4,1,0,100,0,1
129076,-112.913696690709,4,1,0,100,0,1
129144,-112.017698328621,4,1,0,100,0,1
129212,-111.135807957324,4,1,0,100,0,1
129349,-107.994793733897,4,1,0,100,0,1
129486,-105.039698504115,4,1,0,100,0,1
129623,-102.265309834788,4,1,0,100,0,1
129692,-100.934914553144,4,1,0,100,0,1
129760,-99.6668115391961,4,1,0,100,0,1
129829,-98.4230235422085,4,1,0,100,0,1
129897,-97.2389185688079,4,1,0,100,0,1
130040,-94.9760691764206,4,1,0,100,0,1
130171,-92.8725803324787,4,1,0,100,0,1
130308,-90.9227719312589,4,1,0,100,0,1
130445,-89.1210648188314,4,1,0,100,0,1
130514,-88.2679994734147,4,1,0,100,0,1
130582,-87.46205711369,4,1,0,100,0,1
130651,-86.6788894502715,4,1,0,100,0,1
130719,-85.940582722747,4,1,0,100,0,1
130856,-84.5517554111281,4,1,0,100,0,1
130993,-83.2910012819098,4,1,0,100,0,1
131130,-82.1540820705845,4,1,0,100,0,1
131267,-81.1371112614544,4,1,0,100,0,1
131336,-80.6692054298072,4,1,0,100,0,1
131406,-80.2375030089064,4,1,0,100,0,1
131541,-71.8205293737896,4,1,0,100,0,1
131587,-72.0881257087316,4,1,0,100,0,1
131633,-72.3577235772358,4,1,0,100,0,1
131678,-72.6234190126479,4,1,0,100,0,1
131815,-76.9230769230769,4,1,0,100,0,1
131884,-75.4613054255026,4,1,0,100,0,1
131952,-74.0740740740741,4,1,0,100,0,1
132072,-71.8205293737896,4,1,0,100,0,1
132118,-72.0881257087316,4,1,0,100,0,1
132164,-72.3577235772358,4,1,0,100,0,1
132209,-72.6234190126479,4,1,0,100,0,1
132363,-77.5193798449612,4,1,0,100,0,1
132501,-76.9230769230769,4,1,0,100,0,1
132569,-76.755371261298,4,1,0,100,0,1
132637,-76.262869255597,4,1,0,100,0,1
132706,-75.4625714644375,4,1,0,100,0,1
132774,-74.4252294200146,4,1,0,100,0,1
132843,-73.1804164935098,4,1,0,100,0,1
132911,-71.828735060116,4,1,0,100,0,1
132980,-70.3964770441016,4,1,0,100,0,1
133048,-68.9859733384966,4,1,0,100,0,1
133094,-68.0598655517323,4,1,0,100,0,1
133139,-67.1921619894045,4,1,0,100,0,1
133185,-66.3567784750247,4,1,0,100,0,1
133254,-65.2249049702623,4,1,0,100,0,1
133322,-64.277202275594,4,1,0,100,0,1
133391,-63.5081572006166,4,1,0,100,0,1
133459,-62.9557674418959,4,1,0,100,0,1
133528,-62.6144396201036,4,1,0,100,0,1
133597,-50,4,1,0,100,0,1
133598,-50,4,1,0,100,0,1
133602,-100,4,1,0,100,0,1
133603,-50,4,1,0,100,0,1
133734,-100,4,1,0,50,0,1
134282,-111.111111111111,4,1,0,50,0,1
134624,-151.515151515152,4,1,0,50,0,1
134761,-125,4,1,0,50,0,1
135207,-142.857142857143,4,1,0,50,0,1
135698,-172.413793103448,4,1,0,50,0,1
136794,-200,4,1,0,50,0,1
137986,-238.095238095238,4,1,0,50,0,1
137987,-153.846153846154,4,1,0,50,0,1
138358,-166.666666666667,4,1,0,50,0,1
138769,-181.818181818182,4,1,0,50,0,1
138872,-200,4,1,0,5,0,1
139031,-200,4,1,0,5,0,1
139168,-10,4,1,0,5,0,1
139259,-166.666666666667,4,1,0,5,0,1
140172,-153.729883524495,4,1,0,5,0,1
141816,-125,4,1,0,5,0,1
141821,-125,4,1,0,5,0,0
142364,-125,4,1,0,70,0,0
142369,301.507537688442,4,1,0,70,1,0
142664,-124.710529034337,4,1,0,70,0,0
142815,-124.350397318874,4,1,0,70,0,0
142890,-124.119681730655,4,1,0,70,0,0
142966,-123.851646680731,4,1,0,70,0,0
143041,-123.554091259957,4,1,0,70,0,0
143116,-123.224532343111,4,1,0,70,0,0
143267,-122.467667567837,4,1,0,70,0,0
143418,-121.593008479364,4,1,0,70,0,0
143569,-120.609772139463,4,1,0,70,0,0
143719,-119.535444773956,4,1,0,70,0,0
144021,-117.12005438418,4,1,0,70,0,0
144096,-116.475912644358,4,1,0,70,0,0
144172,-115.80802607268,4,1,0,70,0,0
144247,-115.135356225868,4,1,0,70,0,0
144322,-114.450571444466,4,1,0,70,0,0
144473,-113.0405643588,4,1,0,70,0,0
144624,-111.597617491931,4,1,0,70,0,0
144775,-110.132039130106,4,1,0,70,0,0
144850,-109.398741086634,4,1,0,70,0,0
144925,-108.663430146409,4,1,0,70,0,0
145076,-107.181355270483,4,1,0,70,0,0
145227,-105.704127460652,4,1,0,70,0,0
145378,-104.239625250947,4,1,0,70,0,0
145528,-102.804524458527,4,1,0,70,0,0
145830,-100,4,1,0,70,0,0
145981,-90.9090909090909,4,1,0,70,0,0
146056,-91.7397660818713,4,1,0,70,0,0
146131,-92.5857617115455,4,1,0,70,0,0
146207,-93.4591038848206,4,1,0,70,0,0
146282,-94.3372588323728,4,1,0,70,0,0
146357,-95.2320728468446,4,1,0,70,0,0
146433,-96.1563018771549,4,1,0,70,0,0
146508,-97.0861268695204,4,1,0,70,0,0
146584,-98.046875,4,1,0,70,0,0
146659,-99.0138067061144,4,1,0,70,0,0
146734,-100,4,1,0,70,0,0
146886,-103.448275862069,4,1,0,70,0,0
147041,-107.142857142857,4,1,0,70,0,0
147187,-111.111111111111,4,1,0,70,0,0
147488,-124.710529034337,4,1,0,70,0,0
147639,-124.350397318874,4,1,0,70,0,0
147714,-124.119681730655,4,1,0,70,0,0
147790,-123.851646680731,4,1,0,70,0,0
147865,-123.554091259957,4,1,0,70,0,0
147940,-123.224532343111,4,1,0,70,0,0
148091,-122.467667567837,4,1,0,70,0,0
148242,-121.593008479364,4,1,0,70,0,0
148393,-120.609772139463,4,1,0,70,0,0
148543,-119.535444773956,4,1,0,70,0,0
148845,-117.12005438418,4,1,0,70,0,0
148920,-116.475912644358,4,1,0,70,0,0
148996,-115.80802607268,4,1,0,70,0,0
149071,-115.135356225868,4,1,0,70,0,0
149146,-114.450571444466,4,1,0,70,0,0
149222,-113.745676888982,4,1,0,70,0,0
149297,-113.0405643588,4,1,0,70,0,0
149373,-112.317773411768,4,1,0,70,0,0
149448,-111.597617491931,4,1,0,70,0,0
149599,-110.132039130106,4,1,0,70,0,0
149674,-109.398741086634,4,1,0,70,0,0
149749,-108.663430146409,4,1,0,70,0,0
149900,-107.181355270483,4,1,0,70,0,0
150051,-105.704127460652,4,1,0,70,0,0
150202,-104.239625250947,4,1,0,70,0,0
150352,-102.804524458527,4,1,0,70,0,0
150654,-100,4,1,0,70,0,0
150805,-90.9090909090909,4,1,0,70,0,0
150880,-91.9487648673376,4,1,0,70,0,0
150955,-93.0124942156409,4,1,0,70,0,0
151031,-94.1158108319026,4,1,0,70,0,0
151106,-95.2305748578648,4,1,0,70,0,0
151182,-96.3874680306905,4,1,0,70,0,0
151332,-98.7553226334753,4,1,0,70,0,0
151408,-100,4,1,0,70,0,0
151558,-102.551020408163,4,1,0,70,0,0
151709,-105.253971024612,4,1,0,70,0,0
151860,-108.103262818214,4,1,0,70,0,0
152011,-111.111111111111,4,1,0,70,0,0
152312,-124.710695304208,4,1,0,70,0,0
152389,-124.350768643644,4,1,0,70,0,0
152463,-124.350768643644,4,1,0,70,0,0
152538,-124.120183369814,4,1,0,70,0,0
152614,-123.852298678842,4,1,0,70,0,0
152689,-123.554908871833,4,1,0,70,0,0
152765,-123.22092797947,4,1,0,70,0,0
152915,-122.469078147757,4,1,0,70,0,0
153066,-121.594882993459,4,1,0,70,0,0
153217,-120.612153720814,4,1,0,70,0,0
153368,-119.530900963266,4,1,0,70,0,0
153520,-118.361729063421,4,1,0,70,0,0
153595,-117.751725794508,4,1,0,70,0,0
153669,-117.1241098211,4,1,0,70,0,0
153744,-116.480255159537,4,1,0,70,0,0
153820,-115.812658900394,4,1,0,70,0,0
153895,-115.140273814267,4,1,0,70,0,0
153971,-114.446568528351,4,1,0,70,0,0
154046,-113.751158189997,4,1,0,70,0,0
154121,-113.046318832358,4,1,0,70,0,0
154197,-112.323798786248,4,1,0,70,0,0
154347,-110.878425586204,4,1,0,70,0,0
154423,-110.138826280437,4,1,0,70,0,0
154498,-109.405763996023,4,1,0,70,0,0
154574,-108.660869472135,4,1,0,70,0,0
154724,-107.189028157986,4,1,0,70,0,0
154875,-105.712178848266,4,1,0,70,0,0
155026,-104.248006639255,4,1,0,70,0,0
155177,-102.803698291399,4,1,0,70,0,0
155327,-101.395044179106,4,1,0,70,0,0
155403,-100.693103879573,4,1,0,70,0,0
155478,-100.009059622729,4,1,0,70,0,0
155629,-90.9090909090909,4,1,0,70,0,0
155704,-91.5999594690445,4,1,0,70,0,0
155780,-92.3108342693761,4,1,0,70,0,0
155855,-93.0232558139535,4,1,0,70,0,0
155930,-93.7467593072695,4,1,0,70,0,0
156006,-94.4914811330616,4,1,0,70,0,0
156081,-95.2380952380952,4,1,0,70,0,0
156156,-95.9966018901986,4,1,0,70,0,0
156232,-96.7776469328766,4,1,0,70,0,0
156307,-97.5609756097561,4,1,0,70,0,0
156383,-98.3677910772579,4,1,0,70,0,0
156458,-99.1771804717498,4,1,0,70,0,0
156533,-100,4,1,0,70,0,0
156689,-105.263157894737,4,1,0,70,0,0
156835,-111.111111111111,4,1,0,70,0,0
157136,-124.735446530464,4,1,0,70,0,0
157287,-124.407121645957,4,1,0,70,0,0
157363,-124.194252781102,4,1,0,70,0,0
157438,-123.953910373317,4,1,0,70,0,0
157513,-123.684354822262,4,1,0,70,0,0
157589,-123.382381067344,4,1,0,70,0,0
157739,-122.705512244275,4,1,0,70,0,0
157890,-121.923676115288,4,1,0,70,0,0
158041,-121.051562684294,4,1,0,70,0,0
158192,-120.100534099872,4,1,0,70,0,0
158493,-118.0170312039,4,1,0,70,0,0
158569,-117.460424449597,4,1,0,70,0,0
158644,-116.902119580724,4,1,0,70,0,0
158719,-116.33634901764,4,1,0,70,0,0
158795,-115.756925930481,4,1,0,70,0,0
158870,-115.180560846665,4,1,0,70,0,0
158945,-114.601084244408,4,1,0,70,0,0
159021,-114.012126751614,4,1,0,70,0,0
159096,-113.430551772793,4,1,0,70,0,0
159172,-112.842199345404,4,1,0,70,0,0
159247,-112.263835538493,4,1,0,70,0,0
159322,-111.688934949137,4,1,0,70,0,0
159398,-111.111111111111,4,1,0,70,0,0
159548,-104.159313226779,4,1,0,70,0,0
159649,-102.730305303546,4,1,0,70,0,0
159749,-101.353558250685,4,1,0,70,0,0
159850,-100,4,1,0,70,0,0
160001,-111.111111111111,4,1,0,70,0,0
160302,-111.111111111111,4,1,0,70,0,0
160453,-99.9999999999999,4,1,0,70,0,0
160528,-102.546689303905,4,1,0,70,0,0
160604,-105.263157894737,4,1,0,70,0,0
160718,-111.104290712663,4,1,0,70,0,0
161020,-100,4,1,0,70,0,0
161095,-102.546689303905,4,1,0,70,0,0
161171,-105.263157894737,4,1,0,70,0,0
161357,-117.631767076103,4,1,0,70,0,0
161434,-83.3333333333333,4,1,0,70,0,0
161665,-111.111111111111,4,1,0,70,0,0
161666,-66.6666666666667,4,1,0,70,0,0
161735,-92.0747968805023,4,1,0,70,0,0
161887,-100,4,1,0,70,0,0
161962,-100.055391163441,4,1,0,70,0,0
162111,-100.055391163441,4,1,0,70,0,0
162187,-100.125755080666,4,1,0,70,0,0
162262,-100.22310611968,4,1,0,70,0,0
162337,-100.34821173188,4,1,0,70,0,0
162413,-100.503331821017,4,1,0,70,0,0
162564,-100.896367986599,4,1,0,70,0,0
162714,-101.398890789122,4,1,0,70,0,0
162866,-102.018084140926,4,1,0,70,0,0
163016,-102.751519589793,4,1,0,70,0,0
163167,-103.599773210781,4,1,0,70,0,0
163317,-104.556650738599,4,1,0,70,0,0
163393,-105.08509347203,4,1,0,70,0,0
163468,-105.635422820367,4,1,0,70,0,0
163543,-106.214447538231,4,1,0,70,0,0
163619,-106.83050128255,4,1,0,70,0,0
163770,-108.142124011498,4,1,0,70,0,0
163920,-109.570284679303,4,1,0,70,0,0
164071,-111.104039405119,4,1,0,70,0,0
164146,-111.913703894414,4,1,0,70,0,0
164222,-112.763082611272,4,1,0,70,0,0
164297,-113.629646019411,4,1,0,70,0,0
164373,-114.536280557147,4,1,0,70,0,0
164523,-116.408833991991,4,1,0,70,0,0
164674,-118.402987394467,4,1,0,70,0,0
164825,-120.502953795006,4,1,0,70,0,0
165126,-124.984497379869,4,1,0,70,0,0
165278,-100.617386951443,4,1,0,70,0,0
165352,-100.617386951443,4,1,0,70,0,0
165428,-101.259445843829,4,1,0,70,0,0
165503,-101.901140684411,4,1,0,70,0,0
165579,-102.559741474615,4,1,0,70,0,0
165729,-103.884916874838,4,1,0,70,0,0
165805,-104.569496228215,4,1,0,70,0,0
165880,-105.253971024612,4,1,0,70,0,0
165955,-105.947465518756,4,1,0,70,0,0
166031,-106.659591403555,4,1,0,70,0,0
166182,-108.103262818214,4,1,0,70,0,0
166332,-109.576594584772,4,1,0,70,0,0
166484,-111.111111111111,4,1,0,70,0,0
166786,-100,4,1,0,70,0,0
166935,-100.056132243248,4,1,0,70,0,0
167011,-100.125755080666,4,1,0,70,0,0
167086,-100.22310611968,4,1,0,70,0,0
167161,-100.34821173188,4,1,0,70,0,0
167237,-100.503331821017,4,1,0,70,0,0
167388,-100.896367986599,4,1,0,70,0,0
167538,-101.398890789122,4,1,0,70,0,0
167689,-102.018084140926,4,1,0,70,0,0
167840,-102.751519589793,4,1,0,70,0,0
167991,-103.599773210781,4,1,0,70,0,0
168141,-104.556650738599,4,1,0,70,0,0
168217,-105.08509347203,4,1,0,70,0,0
168292,-105.635422820367,4,1,0,70,0,0
168368,-106.222361897208,4,1,0,70,0,0
168443,-106.83050128255,4,1,0,70,0,0
168518,-107.46739586463,4,1,0,70,0,0
168594,-108.142124011498,4,1,0,70,0,0
168669,-108.836920865539,4,1,0,70,0,0
168744,-109.560443851614,4,1,0,70,0,0
168896,-111.104039405119,4,1,0,70,0,0
168971,-111.924691288473,4,1,0,70,0,0
169046,-112.763082611272,4,1,0,70,0,0
169197,-114.536280557147,4,1,0,70,0,0
169347,-116.408833991991,4,1,0,70,0,0
169498,-118.402987394467,4,1,0,70,0,0
169649,-120.502953795006,4,1,0,70,0,0
169950,-124.984497379869,4,1,0,70,0,0
170102,-100.625782227785,4,1,0,70,0,0
170177,-100.625782227785,4,1,0,70,0,0
170252,-101.259445843829,4,1,0,70,0,0
170327,-101.901140684411,4,1,0,70,0,0
170403,-102.559741474615,4,1,0,70,0,0
170478,-103.218076001369,4,1,0,70,0,0
170629,-104.569496228215,4,1,0,70,0,0
170704,-105.253971024612,4,1,0,70,0,0
170855,-106.659591403555,4,1,0,70,0,0
171006,-108.103262818214,4,1,0,70,0,0
171156,-109.576594584772,4,1,0,70,0,0
171307,-111.100875172731,4,1,0,70,0,0
171610,-100,4,1,0,70,0,0
171759,-100.055391163441,4,1,0,70,0,0
171835,-100.125755080666,4,1,0,70,0,0
171910,-100.224591564479,4,1,0,70,0,0
171986,-100.350067448133,4,1,0,70,0,0
172061,-100.503331821017,4,1,0,70,0,0
172212,-100.896367986599,4,1,0,70,0,0
172362,-101.398890789122,4,1,0,70,0,0
172514,-102.018084140926,4,1,0,70,0,0
172664,-102.751519589793,4,1,0,70,0,0
172815,-103.599773210781,4,1,0,70,0,0
172966,-104.563413175261,4,1,0,70,0,0
173041,-105.08509347203,4,1,0,70,0,0
173116,-105.635422820367,4,1,0,70,0,0
173192,-106.222361897208,4,1,0,70,0,0
173267,-106.83050128255,4,1,0,70,0,0
173418,-108.142124011498,4,1,0,70,0,0
173569,-109.570284679303,4,1,0,70,0,0
173644,-110.322864071957,4,1,0,70,0,0
173720,-111.104039405119,4,1,0,70,0,0
173795,-111.924691288473,4,1,0,70,0,0
173870,-112.763082611272,4,1,0,70,0,0
174021,-114.536280557147,4,1,0,70,0,0
174172,-116.421683676805,4,1,0,70,0,0
174322,-118.402987394467,4,1,0,70,0,0
174473,-120.502953795006,4,1,0,70,0,0
174624,-122.703966670083,4,1,0,70,0,0
174699,-123.832932952214,4,1,0,70,0,0
174775,-125,4,1,0,70,0,0
174926,-100.625782227785,4,1,0,70,0,0
175001,-100.625782227785,4,1,0,70,0,0
175076,-101.259445843829,4,1,0,70,0,0
175151,-101.901140684411,4,1,0,70,0,0
175227,-102.559741474615,4,1,0,70,0,0
175302,-103.218076001369,4,1,0,70,0,0
175378,-103.893866299104,4,1,0,70,0,0
175453,-104.569496228215,4,1,0,70,0,0
175528,-105.253971024612,4,1,0,70,0,0
175679,-106.659591403555,4,1,0,70,0,0
175754,-107.371794871795,4,1,0,70,0,0
175830,-108.103262818214,4,1,0,70,0,0
175981,-109.586551567469,4,1,0,70,0,0
176131,-111.100875172731,4,1,0,70,0,0
176434,-100,4,1,0,70,0,0
176584,-100.056132243248,4,1,0,70,0,0
176659,-100.125755080666,4,1,0,70,0,0
176734,-100.22310611968,4,1,0,70,0,0
176810,-100.350067448133,4,1,0,70,0,0
176885,-100.503331821017,4,1,0,70,0,0
177036,-100.896367986599,4,1,0,70,0,0
177187,-101.4026168487,4,1,0,70,0,0
177338,-102.018084140926,4,1,0,70,0,0
177488,-102.751519589793,4,1,0,70,0,0
177639,-103.599773210781,4,1,0,70,0,0
177790,-104.563413175261,4,1,0,70,0,0
177865,-105.08509347203,4,1,0,70,0,0
177940,-105.635422820367,4,1,0,70,0,0
178016,-106.222361897208,4,1,0,70,0,0
178091,-106.83050128255,4,1,0,70,0,0
178167,-107.476082106981,4,1,0,70,0,0
178242,-108.142124011498,4,1,0,70,0,0
178317,-108.836920865539,4,1,0,70,0,0
178393,-109.570284679303,4,1,0,70,0,0
178468,-110.322864071957,4,1,0,70,0,0
178544,-111.104039405119,4,1,0,70,0,0
178619,-111.924691288473,4,1,0,70,0,0
178694,-112.763082611272,4,1,0,70,0,0
178845,-114.536280557147,4,1,0,70,0,0
178996,-116.421683676805,4,1,0,70,0,0
179071,-117.399035044623,4,1,0,70,0,0
179146,-118.402987394467,4,1,0,70,0,0
179297,-120.502953795006,4,1,0,70,0,0
179600,-125,4,1,0,70,0,0
179749,-105.237406848797,4,1,0,70,0,0
179825,-104.321122372883,4,1,0,70,0,0
179900,-103.377409189326,4,1,0,70,0,0
179976,-102.387120424578,4,1,0,70,0,0
180051,-101.38216769507,4,1,0,70,0,0
180202,-99.2983298873535,4,1,0,70,0,0
180277,-98.2441348618834,4,1,0,70,0,0
180352,-97.1840647289426,4,1,0,70,0,0
180428,-96.1087842587905,4,1,0,70,0,0
180503,-95.0511574720863,4,1,0,70,0,0
180654,-92.9492470184907,4,1,0,70,0,0
180729,-91.9264792951074,4,1,0,70,0,0
180805,-90.9090909090909,4,1,0,70,0,0
180882,-111.111111111111,4,1,0,70,0,0
180956,-111.111111111111,4,1,0,15,0,0
181485,-10,4,1,0,15,0,0
181635,-116.883116883117,4,1,0,15,0,0
184574,-130.434782608696,4,1,0,15,0,0
185780,-147.540983606557,4,1,0,15,0,0
186986,-169.811320754717,4,1,0,15,0,0
188192,-200,4,1,0,15,0,0

[HitObjects]
133,183,20489,5,0,0:0:0:0:
131,201,20640,1,0,0:0:0:0:
131,200,20791,1,0,0:0:0:0:
173,125,20941,1,2,0:0:0:0:
167,146,21394,1,2,0:0:0:0:
178,99,21544,1,2,0:0:0:0:
169,102,21695,1,2,0:0:0:0:
167,146,21846,1,0,0:0:0:0:
186,107,22298,1,2,0:0:0:0:
136,122,25313,5,2,0:0:0:0:
136,122,25464,1,0,0:0:0:0:
136,122,25615,1,0,0:0:0:0:
136,122,25765,1,2,0:0:0:0:
160,150,26218,1,0,0:0:0:0:
163,152,26368,1,2,0:0:0:0:
160,150,26519,1,2,0:0:0:0:
160,150,26670,1,0,0:0:0:0:
170,173,30137,5,0,0:0:0:0:
170,173,30288,1,0,0:0:0:0:
170,173,30439,1,0,0:0:0:0:
170,173,30590,1,2,0:0:0:0:
178,157,31042,1,2,0:0:0:0:
177,157,31193,1,2,0:0:0:0:
177,157,31343,1,2,0:0:0:0:
177,157,31494,1,0,0:0:0:0:
285,193,31946,1,2,0:0:0:0:
185,183,34961,5,2,0:0:0:0:
185,183,35112,1,0,0:0:0:0:
185,183,35263,1,0,0:0:0:0:
185,183,35414,1,2,0:0:0:0:
185,183,35866,1,0,0:0:0:0:
185,183,36017,1,2,0:0:0:0:
185,183,36167,1,2,0:0:0:0:
185,183,36318,1,0,0:0:0:0:
256,192,36469,12,0,38881,0:0:0:0:
325,217,39182,5,2,0:0:0:0:
325,217,39333,1,2,0:0:0:0:
325,217,39484,1,2,0:0:0:0:
233,372,39785,1,0,0:0:0:0:
338,201,39936,1,2,0:0:0:0:
338,201,40087,1,0,0:0:0:0:
338,201,40238,1,0,0:0:0:0:
338,201,40389,1,2,0:0:0:0:
334,182,40690,1,0,0:0:0:0:
331,184,40841,1,0,0:0:0:0:
329,183,40992,1,0,0:0:0:0:
326,182,41142,1,2,0:0:0:0:
334,182,41595,1,2,0:0:0:0:
335,202,41745,1,0,0:0:0:0:
335,202,41896,1,0,0:0:0:0:
335,202,42047,1,2,0:0:0:0:
335,202,42198,1,0,0:0:0:0:
333,207,42348,1,0,0:0:0:0:
333,207,42499,1,2,0:0:0:0:
332,206,42650,1,0,0:0:0:0:
365,139,42801,1,0,0:0:0:0:
332,206,42951,1,2,0:0:0:0:
448,64,43102,1,8,0:0:0:0:
335,202,43253,1,0,0:0:0:0:
335,200,43404,1,2,0:0:0:0:
354,136,43554,1,0,0:0:0:0:
335,200,43705,1,2,0:0:0:0:
354,136,43856,1,0,0:0:0:0:
347,160,44007,1,2,0:0:0:0:
340,120,44157,1,2,0:0:0:0:
233,116,44308,1,0,0:0:0:0:
334,177,44610,1,0,0:0:0:0:
390,200,44760,1,2,0:0:0:0:
390,200,44911,1,0,0:0:0:0:
390,200,45062,1,2,0:0:0:0:
348,199,45213,1,2,0:0:0:0:
348,199,45514,1,2,0:0:0:0:
348,199,45665,1,0,0:0:0:0:
348,199,45816,1,0,0:0:0:0:
348,199,45966,1,2,0:0:0:0:
342,174,46419,1,2,0:0:0:0:
342,174,46569,1,0,0:0:0:0:
342,174,46720,1,0,0:0:0:0:
340,169,46871,1,2,0:0:0:0:
342,174,46946,1,0,0:0:0:0:
335,170,47022,1,0,0:0:0:0:
335,170,47172,1,0,0:0:0:0:
345,190,47323,1,2,0:0:0:0:
360,172,47474,1,0,0:0:0:0:
355,174,47625,1,2,0:0:0:0:
345,179,47775,1,2,0:0:0:0:
344,182,47926,1,0,0:0:0:0:
344,182,48077,1,0,0:0:0:0:
344,182,48228,1,2,0:0:0:0:
345,161,48378,1,0,0:0:0:0:
356,159,48454,1,0,0:0:0:0:
345,161,48529,1,2,0:0:0:0:
345,161,48680,1,0,0:0:0:0:
359,168,48831,1,2,0:0:0:0:
448,64,48981,1,8,0:0:0:0:
233,116,49132,1,0,0:0:0:0:
370,186,49434,1,0,0:0:0:0:
364,195,49584,1,2,0:0:0:0:
363,195,49735,1,2,0:0:0:0:
363,195,49886,1,0,0:0:0:0:
363,196,50037,1,2,0:0:0:0:
362,183,50338,1,0,0:0:0:0:
363,183,50489,1,0,0:0:0:0:
363,183,50640,1,2,0:0:0:0:
363,183,50791,1,2,0:0:0:0:
368,213,51544,1,2,0:0:0:0:
364,236,51846,1,0,0:0:0:0:
352,254,51997,1,2,0:0:0:0:
352,254,52147,1,0,0:0:0:0:
352,254,52298,1,0,0:0:0:0:
373,153,52373,1,0,0:0:0:0:
352,254,52449,1,2,0:0:0:0:
352,254,52600,1,0,0:0:0:0:
352,254,52750,1,0,0:0:0:0:
352,254,52901,1,2,0:0:0:0:
363,169,53052,1,0,0:0:0:0:
357,177,53203,1,2,0:0:0:0:
351,184,53353,1,0,0:0:0:0:
340,161,53504,1,0,0:0:0:0:
340,161,53655,1,2,0:0:0:0:
448,64,53806,1,8,0:0:0:0:
233,116,53956,1,0,0:0:0:0:
365,198,54258,1,0,0:0:0:0:
365,198,54409,1,2,0:0:0:0:
365,198,54559,1,0,0:0:0:0:
365,198,54710,1,0,0:0:0:0:
365,198,54861,1,2,0:0:0:0:
334,141,55162,1,0,0:0:0:0:
334,141,55313,1,2,0:0:0:0:
334,141,55464,1,2,0:0:0:0:
330,139,55615,1,0,0:0:0:0:
334,141,55765,1,0,0:0:0:0:
332,157,55841,1,0,0:0:0:0:
329,146,55916,1,2,0:0:0:0:
328,146,55992,1,0,0:0:0:0:
334,159,56067,1,2,0:0:0:0:
328,147,56142,1,2,0:0:0:0:
373,110,56218,1,2,0:0:0:0:
334,159,56293,1,0,0:0:0:0:
329,147,56368,1,2,0:0:0:0:
386,134,56595,1,0,0:0:0:0:
393,133,56670,1,0,0:0:0:0:
379,174,56896,1,0,0:0:0:0:
375,179,57122,1,0,0:0:0:0:
379,174,57160,1,0,0:0:0:0:
375,172,57198,1,0,0:0:0:0:
373,178,57348,1,0,0:0:0:0:
373,178,57574,1,0,0:0:0:0:
379,174,57725,1,0,0:0:0:0:
379,174,57801,1,0,0:0:0:0:
375,174,57951,1,0,0:0:0:0:
375,174,58102,1,0,0:0:0:0:
341,104,58253,1,0,0:0:0:0:
341,104,58291,1,0,0:0:0:0:
358,125,58328,1,0,0:0:0:0:
375,96,58366,1,0,0:0:0:0:
380,155,58404,1,0,0:0:0:0:
386,133,58554,1,0,0:0:0:0:
387,133,58680,1,0,0:0:0:0:
333,106,58780,1,0,0:0:0:0:
320,90,58881,1,0,0:0:0:0:
320,90,58981,1,0,0:0:0:0:
353,237,59083,5,6,0:0:0:0:
377,120,62369,1,0,0:0:0:0:
377,120,62506,1,2,0:0:0:0:
377,120,62917,1,2,0:0:0:0:
340,209,63465,1,0,0:0:0:0:
353,208,63739,1,2,0:0:0:0:
353,208,63876,1,0,0:0:0:0:
360,144,64150,1,2,0:0:0:0:
360,144,64287,1,0,0:0:0:0:
364,148,64355,1,2,0:0:0:0:
350,113,64424,1,0,0:0:0:0:
360,149,64492,1,2,0:0:0:0:
339,175,64561,1,2,0:0:0:0:
360,150,64698,1,0,0:0:0:0:
365,150,64766,1,2,0:0:0:0:
360,150,64835,1,0,0:0:0:0:
365,152,64903,1,0,0:0:0:0:
360,150,64972,1,2,0:0:0:0:
342,158,65109,1,0,0:0:0:0:
335,161,65177,1,2,0:0:0:0:
335,158,65246,1,0,0:0:0:0:
335,161,65314,1,2,0:0:0:0:
335,158,65383,1,2,0:0:0:0:
353,91,65520,1,0,0:0:0:0:
360,99,65657,1,0,0:0:0:0:
357,100,65794,1,2,0:0:0:0:
346,124,65862,1,2,0:0:0:0:
342,124,65931,1,2,0:0:0:0:
374,113,66068,1,0,0:0:0:0:
374,113,66205,1,2,0:0:0:0:
355,105,66273,1,0,0:0:0:0:
360,106,66342,1,2,0:0:0:0:
384,130,66479,1,0,0:0:0:0:
359,180,66616,1,2,0:0:0:0:
376,145,66684,1,2,0:0:0:0:
359,180,66753,1,2,0:0:0:0:
369,192,66890,1,0,0:0:0:0:
368,192,67027,1,2,0:0:0:0:
367,192,67095,1,0,0:0:0:0:
360,185,67164,1,2,0:0:0:0:
372,138,67301,1,0,0:0:0:0:
370,142,67438,1,0,0:0:0:0:
370,129,67506,1,0,0:0:0:0:
395,122,67575,1,8,0:0:0:0:
229,135,67609,1,8,0:0:0:0:
330,176,67850,5,4,0:0:0:0:
278,144,67986,1,0,0:0:0:0:
352,189,68054,1,2,0:0:0:0:
353,192,68123,1,2,0:0:0:0:
337,153,68260,1,0,0:0:0:0:
380,124,68328,1,2,0:0:0:0:
337,153,68397,1,0,0:0:0:0:
369,84,68465,1,0,0:0:0:0:
368,143,68534,1,2,0:0:0:0:
355,148,68671,1,0,0:0:0:0:
355,148,68808,1,0,0:0:0:0:
352,140,68876,1,2,0:0:0:0:
352,148,68945,1,2,0:0:0:0:
348,130,69082,1,0,0:0:0:0:
361,89,69150,1,2,0:0:0:0:
350,130,69218,1,0,0:0:0:0:
360,91,69287,1,0,0:0:0:0:
350,130,69355,1,2,0:0:0:0:
350,130,69492,1,0,0:0:0:0:
350,130,69629,1,0,0:0:0:0:
365,116,69698,1,0,0:0:0:0:
349,134,69766,1,2,0:0:0:0:
357,133,70040,1,0,0:0:0:0:
362,109,70177,1,0,0:0:0:0:
362,168,70246,1,2,0:0:0:0:
362,168,70314,1,2,0:0:0:0:
350,158,70451,1,0,0:0:0:0:
334,165,70520,1,2,0:0:0:0:
344,156,70588,1,0,0:0:0:0:
335,165,70657,1,0,0:0:0:0:
338,157,70725,1,2,0:0:0:0:
339,168,70862,1,0,0:0:0:0:
340,167,70999,1,0,0:0:0:0:
338,166,71068,1,2,0:0:0:0:
329,172,71136,1,2,0:0:0:0:
327,176,71273,1,0,0:0:0:0:
327,176,71342,1,2,0:0:0:0:
324,175,71410,1,0,0:0:0:0:
327,179,71479,1,0,0:0:0:0:
321,176,71547,1,2,0:0:0:0:
334,149,71684,1,0,0:0:0:0:
382,152,71821,1,0,0:0:0:0:
386,145,71890,1,0,0:0:0:0:
383,145,71958,1,6,0:0:0:0:
349,89,72095,1,6,0:0:0:0:
337,90,72232,1,4,0:0:0:0:
329,163,72369,1,4,0:0:0:0:
328,161,72506,1,6,0:0:0:0:
363,107,72712,1,0,0:0:0:0:
340,125,72780,1,0,0:0:0:0:
341,135,72917,1,2,0:0:0:0:
357,119,73054,1,0,0:0:0:0:
340,132,73123,1,2,0:0:0:0:
357,119,73260,1,0,0:0:0:0:
344,129,73328,1,2,0:0:0:0:
332,164,73397,1,0,0:0:0:0:
320,151,73465,1,0,0:0:0:0:
305,149,73534,1,2,0:0:0:0:
320,151,73602,1,0,0:0:0:0:
344,129,73739,1,2,0:0:0:0:
351,123,73876,1,0,0:0:0:0:
385,99,73945,1,2,0:0:0:0:
335,129,74013,1,0,0:0:0:0:
365,168,74082,1,0,0:0:0:0:
344,129,74150,1,2,0:0:0:0:
326,175,74424,1,2,0:0:0:0:
339,148,74561,1,0,0:0:0:0:
324,125,74629,1,2,0:0:0:0:
335,148,74698,1,2,0:0:0:0:
345,143,74835,1,0,0:0:0:0:
355,121,74903,1,2,0:0:0:0:
345,143,74972,1,0,0:0:0:0:
360,173,75040,1,2,0:0:0:0:
370,87,75109,1,2,0:0:0:0:
370,87,75246,1,0,0:0:0:0:
364,110,75383,1,0,0:0:0:0:
361,114,75451,1,0,0:0:0:0:
347,165,75520,1,2,0:0:0:0:
361,134,75657,1,2,0:0:0:0:
360,134,75794,1,2,0:0:0:0:
360,134,75931,1,0,0:0:0:0:
361,134,76068,1,2,0:0:0:0:
354,133,76205,1,2,0:0:0:0:
353,133,76342,1,0,0:0:0:0:
350,133,76479,1,2,0:0:0:0:
309,155,76617,1,4,0:0:0:0:
305,199,76753,1,0,0:0:0:0:
337,174,76821,1,2,0:0:0:0:
300,199,76890,1,2,0:0:0:0:
315,178,77027,1,0,0:0:0:0:
316,156,77095,1,2,0:0:0:0:
315,178,77164,1,0,0:0:0:0:
315,178,77232,1,2,0:0:0:0:
316,166,77301,1,2,0:0:0:0:
314,181,77438,1,0,0:0:0:0:
314,181,77575,1,0,0:0:0:0:
314,183,77643,1,2,0:0:0:0:
314,181,77712,1,2,0:0:0:0:
314,114,77849,1,0,0:0:0:0:
314,114,77917,1,2,0:0:0:0:
314,114,77986,1,0,0:0:0:0:
314,114,78054,1,2,0:0:0:0:
314,114,78123,1,2,0:0:0:0:
314,114,78260,1,0,0:0:0:0:
309,114,78397,1,0,0:0:0:0:
363,131,78465,1,0,0:0:0:0:
307,114,78534,1,2,0:0:0:0:
368,134,78739,1,2,0:0:0:0:
367,111,78808,1,0,0:0:0:0:
341,115,78945,1,0,0:0:0:0:
341,115,79082,1,2,0:0:0:0:
338,128,79218,1,0,0:0:0:0:
338,129,79287,1,2,0:0:0:0:
346,129,79355,1,0,0:0:0:0:
336,129,79424,1,2,0:0:0:0:
335,126,79492,1,2,0:0:0:0:
345,111,79629,1,0,0:0:0:0:
344,111,79766,1,0,0:0:0:0:
354,94,79835,1,2,0:0:0:0:
339,111,79903,1,2,0:0:0:0:
369,121,80040,1,0,0:0:0:0:
352,121,80109,1,2,0:0:0:0:
369,121,80177,1,0,0:0:0:0:
351,121,80246,1,2,0:0:0:0:
350,121,80314,1,2,0:0:0:0:
388,110,80451,1,0,0:0:0:0:
388,110,80588,1,0,0:0:0:0:
370,114,80657,1,0,0:0:0:0:
375,111,80725,1,6,0:0:0:0:
344,133,80862,1,6,0:0:0:0:
341,133,80999,1,4,0:0:0:0:
334,132,81136,1,4,0:0:0:0:
325,135,81273,1,6,0:0:0:0:
353,198,81479,1,2,0:0:0:0:
343,194,81547,1,0,0:0:0:0:
321,175,81684,1,2,0:0:0:0:
345,101,81821,1,0,0:0:0:0:
345,101,81890,1,2,0:0:0:0:
321,175,82027,1,0,0:0:0:0:
317,175,82095,1,2,0:0:0:0:
311,159,82164,1,0,0:0:0:0:
318,139,82232,1,2,0:0:0:0:
313,159,82301,1,2,0:0:0:0:
298,149,82369,1,0,0:0:0:0:
364,124,82506,1,2,0:0:0:0:
364,124,82643,1,0,0:0:0:0:
350,159,82712,1,2,0:0:0:0:
364,124,82780,1,2,0:0:0:0:
350,167,82849,1,0,0:0:0:0:
350,159,82917,1,2,0:0:0:0:
403,169,83191,1,2,0:0:0:0:
403,169,83328,1,0,0:0:0:0:
353,149,83397,1,2,0:0:0:0:
394,170,83465,1,2,0:0:0:0:
394,170,83602,1,0,0:0:0:0:
379,141,83671,1,2,0:0:0:0:
357,159,83739,1,0,0:0:0:0:
350,159,83808,1,2,0:0:0:0:
355,159,83876,1,2,0:0:0:0:
352,180,84013,1,0,0:0:0:0:
352,180,84150,1,0,0:0:0:0:
344,106,84218,1,0,0:0:0:0:
352,180,84287,1,2,0:0:0:0:
346,134,84424,1,2,0:0:0:0:
470,122,84470,1,2,0:0:0:0:
463,128,84515,1,2,0:0:0:0:
346,134,84561,1,2,0:0:0:0:
385,163,84835,1,0,0:0:0:0:
398,150,84926,1,0,0:0:0:0:
405,143,85018,1,0,0:0:0:0:
405,148,85109,1,0,0:0:0:0:
398,174,85246,1,2,0:0:0:0:
398,175,85292,1,2,0:0:0:0:
398,175,85337,1,2,0:0:0:0:
389,174,85383,1,4,0:0:0:0:
368,167,85520,1,4,0:0:0:0:
368,167,85657,1,6,0:0:0:0:
299,226,85862,1,0,0:0:0:0:
295,223,85931,1,0,0:0:0:0:
299,226,85999,1,2,0:0:0:0:
305,208,86068,1,0,0:0:0:0:
297,231,86205,1,0,0:0:0:0:
297,231,86342,1,2,0:0:0:0:
342,147,86387,1,2,0:0:0:0:
370,160,86433,1,2,0:0:0:0:
297,231,86479,1,0,0:0:0:0:
297,231,86616,1,0,0:0:0:0:
355,147,86753,1,2,0:0:0:0:
324,161,86890,1,0,0:0:0:0:
312,171,86958,1,2,0:0:0:0:
233,116,87027,1,0,0:0:0:0:
324,161,87095,1,0,0:0:0:0:
312,165,87164,1,2,0:0:0:0:
349,134,87301,1,2,0:0:0:0:
211,22,87369,1,0,0:0:0:0:
349,134,87506,1,2,0:0:0:0:
358,92,87575,1,2,0:0:0:0:
378,171,87643,1,0,0:0:0:0:
357,150,87712,1,2,0:0:0:0:
378,175,87780,1,0,0:0:0:0:
352,153,87849,1,2,0:0:0:0:
361,110,87986,1,0,0:0:0:0:
371,142,88054,1,2,0:0:0:0:
352,157,88123,1,0,0:0:0:0:
448,64,88191,1,2,0:0:0:0:
233,116,88260,1,0,0:0:0:0:
341,141,88397,1,0,0:0:0:0:
337,144,88534,1,2,0:0:0:0:
405,170,88579,1,2,0:0:0:0:
405,170,88625,1,2,0:0:0:0:
397,180,88671,1,0,0:0:0:0:
368,168,88945,1,2,0:0:0:0:
368,168,89082,1,2,0:0:0:0:
362,139,89150,1,0,0:0:0:0:
368,168,89218,1,0,0:0:0:0:
352,162,89287,1,2,0:0:0:0:
368,168,89355,1,2,0:0:0:0:
337,162,89492,1,0,0:0:0:0:
441,186,89561,1,2,0:0:0:0:
336,162,89629,1,0,0:0:0:0:
320,113,89698,1,2,0:0:0:0:
300,104,89766,1,0,0:0:0:0:
233,116,89835,1,0,0:0:0:0:
233,116,89903,1,2,0:0:0:0:
345,104,89972,1,0,0:0:0:0:
317,129,90040,1,2,0:0:0:0:
233,116,90177,1,0,0:0:0:0:
448,64,90246,1,2,0:0:0:0:
233,116,90314,1,0,0:0:0:0:
233,116,90383,1,0,0:0:0:0:
335,144,90451,1,2,0:0:0:0:
339,148,90588,1,0,0:0:0:0:
320,136,90657,1,2,0:0:0:0:
335,150,90725,1,0,0:0:0:0:
448,64,90794,1,2,0:0:0:0:
325,154,90862,1,2,0:0:0:0:
259,151,90999,1,0,0:0:0:0:
448,64,91068,1,2,0:0:0:0:
448,64,91136,1,2,0:0:0:0:
233,116,91205,1,0,0:0:0:0:
316,174,91273,1,2,0:0:0:0:
315,173,91410,1,0,0:0:0:0:
322,175,91547,1,0,0:0:0:0:
311,104,91616,1,0,0:0:0:0:
322,174,91684,1,2,0:0:0:0:
325,142,91890,1,0,0:0:0:0:
325,142,91958,1,2,0:0:0:0:
356,162,92095,1,0,0:0:0:0:
350,162,92164,1,2,0:0:0:0:
356,162,92232,1,0,0:0:0:0:
326,94,92301,1,0,0:0:0:0:
356,162,92369,1,2,0:0:0:0:
341,134,92506,1,0,0:0:0:0:
338,136,92643,1,0,0:0:0:0:
327,154,92712,1,2,0:0:0:0:
322,153,92780,1,2,0:0:0:0:
332,169,93054,1,2,0:0:0:0:
455,144,93100,1,2,0:0:0:0:
455,144,93145,1,2,0:0:0:0:
455,144,93191,1,2,0:0:0:0:
356,162,93260,1,0,0:0:0:0:
370,122,93328,1,2,0:0:0:0:
356,162,93397,1,2,0:0:0:0:
391,151,93465,1,0,0:0:0:0:
385,155,93602,1,0,0:0:0:0:
386,134,93648,1,0,0:0:0:0:
385,136,93693,1,0,0:0:0:0:
371,90,93739,1,2,0:0:0:0:
338,102,93808,1,2,0:0:0:0:
338,102,93876,1,0,0:0:0:0:
394,164,93945,1,0,0:0:0:0:
332,113,94013,1,2,0:0:0:0:
335,112,94082,1,2,0:0:0:0:
333,114,94150,1,4,0:0:0:0:
348,146,94287,1,4,0:0:0:0:
346,146,94424,1,6,0:0:0:0:
361,225,94629,1,0,0:0:0:0:
360,230,94698,1,0,0:0:0:0:
339,304,94766,1,2,0:0:0:0:
361,225,94835,1,0,0:0:0:0:
336,174,94972,1,0,0:0:0:0:
331,178,95109,1,2,0:0:0:0:
398,185,95155,1,2,0:0:0:0:
398,185,95200,1,2,0:0:0:0:
326,181,95246,1,0,0:0:0:0:
348,81,95451,1,0,0:0:0:0:
381,139,95520,1,2,0:0:0:0:
381,139,95657,1,0,0:0:0:0:
382,142,95725,1,2,0:0:0:0:
333,158,95794,1,0,0:0:0:0:
384,144,95862,1,0,0:0:0:0:
381,139,95931,1,2,0:0:0:0:
339,135,96068,1,2,0:0:0:0:
333,112,96136,1,0,0:0:0:0:
340,132,96273,1,2,0:0:0:0:
339,135,96342,1,2,0:0:0:0:
340,154,96410,1,0,0:0:0:0:
356,150,96479,1,2,0:0:0:0:
353,139,96547,1,0,0:0:0:0:
344,153,96616,1,2,0:0:0:0:
329,191,96753,1,0,0:0:0:0:
339,135,96821,1,2,0:0:0:0:
327,193,96890,1,0,0:0:0:0:
448,64,96958,1,2,0:0:0:0:
233,116,97027,1,0,0:0:0:0:
343,151,97164,1,0,0:0:0:0:
341,149,97301,1,2,0:0:0:0:
405,158,97346,1,2,0:0:0:0:
405,158,97392,1,2,0:0:0:0:
333,107,97438,1,0,0:0:0:0:
369,171,97712,1,2,0:0:0:0:
369,171,97849,1,2,0:0:0:0:
371,146,97917,1,0,0:0:0:0:
369,171,97986,1,0,0:0:0:0:
357,147,98054,1,2,0:0:0:0:
369,171,98123,1,2,0:0:0:0:
353,126,98260,1,0,0:0:0:0:
356,153,98328,1,2,0:0:0:0:
353,126,98397,1,0,0:0:0:0:
356,153,98465,1,2,0:0:0:0:
353,126,98534,1,0,0:0:0:0:
346,174,98602,1,2,0:0:0:0:
346,179,98671,1,0,0:0:0:0:
346,174,98739,1,2,0:0:0:0:
346,165,98808,1,2,0:0:0:0:
342,147,98945,1,0,0:0:0:0:
359,96,99082,1,0,0:0:0:0:
448,64,99150,1,8,0:0:0:0:
341,148,99218,1,2,0:0:0:0:
360,144,99355,1,0,0:0:0:0:
356,160,99424,1,2,0:0:0:0:
359,144,99492,1,0,0:0:0:0:
350,164,99561,1,2,0:0:0:0:
339,91,99629,1,2,0:0:0:0:
353,193,99766,1,0,0:0:0:0:
368,138,99903,1,0,0:0:0:0:
360,144,99972,1,2,0:0:0:0:
346,168,100040,1,2,0:0:0:0:
335,149,100177,1,0,0:0:0:0:
332,151,100314,1,0,0:0:0:0:
330,153,100451,1,2,0:0:0:0:
386,183,100657,1,0,0:0:0:0:
386,183,100725,1,2,0:0:0:0:
449,173,100771,1,2,0:0:0:0:
444,174,100817,1,2,0:0:0:0:
382,180,100862,1,0,0:0:0:0:
335,106,100931,1,2,0:0:0:0:
364,134,100999,1,0,0:0:0:0:
337,122,101068,1,0,0:0:0:0:
360,128,101136,1,2,0:0:0:0:
380,108,101205,1,2,0:0:0:0:
370,115,101273,1,0,0:0:0:0:
340,178,101410,1,0,0:0:0:0:
357,145,101479,1,2,0:0:0:0:
340,178,101547,1,2,0:0:0:0:
341,128,101684,1,0,0:0:0:0:
337,127,101821,1,2,0:0:0:0:
386,132,101867,1,2,0:0:0:0:
390,135,101913,1,2,0:0:0:0:
389,107,101958,1,8,0:0:0:0:
334,149,102095,1,2,0:0:0:0:
328,152,102232,1,2,0:0:0:0:
326,152,102369,1,0,0:0:0:0:
342,133,102506,1,2,0:0:0:0:
351,138,102575,1,2,0:0:0:0:
348,135,102643,1,0,0:0:0:0:
349,143,102780,1,0,0:0:0:0:
306,109,102849,1,0,0:0:0:0:
350,133,102918,1,2,0:0:0:0:
385,127,103054,1,2,0:0:0:0:
385,127,103191,1,2,0:0:0:0:
336,152,103362,1,2,0:0:0:0:
334,150,103568,1,2,0:0:0:0:
337,148,103808,1,2,0:0:0:0:
340,149,104013,1,4,0:0:0:0:
0,384,106753,6,0,L|351:376,1,325
216,122,107301,5,6,0:0:0:0:
193,151,107438,1,0,0:0:0:0:
207,167,107506,1,2,0:0:0:0:
210,172,107575,1,2,0:0:0:0:
210,173,107643,1,0,0:0:0:0:
193,151,107712,1,2,0:0:0:0:
211,178,107849,1,0,0:0:0:0:
215,180,107917,1,2,0:0:0:0:
211,178,107986,1,0,0:0:0:0:
217,182,108054,1,2,0:0:0:0:
210,178,108123,1,2,0:0:0:0:
170,94,108260,1,0,0:0:0:0:
158,57,108328,1,2,0:0:0:0:
170,94,108397,1,2,0:0:0:0:
158,57,108465,1,0,0:0:0:0:
158,57,108534,1,2,0:0:0:0:
171,107,108671,1,0,0:0:0:0:
167,110,108739,1,2,0:0:0:0:
167,111,108808,1,0,0:0:0:0:
166,111,108876,1,0,0:0:0:0:
165,109,108945,1,2,0:0:0:0:
205,87,109013,1,2,0:0:0:0:
198,89,109082,1,0,0:0:0:0:
205,87,109150,1,2,0:0:0:0:
197,89,109218,1,2,0:0:0:0:
211,28,109355,1,0,0:0:0:0:
215,84,109492,1,8,0:0:0:0:
186,144,109629,1,0,0:0:0:0:
178,149,109698,1,2,0:0:0:0:
181,145,109766,1,0,0:0:0:0:
178,149,109835,1,0,0:0:0:0:
176,147,109903,1,2,0:0:0:0:
178,148,110040,1,0,0:0:0:0:
161,132,110109,1,0,0:0:0:0:
171,148,110177,1,2,0:0:0:0:
161,132,110246,1,0,0:0:0:0:
171,148,110314,1,2,0:0:0:0:
171,148,110451,1,0,0:0:0:0:
156,134,110520,1,2,0:0:0:0:
161,132,110588,1,0,0:0:0:0:
156,134,110657,1,0,0:0:0:0:
170,147,110725,1,2,0:0:0:0:
170,147,110862,1,0,0:0:0:0:
161,141,110931,1,0,0:0:0:0:
169,146,110999,1,2,0:0:0:0:
161,141,111068,1,0,0:0:0:0:
161,141,111136,1,2,0:0:0:0:
159,144,111205,1,2,0:0:0:0:
161,141,111273,1,0,0:0:0:0:
158,144,111342,1,2,0:0:0:0:
161,141,111410,1,0,0:0:0:0:
64,64,111479,1,0,0:0:0:0:
448,64,111547,1,8,0:0:0:0:
448,64,111593,1,8,0:0:0:0:
448,64,111639,1,8,0:0:0:0:
152,149,111684,1,0,0:0:0:0:
177,114,111821,1,0,0:0:0:0:
170,129,111890,1,2,0:0:0:0:
180,70,111958,1,2,0:0:0:0:
175,117,112027,1,0,0:0:0:0:
177,114,112095,1,2,0:0:0:0:
175,117,112164,1,0,0:0:0:0:
172,119,112232,1,0,0:0:0:0:
174,117,112301,1,2,0:0:0:0:
172,119,112369,1,0,0:0:0:0:
143,52,112438,1,0,0:0:0:0:
140,52,112506,1,2,0:0:0:0:
146,55,112643,1,0,0:0:0:0:
136,52,112712,1,2,0:0:0:0:
182,47,112780,1,2,0:0:0:0:
167,53,112849,1,0,0:0:0:0:
166,15,112917,1,0,0:0:0:0:
180,56,113054,1,2,0:0:0:0:
181,66,113191,1,0,0:0:0:0:
156,61,113328,1,0,0:0:0:0:
155,60,113465,1,2,0:0:0:0:
182,55,113534,1,2,0:0:0:0:
146,59,113602,1,2,0:0:0:0:
165,61,113671,1,2,0:0:0:0:
448,64,113739,1,2,0:0:0:0:
64,64,113876,1,0,0:0:0:0:
212,74,113922,1,2,0:0:0:0:
212,74,113967,1,2,0:0:0:0:
212,74,114013,1,0,0:0:0:0:
204,64,114150,1,2,0:0:0:0:
164,29,114196,1,2,0:0:0:0:
198,64,114241,1,2,0:0:0:0:
184,22,114287,1,0,0:0:0:0:
172,21,114355,1,0,0:0:0:0:
219,28,114424,1,2,0:0:0:0:
209,35,114470,1,2,0:0:0:0:
210,34,114515,1,2,0:0:0:0:
211,34,114561,1,0,0:0:0:0:
172,67,114629,1,0,0:0:0:0:
192,67,114698,1,2,0:0:0:0:
192,67,114766,1,2,0:0:0:0:
189,67,114835,1,0,0:0:0:0:
191,67,114903,1,2,0:0:0:0:
188,66,114972,1,0,0:0:0:0:
174,59,115109,1,2,0:0:0:0:
169,59,115177,1,2,0:0:0:0:
170,56,115246,1,0,0:0:0:0:
174,69,115383,1,2,0:0:0:0:
175,19,115451,1,0,0:0:0:0:
173,72,115520,1,0,0:0:0:0:
173,47,115657,1,2,0:0:0:0:
177,50,115725,1,0,0:0:0:0:
176,50,115794,1,2,0:0:0:0:
189,47,115931,1,0,0:0:0:0:
178,16,115976,1,0,0:0:0:0:
183,49,116022,1,0,0:0:0:0:
188,47,116068,1,6,0:0:0:0:
176,176,116342,1,0,0:0:0:0:
176,176,116479,1,2,0:0:0:0:
167,193,116616,1,2,0:0:0:0:
163,188,116753,1,0,0:0:0:0:
167,193,116890,1,2,0:0:0:0:
161,188,116958,1,0,0:0:0:0:
167,193,117027,1,2,0:0:0:0:
162,188,117095,1,0,0:0:0:0:
167,193,117164,1,2,0:0:0:0:
192,91,117301,1,0,0:0:0:0:
177,98,117369,1,2,0:0:0:0:
192,91,117438,1,2,0:0:0:0:
176,98,117506,1,0,0:0:0:0:
171,98,117575,1,0,0:0:0:0:
172,93,117712,1,2,0:0:0:0:
171,93,117849,1,0,0:0:0:0:
171,93,117986,1,2,0:0:0:0:
183,81,118123,1,0,0:0:0:0:
154,95,118191,1,0,0:0:0:0:
182,81,118260,1,2,0:0:0:0:
260,116,118351,1,2,0:0:0:0:
249,123,118442,1,2,0:0:0:0:
237,133,118534,1,0,0:0:0:0:
188,81,118671,1,2,0:0:0:0:
183,81,118808,1,2,0:0:0:0:
183,81,118945,1,0,0:0:0:0:
197,82,119082,1,2,0:0:0:0:
191,86,119150,1,2,0:0:0:0:
196,82,119218,1,0,0:0:0:0:
191,85,119287,1,2,0:0:0:0:
193,92,119355,1,0,0:0:0:0:
64,64,119424,1,0,0:0:0:0:
64,64,119492,1,0,0:0:0:0:
144,78,119629,1,2,0:0:0:0:
169,92,119766,1,0,0:0:0:0:
155,118,119903,1,0,0:0:0:0:
179,62,119972,1,0,0:0:0:0:
181,64,120040,1,0,0:0:0:0:
155,118,120109,1,2,0:0:0:0:
155,118,120177,1,2,0:0:0:0:
155,118,120246,1,0,0:0:0:0:
156,126,120314,1,2,0:0:0:0:
150,138,120383,1,0,0:0:0:0:
156,124,120451,1,2,0:0:0:0:
151,135,120520,1,2,0:0:0:0:
176,72,120588,1,0,0:0:0:0:
171,79,120657,1,2,0:0:0:0:
170,100,120725,1,0,0:0:0:0:
169,88,120794,1,2,0:0:0:0:
172,103,120862,1,0,0:0:0:0:
172,104,120931,1,2,0:0:0:0:
166,112,120999,1,2,0:0:0:0:
173,105,121068,1,2,0:0:0:0:
167,110,121136,1,0,0:0:0:0:
173,105,121205,1,0,0:0:0:0:
167,110,121273,1,2,0:0:0:0:
172,106,121342,1,2,0:0:0:0:
167,112,121410,1,0,0:0:0:0:
172,105,121479,1,2,0:0:0:0:
165,117,121547,1,0,0:0:0:0:
180,44,121684,1,0,0:0:0:0:
64,64,121753,1,0,0:0:0:0:
167,127,121821,1,2,0:0:0:0:
166,130,121890,1,2,0:0:0:0:
166,127,121958,1,0,0:0:0:0:
166,130,122027,1,2,0:0:0:0:
157,122,122095,1,0,0:0:0:0:
152,125,122164,1,0,0:0:0:0:
165,133,122232,1,2,0:0:0:0:
164,134,122301,1,0,0:0:0:0:
165,137,122369,1,2,0:0:0:0:
176,38,122403,1,2,0:0:0:0:
176,135,122438,1,0,0:0:0:0:
178,135,122575,1,2,0:0:0:0:
162,117,122643,1,0,0:0:0:0:
178,136,122712,1,0,0:0:0:0:
178,138,122780,1,2,0:0:0:0:
176,137,122917,1,2,0:0:0:0:
181,136,122986,1,2,0:0:0:0:
178,136,123054,1,0,0:0:0:0:
181,143,123191,1,2,0:0:0:0:
177,139,123260,1,0,0:0:0:0:
180,142,123328,1,2,0:0:0:0:
177,138,123465,1,0,0:0:0:0:
179,143,123534,1,2,0:0:0:0:
178,135,123602,1,2,0:0:0:0:
179,143,123671,1,0,0:0:0:0:
178,136,123739,1,2,0:0:0:0:
181,149,123876,1,0,0:0:0:0:
291,105,123922,1,0,0:0:0:0:
281,111,123967,1,0,0:0:0:0:
181,149,124013,1,2,0:0:0:0:
206,107,124150,1,0,0:0:0:0:
154,154,124287,1,0,0:0:0:0:
154,154,124378,1,2,0:0:0:0:
157,154,124470,1,0,0:0:0:0:
154,154,124561,1,2,0:0:0:0:
265,95,124607,1,2,0:0:0:0:
265,95,124652,1,0,0:0:0:0:
184,87,124744,1,2,0:0:0:0:
199,102,124835,1,4,0:0:0:0:
64,64,124972,1,0,0:0:0:0:
448,64,125109,1,8,0:0:0:0:
448,64,125246,1,8,0:0:0:0:
64,64,125314,1,0,0:0:0:0:
64,64,125383,1,0,0:0:0:0:
448,64,125451,1,8,0:0:0:0:
64,64,125520,1,0,0:0:0:0:
64,64,125657,1,0,0:0:0:0:
448,64,125794,1,8,0:0:0:0:
448,64,125931,1,8,0:0:0:0:
448,64,126068,1,8,0:0:0:0:
64,64,126136,1,0,0:0:0:0:
64,64,126205,1,0,0:0:0:0:
448,64,126273,1,8,0:0:0:0:
64,64,126342,1,0,0:0:0:0:
448,64,126479,1,8,0:0:0:0:
64,64,126547,1,0,0:0:0:0:
448,64,126616,1,8,0:0:0:0:
448,64,126753,1,8,0:0:0:0:
448,64,126958,1,8,0:0:0:0:
64,64,127027,1,0,0:0:0:0:
448,64,127095,1,8,0:0:0:0:
64,64,127164,1,0,0:0:0:0:
64,64,127232,1,0,0:0:0:0:
448,64,127301,1,8,0:0:0:0:
64,64,127438,1,0,0:0:0:0:
448,64,127506,1,8,0:0:0:0:
64,64,127575,1,0,0:0:0:0:
448,64,127643,1,8,0:0:0:0:
64,64,127712,1,0,0:0:0:0:
64,64,127849,1,0,0:0:0:0:
64,64,127986,1,8,0:0:0:0:
64,64,128031,1,0,0:0:0:0:
448,64,128077,1,0,0:0:0:0:
448,64,128123,1,8,0:0:0:0:
448,64,128191,1,8,0:0:0:0:
64,64,128260,1,0,0:0:0:0:
64,64,128397,1,8,0:0:0:0:
64,64,128534,1,0,0:0:0:0:
448,64,128671,1,8,0:0:0:0:
448,64,128739,1,8,0:0:0:0:
448,64,128808,1,8,0:0:0:0:
64,64,128876,1,0,0:0:0:0:
448,64,128945,1,8,0:0:0:0:
448,64,129013,1,8,0:0:0:0:
64,64,129082,1,0,0:0:0:0:
448,64,129150,1,8,0:0:0:0:
164,84,129218,1,0,0:0:0:0:
185,112,129355,1,0,0:0:0:0:
181,119,129492,1,2,0:0:0:0:
160,96,129629,1,2,0:0:0:0:
169,99,129698,1,2,0:0:0:0:
162,100,129766,1,0,0:0:0:0:
197,59,129835,1,2,0:0:0:0:
160,97,129903,1,0,0:0:0:0:
191,112,130040,1,0,0:0:0:0:
189,113,130177,1,2,0:0:0:0:
185,112,130314,1,2,0:0:0:0:
174,107,130451,1,2,0:0:0:0:
166,114,130520,1,2,0:0:0:0:
171,108,130588,1,0,0:0:0:0:
165,113,130657,1,2,0:0:0:0:
170,108,130725,1,0,0:0:0:0:
143,129,130862,1,2,0:0:0:0:
143,129,130999,1,0,0:0:0:0:
207,62,131136,1,0,0:0:0:0:
139,131,131273,1,2,0:0:0:0:
136,133,131342,1,0,0:0:0:0:
137,131,131410,1,0,0:0:0:0:
141,147,131547,1,2,0:0:0:0:
226,120,131593,1,0,0:0:0:0:
236,122,131639,1,0,0:0:0:0:
139,143,131684,1,2,0:0:0:0:
158,93,131821,1,2,0:0:0:0:
235,48,131890,1,0,0:0:0:0:
158,93,131958,1,2,0:0:0:0:
174,84,132095,1,0,0:0:0:0:
174,84,132141,1,2,0:0:0:0:
146,120,132187,1,2,0:0:0:0:
147,112,132232,1,0,0:0:0:0:
164,117,132369,1,0,0:0:0:0:
166,127,132506,1,2,0:0:0:0:
174,90,132575,1,0,0:0:0:0:
175,92,132643,1,2,0:0:0:0:
171,90,132712,1,2,0:0:0:0:
171,90,132780,1,2,0:0:0:0:
161,51,132849,1,0,0:0:0:0:
161,57,132917,1,0,0:0:0:0:
161,51,132986,1,2,0:0:0:0:
159,58,133054,1,0,0:0:0:0:
193,55,133100,1,0,0:0:0:0:
254,63,133145,1,0,0:0:0:0:
166,25,133191,1,2,0:0:0:0:
193,55,133260,1,0,0:0:0:0:
199,92,133328,1,2,0:0:0:0:
170,65,133397,1,0,0:0:0:0:
186,47,133465,1,2,0:0:0:0:
166,67,133534,1,2,0:0:0:0:
179,50,133603,1,4,0:0:0:0:
231,220,134013,1,2,0:0:0:0:
231,220,134424,1,2,0:0:0:0:
196,152,134835,1,2,0:0:0:0:
195,160,135246,1,0,0:0:0:0:
221,190,137987,1,2,0:0:0:0:
221,190,138397,1,0,0:0:0:0:
221,190,138808,1,2,0:0:0:0:
256,192,139218,12,0,141821,0:0:0:0:
64,320,142369,5,4,0:0:0:0:
194,94,142670,1,2,0:0:0:0:
194,94,142821,1,0,0:0:0:0:
184,75,142896,1,0,0:0:0:0:
194,94,142972,1,2,0:0:0:0:
184,75,143047,1,0,0:0:0:0:
194,94,143122,1,0,0:0:0:0:
194,94,143273,1,0,0:0:0:0:
194,72,143424,1,2,0:0:0:0:
196,52,143575,1,0,0:0:0:0:
196,193,143725,1,2,0:0:0:0:
174,91,144027,1,0,0:0:0:0:
176,88,144102,1,0,0:0:0:0:
174,91,144178,1,0,0:0:0:0:
176,85,144253,1,0,0:0:0:0:
174,91,144328,1,2,0:0:0:0:
185,112,144479,1,0,0:0:0:0:
187,75,144630,1,2,0:0:0:0:
187,77,144781,1,2,0:0:0:0:
217,140,144856,1,0,0:0:0:0:
187,77,144931,1,2,0:0:0:0:
178,72,145082,1,0,0:0:0:0:
201,64,145233,1,2,0:0:0:0:
169,82,145384,1,2,0:0:0:0:
169,82,145534,1,0,0:0:0:0:
163,62,145836,1,2,0:0:0:0:
163,70,145987,1,0,0:0:0:0:
176,67,146062,1,2,0:0:0:0:
163,70,146137,1,0,0:0:0:0:
163,70,146213,1,0,0:0:0:0:
163,70,146288,1,2,0:0:0:0:
154,31,146363,1,0,0:0:0:0:
154,59,146439,1,2,0:0:0:0:
158,57,146514,1,0,0:0:0:0:
154,59,146590,1,2,0:0:0:0:
196,34,146665,1,2,0:0:0:0:
154,59,146740,1,0,0:0:0:0:
178,192,146891,1,2,0:0:0:0:
226,137,147042,1,2,0:0:0:0:
226,137,147193,1,0,0:0:0:0:
191,145,147494,1,2,0:0:0:0:
201,61,147645,1,0,0:0:0:0:
200,20,147720,1,2,0:0:0:0:
201,61,147796,1,2,0:0:0:0:
201,61,147871,1,0,0:0:0:0:
201,61,147946,1,0,0:0:0:0:
176,88,148097,1,0,0:0:0:0:
176,88,148248,1,2,0:0:0:0:
156,106,148399,1,0,0:0:0:0:
202,71,148549,1,2,0:0:0:0:
166,81,148851,1,0,0:0:0:0:
164,98,148926,1,2,0:0:0:0:
160,98,149002,1,0,0:0:0:0:
162,98,149077,1,0,0:0:0:0:
159,100,149152,1,2,0:0:0:0:
190,17,149228,1,2,0:0:0:0:
184,81,149303,1,0,0:0:0:0:
136,30,149379,1,2,0:0:0:0:
184,81,149454,1,0,0:0:0:0:
184,81,149605,1,2,0:0:0:0:
178,166,149680,1,0,0:0:0:0:
164,61,149755,1,2,0:0:0:0:
164,61,149906,1,0,0:0:0:0:
186,68,150057,1,2,0:0:0:0:
186,68,150208,1,2,0:0:0:0:
184,68,150358,1,0,0:0:0:0:
183,71,150660,1,2,0:0:0:0:
184,71,150811,1,0,0:0:0:0:
180,75,150886,1,2,0:0:0:0:
184,71,150961,1,0,0:0:0:0:
180,74,151037,1,2,0:0:0:0:
179,71,151112,1,2,0:0:0:0:
182,46,151188,1,0,0:0:0:0:
191,81,151338,1,0,0:0:0:0:
182,46,151414,1,2,0:0:0:0:
182,46,151564,1,2,0:0:0:0:
151,51,151715,1,0,0:0:0:0:
136,38,151866,1,2,0:0:0:0:
226,224,152017,1,0,0:0:0:0:
226,224,152318,1,2,0:0:0:0:
226,224,152469,1,0,0:0:0:0:
210,28,152544,1,2,0:0:0:0:
208,32,152620,1,2,0:0:0:0:
210,28,152695,1,0,0:0:0:0:
196,72,152771,1,0,0:0:0:0:
196,72,152921,1,0,0:0:0:0:
191,76,153072,1,2,0:0:0:0:
199,110,153223,1,0,0:0:0:0:
176,80,153374,1,2,0:0:0:0:
64,64,153524,1,0,0:0:0:0:
448,64,153600,1,8,0:0:0:0:
180,101,153675,1,0,0:0:0:0:
180,101,153750,1,2,0:0:0:0:
180,101,153826,1,0,0:0:0:0:
180,101,153901,1,0,0:0:0:0:
180,101,153977,1,2,0:0:0:0:
192,63,154052,1,0,0:0:0:0:
180,101,154127,1,2,0:0:0:0:
180,101,154203,1,2,0:0:0:0:
174,17,154353,1,2,0:0:0:0:
184,101,154429,1,2,0:0:0:0:
180,101,154504,1,0,0:0:0:0:
185,101,154580,1,2,0:0:0:0:
185,101,154730,1,0,0:0:0:0:
171,107,154881,1,2,0:0:0:0:
172,109,155032,1,2,0:0:0:0:
172,109,155183,1,0,0:0:0:0:
185,143,155333,1,2,0:0:0:0:
196,95,155409,1,0,0:0:0:0:
184,148,155484,1,2,0:0:0:0:
187,153,155635,1,2,0:0:0:0:
187,153,155710,1,0,0:0:0:0:
187,153,155786,1,0,0:0:0:0:
187,153,155861,1,2,0:0:0:0:
187,153,155936,1,0,0:0:0:0:
220,26,156012,1,2,0:0:0:0:
175,88,156087,1,0,0:0:0:0:
181,23,156162,1,0,0:0:0:0:
201,31,156238,1,2,0:0:0:0:
178,52,156313,1,0,0:0:0:0:
197,62,156389,1,2,0:0:0:0:
197,62,156464,1,2,0:0:0:0:
197,62,156539,1,0,0:0:0:0:
264,63,156690,1,2,0:0:0:0:
169,66,156841,1,0,0:0:0:0:
204,160,157142,1,2,0:0:0:0:
167,138,157293,1,0,0:0:0:0:
166,149,157369,1,0,0:0:0:0:
167,138,157444,1,2,0:0:0:0:
166,149,157519,1,2,0:0:0:0:
167,138,157595,1,0,0:0:0:0:
167,138,157745,1,0,0:0:0:0:
167,138,157896,1,2,0:0:0:0:
166,133,158047,1,0,0:0:0:0:
168,148,158198,1,2,0:0:0:0:
166,149,158499,1,0,0:0:0:0:
166,149,158575,1,2,0:0:0:0:
167,150,158650,1,0,0:0:0:0:
161,150,158725,1,0,0:0:0:0:
166,148,158801,1,2,0:0:0:0:
156,49,158876,1,0,0:0:0:0:
167,150,158951,1,2,0:0:0:0:
174,136,159027,1,2,0:0:0:0:
168,148,159102,1,0,0:0:0:0:
168,137,159178,1,2,0:0:0:0:
168,138,159253,1,2,0:0:0:0:
182,29,159328,1,2,0:0:0:0:
172,137,159404,1,0,0:0:0:0:
172,137,159554,1,2,0:0:0:0:
247,99,159655,1,0,0:0:0:0:
247,99,159755,1,0,0:0:0:0:
247,99,159856,1,2,0:0:0:0:
207,57,160007,1,0,0:0:0:0:
207,57,160308,1,2,0:0:0:0:
207,57,160459,1,0,0:0:0:0:
191,72,160534,1,2,0:0:0:0:
187,70,160610,1,2,0:0:0:0:
197,52,160760,1,2,0:0:0:0:
197,54,160911,1,0,0:0:0:0:
197,54,161062,1,2,0:0:0:0:
192,75,161137,1,0,0:0:0:0:
185,67,161213,1,2,0:0:0:0:
181,72,161363,1,0,0:0:0:0:
181,72,161514,1,6,0:0:0:0:
180,72,161666,1,4,0:0:0:0:
211,216,161966,1,2,0:0:0:0:
218,192,162117,1,2,0:0:0:0:
218,192,162193,1,0,0:0:0:0:
220,195,162268,1,2,0:0:0:0:
218,192,162343,1,2,0:0:0:0:
220,198,162419,1,0,0:0:0:0:
177,173,162570,1,0,0:0:0:0:
177,173,162720,1,2,0:0:0:0:
157,130,162871,1,0,0:0:0:0:
195,95,163022,1,2,0:0:0:0:
157,130,163173,1,2,0:0:0:0:
227,111,163323,1,0,0:0:0:0:
227,111,163399,1,2,0:0:0:0:
215,116,163474,1,0,0:0:0:0:
227,111,163549,1,0,0:0:0:0:
215,116,163625,1,2,0:0:0:0:
448,64,163776,1,8,0:0:0:0:
448,64,163926,1,8,0:0:0:0:
157,130,164077,1,2,0:0:0:0:
172,106,164152,1,0,0:0:0:0:
172,106,164228,1,0,0:0:0:0:
172,106,164303,1,2,0:0:0:0:
172,106,164379,1,0,0:0:0:0:
165,54,164529,1,2,0:0:0:0:
167,61,164680,1,2,0:0:0:0:
168,63,164831,1,0,0:0:0:0:
163,71,165132,1,2,0:0:0:0:
162,72,165283,1,0,0:0:0:0:
192,83,165358,1,2,0:0:0:0:
192,83,165434,1,2,0:0:0:0:
192,83,165509,1,0,0:0:0:0:
192,83,165585,1,2,0:0:0:0:
189,101,165735,1,0,0:0:0:0:
190,99,165811,1,2,0:0:0:0:
188,101,165886,1,0,0:0:0:0:
190,99,165961,1,0,0:0:0:0:
188,101,166037,1,2,0:0:0:0:
187,100,166188,1,0,0:0:0:0:
166,37,166338,1,2,0:0:0:0:
64,64,166489,1,0,0:0:0:0:
187,136,166791,1,2,0:0:0:0:
64,64,166941,1,0,0:0:0:0:
187,140,167017,1,0,0:0:0:0:
186,141,167092,1,0,0:0:0:0:
187,136,167167,1,2,0:0:0:0:
186,141,167243,1,0,0:0:0:0:
183,147,167394,1,0,0:0:0:0:
184,147,167544,1,2,0:0:0:0:
184,147,167695,1,0,0:0:0:0:
176,141,167846,1,2,0:0:0:0:
181,138,167997,1,2,0:0:0:0:
270,74,168147,1,0,0:0:0:0:
191,100,168223,1,2,0:0:0:0:
255,78,168298,1,0,0:0:0:0:
233,86,168374,1,0,0:0:0:0:
191,100,168449,1,2,0:0:0:0:
150,28,168524,1,0,0:0:0:0:
177,55,168600,1,0,0:0:0:0:
151,37,168675,1,2,0:0:0:0:
152,39,168750,1,2,0:0:0:0:
181,56,168901,1,0,0:0:0:0:
169,37,168977,1,2,0:0:0:0:
183,57,169052,1,0,0:0:0:0:
189,31,169203,1,2,0:0:0:0:
194,111,169353,1,0,0:0:0:0:
190,112,169504,1,0,0:0:0:0:
188,112,169655,1,2,0:0:0:0:
177,123,169956,1,2,0:0:0:0:
178,122,170107,1,0,0:0:0:0:
157,108,170183,1,2,0:0:0:0:
157,108,170258,1,0,0:0:0:0:
157,108,170333,1,0,0:0:0:0:
156,114,170409,1,2,0:0:0:0:
157,74,170484,1,0,0:0:0:0:
179,63,170635,1,0,0:0:0:0:
157,74,170710,1,2,0:0:0:0:
157,74,170861,1,2,0:0:0:0:
152,97,171012,1,0,0:0:0:0:
191,72,171162,1,2,0:0:0:0:
153,111,171313,1,0,0:0:0:0:
192,105,171615,1,2,0:0:0:0:
192,105,171765,1,2,0:0:0:0:
448,64,171841,1,2,0:0:0:0:
64,64,171916,1,0,0:0:0:0:
185,112,171992,1,2,0:0:0:0:
188,102,172067,1,0,0:0:0:0:
187,102,172218,1,0,0:0:0:0:
183,112,172368,1,2,0:0:0:0:
183,112,172519,1,0,0:0:0:0:
182,112,172670,1,2,0:0:0:0:
181,111,172821,1,2,0:0:0:0:
175,71,172972,1,0,0:0:0:0:
175,71,173047,1,2,0:0:0:0:
176,64,173122,1,2,0:0:0:0:
175,71,173198,1,0,0:0:0:0:
176,64,173273,1,2,0:0:0:0:
448,64,173424,1,8,0:0:0:0:
176,68,173575,1,2,0:0:0:0:
175,71,173650,1,0,0:0:0:0:
176,68,173725,1,2,0:0:0:0:
175,71,173801,1,2,0:0:0:0:
175,71,173876,1,0,0:0:0:0:
175,71,174027,1,2,0:0:0:0:
172,121,174178,1,0,0:0:0:0:
172,121,174328,1,0,0:0:0:0:
172,121,174479,1,2,0:0:0:0:
172,121,174630,1,0,0:0:0:0:
167,119,174705,1,0,0:0:0:0:
172,121,174781,1,2,0:0:0:0:
172,121,174931,1,0,0:0:0:0:
172,121,175007,1,2,0:0:0:0:
172,121,175082,1,0,0:0:0:0:
172,121,175157,1,2,0:0:0:0:
172,121,175233,1,2,0:0:0:0:
167,123,175308,1,0,0:0:0:0:
166,120,175384,1,2,0:0:0:0:
166,120,175459,1,0,0:0:0:0:
165,120,175534,1,2,0:0:0:0:
163,126,175685,1,2,0:0:0:0:
164,122,175760,1,0,0:0:0:0:
162,122,175836,1,0,0:0:0:0:
162,121,175987,1,2,0:0:0:0:
162,129,176137,1,0,0:0:0:0:
173,131,176439,1,2,0:0:0:0:
172,132,176590,1,2,0:0:0:0:
174,138,176665,1,0,0:0:0:0:
172,132,176740,1,0,0:0:0:0:
174,138,176816,1,2,0:0:0:0:
172,132,176891,1,0,0:0:0:0:
172,132,177042,1,0,0:0:0:0:
174,138,177193,1,2,0:0:0:0:
174,138,177343,1,0,0:0:0:0:
175,146,177494,1,2,0:0:0:0:
174,146,177645,1,2,0:0:0:0:
131,143,177796,1,0,0:0:0:0:
192,104,177871,1,2,0:0:0:0:
131,143,177946,1,2,0:0:0:0:
186,81,178022,1,0,0:0:0:0:
131,143,178097,1,2,0:0:0:0:
192,104,178173,1,0,0:0:0:0:
173,86,178248,1,2,0:0:0:0:
171,33,178323,1,0,0:0:0:0:
186,106,178399,1,2,0:0:0:0:
188,37,178474,1,2,0:0:0:0:
185,106,178549,1,0,0:0:0:0:
181,61,178625,1,2,0:0:0:0:
201,81,178700,1,0,0:0:0:0:
186,102,178851,1,2,0:0:0:0:
185,103,179002,1,0,0:0:0:0:
185,103,179077,1,2,0:0:0:0:
184,103,179152,1,2,0:0:0:0:
147,76,179303,1,0,0:0:0:0:
151,91,179605,1,2,0:0:0:0:
151,91,179755,1,0,0:0:0:0:
156,71,179831,1,2,0:0:0:0:
150,91,179906,1,0,0:0:0:0:
156,73,179982,1,0,0:0:0:0:
152,67,180057,1,2,0:0:0:0:
171,119,180208,1,0,0:0:0:0:
169,111,180283,1,2,0:0:0:0:
171,119,180358,1,2,0:0:0:0:
155,88,180434,1,0,0:0:0:0:
155,92,180509,1,2,0:0:0:0:
192,46,180660,1,0,0:0:0:0:
160,71,180735,1,2,0:0:0:0:
160,66,180811,1,2,0:0:0:0:
256,192,181564,12,0,188198,0:0:0:0:
