osu file format v14

[General]
AudioFilename: audio.mp3
AudioLeadIn: 0
PreviewTime: 107270
Countdown: 0
SampleSet: Soft
StackLeniency: 0.6
Mode: 0
LetterboxInBreaks: 0
WidescreenStoryboard: 1

[Editor]
Bookmarks: 34520
DistanceSpacing: 1.2
BeatDivisor: 4
GridSize: 32
TimelineZoom: 2.4

[Metadata]
Title:Enkindle feat. vally.exe
TitleUnicode:Enkindle feat. vally.exe
Artist:Zenpaku
ArtistUnicode:Zenpaku
Creator:Kujinn
Version:Yumerios' Extra
Source:
Tags:Reform Ermi Modding Queue Yumerios Pepekcz Kirishima- dj-jo dj jo japanese instrumental electronic artcore
BeatmapID:3612539
BeatmapSetID:1762718

[Difficulty]
HPDrainRate:5
CircleSize:4.4
OverallDifficulty:9
ApproachRate:9.5
SliderMultiplier:1.7
SliderTickRate:1

[Events]
//Background and Video events
0,0,"220216_enkindle_album_cover_OSU_Version_Smaller.jpg",0,0
//Break Periods
2,68220,74995
2,107220,110870
//Storyboard Layer 0 (Background)
//Storyboard Layer 1 (Fail)
//Storyboard Layer 2 (Pass)
//Storyboard Layer 3 (Foreground)
//Storyboard Layer 4 (Overlay)
//Storyboard Sound Samples

[TimingPoints]
520,250,4,2,1,60,1,0
520,-200,4,2,1,60,0,0
2020,-333.333333333333,4,2,1,60,0,0
2520,-200,4,2,1,60,0,0
6020,-333.333333333333,4,2,1,60,0,0
6520,-200,4,2,1,60,0,0
8520,-100,4,2,1,70,0,0
14520,-100,4,2,2,80,0,0
16020,-100,4,2,2,60,0,0
16520,-100,4,2,2,80,0,0
17520,-83.3333333333333,4,2,1,80,0,0
19020,250,4,2,3,60,1,0
19020,-125,4,2,3,60,0,0
25020,-125,4,2,2,80,0,0
26270,-200,4,2,3,70,0,0
27020,-100,4,2,3,70,0,0
28520,-100,4,2,2,70,0,0
29020,-125,4,2,3,70,0,0
30520,-125,4,2,2,70,0,0
31020,-100,4,2,3,70,0,0
33020,-100,4,2,2,80,0,0
34520,-95.2380952380952,4,2,3,80,0,0
35020,-90.9090909090909,4,2,4,70,0,0
42520,-200,4,2,3,60,0,0
43145,-125,4,2,5,70,0,0
49020,-125,4,2,2,80,0,0
50520,-200,4,2,3,70,0,0
51020,-200,4,2,1,60,0,0
52020,-83.3333333333333,4,2,6,90,0,1
55520,-125,4,2,6,90,0,1
56020,-83.3333333333333,4,2,6,90,0,1
58270,-83.3333333333333,4,2,6,90,0,0
58520,-83.3333333333333,4,2,6,90,0,1
58770,-83.3333333333333,4,2,6,90,0,0
59020,-83.3333333333333,4,2,6,90,0,1
59895,-83.3333333333333,4,2,6,90,0,0
60270,-83.3333333333333,4,2,6,90,0,1
63520,-125,4,2,6,90,0,1
64020,-83.3333333333333,4,2,6,90,0,1
66020,-111.111111111111,4,2,2,50,0,0
68020,-100,4,2,1,60,0,0
75520,-125,4,2,1,70,0,0
76020,-100,4,2,1,70,0,0
84020,-125,4,2,1,60,0,0
85020,-250,4,2,1,60,0,0
86020,-100,4,2,7,80,0,0
89020,-100,4,2,7,70,0,0
90020,-100,4,2,7,80,0,0
93020,-100,4,2,7,70,0,0
94020,-100,4,2,7,80,0,0
97020,-100,4,2,8,70,0,0
101020,-100,4,2,8,80,0,0
103020,-100,4,2,6,80,0,0
105020,-100,4,2,1,80,0,0
112020,-83.3333333333333,4,2,9,90,0,1
128020,-83.3333333333333,4,2,9,100,0,1
136020,-142.857142857143,4,2,9,70,0,0
138020,-83.3333333333334,4,2,2,100,0,1
140020,-200,4,2,1,70,0,0
141520,-333.333333333333,4,2,1,70,0,0
142020,-200,4,2,1,70,0,0
145520,-333.333333333333,4,2,1,70,0,0
146020,-200,4,2,1,70,0,0
148020,-100,4,2,1,80,0,0
154020,-100,4,2,2,80,0,0
157020,-100,4,2,1,90,0,0
157520,-90.9090909090909,4,2,1,90,0,0
158020,-83.3333333333333,4,2,1,90,0,0
158520,-76.9230769230769,4,2,1,90,0,0
160020,-83.3333333333333,4,2,2,100,0,1
162770,-250,4,2,2,80,0,0
163020,-83.3333333333333,4,2,2,100,0,1
164020,-83.3333333333333,4,2,1,100,0,0
164082,-83.3333333333333,4,2,1,5,0,0

[Colours]
Combo1 : 222,73,118
Combo2 : 112,77,215
Combo3 : 192,95,28
Combo4 : 255,189,156

[HitObjects]
33,101,520,6,0,L|19:56,1,42.5,6|2,3:2|0:2,0:2:0:0:
44,99,895,2,0,L|30:54,1,42.5,2|2,0:2|0:2,0:2:0:0:
119,132,1270,2,0,L|105:177,1,42.5,2|2,0:2|0:2,0:2:0:0:
130,134,1645,2,0,L|116:179,1,42.5,2|2,0:2|0:2,0:2:0:0:
204,101,2020,5,2,0:2:0:0:
231,98,2270,1,2,0:2:0:0:
112,297,2520,6,0,L|98:342,1,42.5,2|2,0:2|0:2,0:2:0:0:
123,299,2895,2,0,L|109:344,1,42.5,2|2,0:2|0:2,0:2:0:0:
198,266,3270,2,0,L|184:221,1,42.5,2|2,0:2|0:2,0:2:0:0:
209,264,3645,2,0,L|195:219,1,42.5,2|2,0:2|0:2,0:2:0:0:
283,297,4020,6,0,L|336:307,3,42.5,2|2|2|2,0:2|0:2|0:2|0:2,0:2:0:0:
406,213,4520,6,0,L|416:262,1,42.5,2|2,0:2|0:2,0:2:0:0:
391,217,4895,2,0,L|401:266,1,42.5,2|2,0:2|0:2,0:2:0:0:
301,171,5270,6,0,L|291:220,1,42.5,2|2,0:2|0:2,0:2:0:0:
316,175,5645,2,0,L|306:224,1,42.5,2|2,0:2|0:2,0:2:0:0:
380,122,6020,5,2,0:2:0:0:
375,99,6270,1,2,0:2:0:0:
190,45,6520,6,0,L|180:-4,1,42.5,2|2,0:2|0:2,0:2:0:0:
205,41,6895,2,0,L|195:-8,1,42.5,2|2,0:2|0:2,0:2:0:0:
295,87,7270,6,0,L|305:38,1,42.5,2|2,0:2|0:2,0:2:0:0:
280,83,7645,2,0,L|290:34,1,42.5,2|2,0:2|0:2,0:2:0:0:
216,136,8020,6,0,L|223:180,3,42.5,2|2|2|2,0:2|0:2|0:2|0:2,0:2:0:0:
276,216,8520,6,0,B|247:202|210:207|190:234|196:237|199:241|180:283|136:284|107:254,1,170,6|8,3:2|0:2,0:2:0:0:
229,354,8895,2,0,B|258:368|295:363|315:336|309:333|306:329|325:287|369:286|398:316,1,170,2|0,3:2|3:2,0:2:0:0:
464,189,9270,1,10,0:2:0:0:
464,189,9395,2,0,P|421:189|397:236,1,85,2|0,0:2|0:2,0:2:0:0:
421,370,9645,1,2,3:2:0:0:
455,283,9770,2,0,P|442:323|433:365,1,85,10|0,0:2|0:2,0:2:0:0:
252,289,10020,6,0,L|228:183,1,85,2|0,3:2|3:2,0:2:0:0:
191,338,10270,2,0,L|167:232,1,85,10|0,0:2|0:2,0:2:0:0:
67,81,10520,6,0,P|133:90|158:179,1,170,2|8,3:2|0:2,0:2:0:0:
9,332,10895,6,0,P|21:252|99:233,1,170,2|0,3:2|3:2,0:2:0:0:
157,324,11270,1,10,0:2:0:0:
157,324,11395,2,0,P|102:328|73:293,1,85,2|0,0:2|0:2,0:2:0:0:
157,179,11645,1,2,3:2:0:0:
259,241,11770,2,0,P|201:221|154:206,1,85,10|0,0:2|0:2,0:2:0:0:
11,154,12020,5,2,3:2:0:0:
87,153,12145,1,2,3:2:0:0:
0,161,12270,1,10,0:2:0:0:
76,160,12395,1,2,3:2:0:0:
168,19,12520,6,0,L|144:116,2,85,2|2|8,3:2|3:2|0:2,0:2:0:0:
230,154,12895,2,0,L|254:57,2,85,2|2|0,3:2|3:2|3:2,0:2:0:0:
415,182,13270,5,10,0:2:0:0:
390,113,13395,1,2,3:2:0:0:
257,238,13520,5,8,0:2:0:0:
234,310,13645,1,2,3:2:0:0:
234,310,13707,1,0,3:2:0:0:
234,310,13770,6,0,L|328:332,1,85,10|0,0:2|3:2,0:2:0:0:
512,222,14020,5,10,0:2:0:0:
405,316,14145,1,0,3:2:0:0:
405,316,14207,1,0,3:2:0:0:
405,316,14270,1,10,0:2:0:0:
329,248,14395,1,0,3:2:0:0:
104,346,14520,5,4,3:2:0:0:
76,297,14603,1,0,3:2:0:0:
84,242,14686,1,0,3:2:0:0:
125,204,14770,1,0,3:2:0:0:
165,166,14853,1,0,3:2:0:0:
174,111,14936,1,0,3:2:0:0:
146,62,15019,1,0,3:2:0:0:
125,61,15270,5,4,3:2:0:0:
90,105,15353,1,0,3:2:0:0:
86,160,15436,1,0,3:2:0:0:
112,209,15520,1,0,3:2:0:0:
161,236,15603,1,0,3:2:0:0:
217,231,15686,1,0,3:2:0:0:
261,197,15770,1,0,3:2:0:0:
487,43,16020,6,0,L|481:98,1,42.5,8|0,0:2|0:2,0:2:0:0:
424,136,16145,1,0,1:2:0:0:
413,128,16207,1,0,1:2:0:0:
402,119,16270,2,0,L|408:64,1,42.5,0|0,1:2|1:2,0:2:0:0:
347,25,16395,1,8,0:2:0:0:
472,204,16520,5,4,3:2:0:0:
420,225,16603,1,0,3:2:0:0:
366,209,16686,1,0,3:2:0:0:
335,163,16769,1,0,3:2:0:0:
301,118,16853,1,0,3:2:0:0:
248,102,16936,1,0,3:2:0:0:
196,122,17019,1,0,3:2:0:0:
163,140,17270,5,4,3:2:0:0:
170,196,17353,1,0,3:2:0:0:
177,252,17436,1,0,3:2:0:0:
184,308,17520,6,0,L|194:393,1,67.9999979248048,8|0,0:2|0:2,0:2:0:0:
72,237,17686,6,0,L|64:320,1,67.9999979248048,8|0,0:2|0:2,0:2:0:0:
274,189,17853,6,0,L|282:257,1,67.9999979248048,8|0,0:2|0:2,0:2:0:0:
244,255,19020,6,0,L|327:241,1,68,6|0,3:2|0:2,0:2:0:0:
410,323,19270,2,0,L|342:311,1,68,2|0,3:2|0:2,0:2:0:0:
159,228,19520,2,0,P|176:277|194:346,1,102,2|0,3:2|0:2,0:2:0:0:
168,355,19770,6,0,P|124:339|82:332,1,68,2|2,3:2|0:2,0:2:0:0:
19,277,20020,2,0,P|63:261|105:254,1,68,2|2,3:2|0:2,0:2:0:0:
213,170,20270,2,0,P|169:154|127:147,1,68,2|2,3:2|0:2,0:2:0:0:
27,180,20520,5,2,3:2:0:0:
77,126,20645,1,2,0:2:0:0:
226,24,20895,5,2,0:2:0:0:
141,2,21020,6,0,P|153:55|161:92,1,68,2|0,3:2|0:2,0:2:0:0:
213,170,21270,2,0,P|220:136|227:103,1,68,2|0,3:2|0:2,0:2:0:0:
374,7,21520,2,0,P|320:28|311:78,1,102,2|0,3:2|0:2,0:2:0:0:
326,101,21770,1,2,3:2:0:0:
400,84,21895,1,2,0:2:0:0:
286,196,22020,6,0,B|329:182|329:182|332:173|332:173|406:149,1,102,10|0,3:2|0:2,0:2:0:0:
415,162,22270,1,10,0:2:0:0:
315,290,22395,2,0,B|271:276|271:276|268:267|268:267|194:243,1,102,10|0,0:2|0:2,0:2:0:0:
186,256,22645,1,10,0:2:0:0:
390,244,22770,1,10,0:2:0:0:
120,304,23020,6,0,L|103:222,1,68,6|0,3:2|0:2,0:2:0:0:
199,149,23270,2,0,L|216:67,1,68,2|0,3:2|0:2,0:2:0:0:
64,5,23520,2,0,P|30:24|33:101,1,102,2|0,3:2|0:2,0:2:0:0:
52,110,23770,2,0,L|137:85,1,68,2|2,3:2|0:2,0:2:0:0:
199,149,24020,1,2,3:2:0:0:
191,180,24145,1,2,0:2:0:0:
303,103,24270,1,2,3:2:0:0:
311,134,24395,1,2,0:2:0:0:
450,186,24520,6,0,L|469:102,1,68,10|0,3:2|0:2,0:2:0:0:
372,1,24770,2,0,L|391:85,1,68,10|0,3:2|0:2,0:2:0:0:
502,250,25020,5,0,3:2:0:0:
461,268,25103,1,0,3:2:0:0:
416,261,25186,1,0,3:2:0:0:
383,231,25269,1,0,3:2:0:0:
349,201,25353,1,0,3:2:0:0:
305,194,25436,1,0,3:2:0:0:
264,212,25519,1,4,3:2:0:0:
264,229,25770,5,0,3:2:0:0:
305,247,25853,1,0,3:2:0:0:
350,240,25936,1,0,3:2:0:0:
383,210,26019,1,0,3:2:0:0:
417,180,26103,1,0,3:2:0:0:
461,173,26186,1,0,3:2:0:0:
502,191,26270,6,0,L|495:241,1,42.5,6|0,3:2|0:2,0:2:0:0:
434,139,26520,2,0,L|391:165,1,42.5,2|0,0:2|0:2,0:2:0:0:
430,53,26770,2,0,L|381:37,1,42.5,2|0,0:2|0:2,0:2:0:0:
243,124,27020,6,0,L|342:100,2,85,6|2|2,3:2|0:2|3:2,0:2:0:0:
117,20,27395,2,0,P|141:84|171:192,1,170,2|0,0:2|0:2,0:2:0:0:
330,268,27770,6,0,L|429:292,2,85,2|2|2,3:2|0:2|3:2,0:2:0:0:
204,372,28145,2,0,P|228:308|258:200,1,170,2|0,0:2|0:2,0:2:0:0:
211,56,28520,5,0,3:2:0:0:
335,189,28707,1,0,3:2:0:0:
338,176,28770,1,0,3:2:0:0:
406,124,28895,1,0,3:2:0:0:
227,181,29020,6,0,L|146:164,2,68,2|2|2,3:2|0:2|3:2,0:2:0:0:
106,230,29395,2,0,L|259:263,1,136,2|0,0:2|0:2,0:2:0:0:
375,279,29770,6,0,L|456:262,2,68,2|2|2,3:2|0:2|3:2,0:2:0:0:
496,328,30145,2,0,L|343:361,1,136,2|0,0:2|0:2,0:2:0:0:
182,284,30520,5,0,3:2:0:0:
189,307,30582,1,0,3:2:0:0:
325,198,30707,1,0,3:2:0:0:
318,221,30769,1,0,3:2:0:0:
195,136,30895,5,0,3:2:0:0:
188,113,30957,1,0,3:2:0:0:
182,92,31020,6,0,P|193:41|205:-9,2,85,6|2|2,3:2|0:2|3:2,0:2:0:0:
35,155,31395,2,0,B|59:142|90:150|109:176|105:180|101:184|119:213|158:223|196:207,1,170,2|0,0:2|0:2,0:2:0:0:
317,101,31770,6,0,P|306:50|294:0,2,85,2|2|2,3:2|0:2|3:2,0:2:0:0:
464,164,32145,2,0,B|440:151|409:159|390:185|394:189|398:193|380:222|341:232|303:216,1,170,2|0,0:2|0:2,0:2:0:0:
146,336,32520,5,6,3:2:0:0:
241,264,32645,1,2,0:2:0:0:
340,330,32770,1,6,3:2:0:0:
276,376,32895,1,2,0:2:0:0:
463,276,33020,5,0,3:2:0:0:
487,226,33103,1,0,3:2:0:0:
473,172,33186,1,0,3:2:0:0:
428,140,33270,1,0,3:2:0:0:
382,108,33353,1,0,3:2:0:0:
368,54,33436,1,0,3:2:0:0:
393,4,33519,1,4,3:2:0:0:
418,0,33770,5,0,3:2:0:0:
411,56,33853,1,0,3:2:0:0:
405,112,33936,1,0,3:2:0:0:
399,168,34020,1,0,3:2:0:0:
393,225,34103,1,0,3:2:0:0:
387,281,34186,1,0,3:2:0:0:
381,337,34270,1,4,3:2:0:0:
403,371,34520,6,0,B|403:368|403:368|399:367|399:367|402:366|402:366|402:364|402:364|405:362|405:362|402:362|402:362|401:360|401:360|398:359|398:359|401:358|401:358|401:356|401:356|404:354|404:354|401:354|401:354|400:352|400:352|397:351|397:351|400:350|400:350|400:348|400:348|403:346|403:346|399:346|399:346|399:344|399:344|396:343|396:343|399:342|399:342|399:340|399:340|401:338|401:338|398:338|398:338|398:336|398:336|395:335|395:335|398:334|398:334|398:332|398:332|400:331|400:331|397:330|397:330|397:328|397:328|394:327|394:327|397:326|397:326|396:324|396:324|399:323|399:323|396:322|396:322|396:320|396:320|393:319|393:319|396:318|396:318|395:316|395:316|398:315|398:315|395:314|395:314|395:312|395:312|392:312|392:312|394:310|394:310|394:308|394:308|397:307|397:307|394:306|394:306|394:304|394:304|390:304|390:304|393:302|393:302|393:300|393:300|396:299|396:299|393:298|393:298|392:296|392:296|389:296|389:296|392:294|392:294|392:292|392:292|395:291|395:291|392:290|392:290|391:288|391:288|388:288|388:288|391:286|391:286|391:284|391:284|394:283|394:283|391:282|391:282|390:281|390:281|387:280|387:280|390:279|390:279|390:277|390:277|393:275|393:275|389:275|389:275|389:273|389:273|386:272|386:272|389:271|389:271|389:269|389:269|391:267|391:267|388:267|388:267|388:265|388:265|385:264|385:264|388:263|388:263|387:261|387:261|390:259|390:259|387:259|387:259|387:257|387:257|384:256|384:256|387:255|387:255|386:253|386:253|389:251|389:251|386:251|386:251|386:249|386:249|383:248|383:248|386:247|386:247|385:244,1,267.601447265134,8|0,0:1|0:2,0:2:0:0:
464,101,35020,6,0,B|535:69|564:168|490:227|412:160|418:119|420:114|425:111|396:74|342:80,1,280.500008560181,6|0,3:2|0:2,0:2:0:0:
266,208,35520,6,0,P|316:203|348:160,1,93.5000028533936,10|0,0:2|0:2,0:2:0:0:
263,79,35770,5,2,0:2:0:0:
274,118,35895,1,2,0:2:0:0:
216,200,36020,5,2,3:2:0:0:
253,216,36145,1,2,0:2:0:0:
279,315,36270,5,2,0:2:0:0:
315,296,36395,1,2,0:2:0:0:
406,341,36520,5,10,0:2:0:0:
415,301,36645,1,2,0:2:0:0:
508,259,36770,5,2,0:2:0:0:
483,228,36895,1,2,0:2:0:0:
428,128,37020,6,0,P|407:188|393:244,1,93.5000028533936,2|0,3:2|0:2,0:2:0:0:
326,197,37270,2,0,P|338:152|354:108,1,93.5000028533936,2|0,0:2|0:2,0:2:0:0:
248,318,37520,6,0,B|189:307|226:275|144:261,1,93.5000028533936,10|0,0:2|0:2,0:2:0:0:
23,354,37770,5,2,0:2:0:0:
96,314,37895,1,2,0:2:0:0:
20,193,38020,5,2,3:2:0:0:
97,223,38145,1,2,0:2:0:0:
141,87,38270,5,2,0:2:0:0:
167,165,38395,1,2,0:2:0:0:
300,112,38520,5,10,0:2:0:0:
257,182,38645,1,2,0:2:0:0:
383,249,38770,5,2,3:2:0:0:
302,261,38895,1,2,0:2:0:0:
491,212,39020,6,0,L|466:315,2,93.5000028533936,6|2|2,3:2|0:2|0:2,0:2:0:0:
391,152,39395,1,2,0:2:0:0:
512,0,39520,6,0,P|490:60|477:107,1,93.5000028533936,10|0,0:2|0:2,0:2:0:0:
294,122,39770,5,2,0:2:0:0:
319,87,39895,1,2,0:2:0:0:
209,155,40020,5,2,3:2:0:0:
198,113,40145,1,2,0:2:0:0:
179,241,40270,5,2,3:2:0:0:
141,222,40395,1,2,0:2:0:0:
261,347,40520,6,0,P|331:328|369:319,1,93.5000028533936,10|0,0:2|0:2,0:2:0:0:
498,259,40770,2,0,P|428:240|390:231,1,93.5000028533936,2|0,3:2|0:2,0:2:0:0:
195,104,41020,6,0,L|210:149,1,46.7500014266968,6|0,3:2|0:2,0:2:0:0:
273,225,41207,6,0,L|287:180,1,46.7500014266968,2|0,3:2|0:2,0:2:0:0:
130,52,41395,6,0,L|110:114,1,46.7500014266968,2|0,3:2|0:2,0:2:0:0:
362,181,41582,6,0,L|342:119,1,46.7500014266968,2|0,3:2|0:2,0:2:0:0:
148,276,41770,6,0,L|168:338,1,46.7500014266968,2|0,3:2|0:2,0:2:0:0:
440,228,41957,6,0,L|460:166,1,46.7500014266968,2|0,3:2|0:2,0:2:0:0:
58,169,42145,6,0,L|78:231,1,46.7500014266968,2|0,3:2|0:2,0:2:0:0:
256,281,42332,6,0,L|272:183,1,93.5000028533936,8|0,0:2|0:2,0:2:0:0:
249,158,42520,6,0,L|199:144,1,42.5,10|8,0:2|0:2,0:2:0:0:
268,93,42770,2,0,L|218:79,1,42.5,10|8,0:2|0:2,0:2:0:0:
385,200,43020,5,2,0:2:0:0:
402,196,43082,1,2,0:2:0:0:
418,192,43145,2,0,B|420:177|420:148|392:126|387:126|383:129|360:114|354:87|359:51,1,136,2|2,0:2|0:2,0:2:0:0:
298,229,43520,1,14,0:2:0:0:
311,252,43770,5,2,3:2:0:0:
328,256,43832,1,2,3:2:0:0:
345,259,43895,2,0,L|482:227,1,136,2|2,3:2|3:2,0:2:0:0:
477,228,44270,1,2,0:2:0:0:
305,374,44520,5,8,3:2:0:0:
423,317,44707,1,0,3:2:0:0:
421,333,44770,1,0,3:2:0:0:
480,381,44895,1,0,3:2:0:0:
343,300,45020,5,2,3:2:0:0:
337,283,45082,1,2,3:2:0:0:
331,265,45145,2,0,B|329:250|329:221|357:199|362:199|366:202|389:187|395:160|390:124,1,136,2|2,3:2|3:2,0:2:0:0:
339,83,45520,1,10,0:2:0:0:
361,48,45770,5,2,3:2:0:0:
357,67,45832,1,2,3:2:0:0:
353,83,45895,2,0,P|294:69|205:53,1,136,2|0,3:2|3:2,0:2:0:0:
219,55,46270,1,2,0:2:0:0:
5,137,46520,5,8,3:2:0:0:
0,122,46582,1,0,3:2:0:0:
74,50,46707,5,0,3:2:0:0:
79,35,46769,1,0,3:2:0:0:
146,115,46895,6,0,P|142:135|138:156,1,34,0|0,3:2|3:2,0:2:0:0:
8,260,47020,5,6,3:2:0:0:
5,244,47082,1,2,3:2:0:0:
2,228,47145,2,0,P|49:202|114:244,1,136,2|2,3:2|3:2,0:2:0:0:
69,321,47520,1,10,0:2:0:0:
93,354,47770,5,2,3:2:0:0:
95,337,47832,1,2,3:2:0:0:
97,321,47895,2,0,P|154:342|257:369,1,136,2|2,3:2|3:2,0:2:0:0:
226,362,48270,1,2,0:2:0:0:
465,304,48520,5,10,0:2:0:0:
392,270,48645,1,2,3:2:0:0:
326,302,48770,1,2,3:2:0:0:
313,342,48895,1,2,3:2:0:0:
458,222,49020,5,0,3:2:0:0:
457,177,49103,1,0,3:2:0:0:
436,137,49186,1,0,3:2:0:0:
400,110,49270,1,0,3:2:0:0:
356,101,49353,1,0,3:2:0:0:
313,113,49436,1,0,3:2:0:0:
279,143,49520,1,4,3:2:0:0:
272,164,49770,5,0,3:2:0:0:
315,172,49853,1,0,3:2:0:0:
356,154,49936,1,0,3:2:0:0:
381,117,50020,1,0,3:2:0:0:
405,79,50103,1,0,3:2:0:0:
446,62,50186,1,0,3:2:0:0:
490,70,50269,1,4,3:2:0:0:
500,92,50520,6,0,L|445:84,1,42.5,8|8,0:2|0:2,0:2:0:0:
370,16,50770,2,0,L|315:24,1,42.5,8|8,0:2|0:2,0:2:0:0:
220,112,51020,6,0,L|226:70,5,28.3333333333333,2|2|2|2|2|2,0:2|0:2|0:2|0:2|0:2|0:2,0:2:0:0:
272,164,51520,2,0,L|276:192,5,28.3333333333333,2|2|2|2|2|2,0:2|0:2|0:2|0:2|0:2|0:2,0:2:0:0:
167,359,52020,6,0,B|113:368|113:368|79:321,1,101.999996887207,6|0,3:2|3:2,0:2:0:0:
265,229,52270,2,0,L|392:199,1,101.999996887207,2|0,3:2|3:2,0:2:0:0:
88,74,52520,2,0,B|118:102|118:102|150:229,1,152.999995330811,2|0,3:2|0:2,0:2:0:0:
155,252,52770,1,2,3:2:0:0:
283,384,52895,1,2,3:2:0:0:
287,358,52957,1,0,3:2:0:0:
291,331,53020,2,0,L|322:215,1,101.999996887207,2|0,3:2|3:2,0:2:0:0:
231,34,53270,1,2,3:2:0:0:
341,101,53395,1,0,3:2:0:0:
189,221,53520,5,2,3:2:0:0:
158,216,53582,1,0,3:2:0:0:
128,211,53645,1,0,3:2:0:0:
98,206,53707,1,0,3:2:0:0:
68,201,53770,2,0,L|101:303,1,101.999996887207,0|0,3:2|3:2,0:2:0:0:
275,237,54020,5,2,3:2:0:0:
284,203,54082,1,0,3:2:0:0:
274,169,54145,1,0,3:2:0:0:
248,145,54207,1,0,3:2:0:0:
214,140,54270,5,2,3:2:0:0:
116,239,54395,1,2,3:2:0:0:
219,339,54520,1,2,3:2:0:0:
301,264,54645,1,2,3:2:0:0:
368,319,54770,1,2,3:2:0:0:
432,275,54895,1,2,3:2:0:0:
336,151,55020,5,6,3:2:0:0:
289,126,55103,1,0,3:2:0:0:
238,142,55186,1,0,3:2:0:0:
214,189,55270,1,0,3:2:0:0:
189,236,55353,1,0,3:2:0:0:
139,252,55436,1,0,3:2:0:0:
92,227,55520,6,0,L|83:178,2,45.3333333333333,2|2|2,3:2|0:2|0:2,0:2:0:0:
20,275,55770,2,0,L|11:324,2,45.3333333333333,2|2|2,3:2|0:2|0:2,0:2:0:0:
127,353,56020,6,0,B|173:343|173:343|175:336|175:336|229:322,1,101.999996887207,6|0,3:2|3:2,0:2:0:0:
336,151,56270,2,0,B|291:183|291:183|303:242,1,101.999996887207,2|0,3:2|3:2,0:2:0:0:
425,374,56520,2,0,L|436:199,1,152.999995330811,2|0,3:2|0:2,0:2:0:0:
464,193,56770,5,2,3:2:0:0:
459,157,56832,1,0,3:2:0:0:
454,121,56895,1,0,3:2:0:0:
449,85,56957,1,0,3:2:0:0:
444,50,57020,5,2,3:2:0:0:
336,151,57145,1,2,3:2:0:0:
473,267,57270,1,2,3:2:0:0:
342,365,57395,1,2,3:2:0:0:
207,262,57520,6,0,L|216:215,14,25.4999992218018,2|0|0|0|0|0|0|0|0|0|0|0|0|0|0,3:2|0:2|0:2|0:2|0:2|0:2|0:2|0:2|0:2|0:2|0:2|0:2|0:2|0:2|0:2,0:2:0:0:
315,301,58020,6,0,L|296:228,1,50.9999984436036,6|0,3:2|3:2,0:2:0:0:
123,206,58145,2,0,L|104:279,1,50.9999984436036,2|0,3:2|3:2,0:2:0:0:
226,163,58270,1,2,3:2:0:0:
226,192,58520,6,0,L|207:265,1,50.9999984436036,6|0,3:2|3:2,0:2:0:0:
34,287,58645,2,0,L|15:214,1,50.9999984436036,2|0,3:2|3:2,0:2:0:0:
137,330,58770,1,2,3:2:0:0:
112,350,59020,5,6,3:2:0:0:
117,328,59082,1,0,3:2:0:0:
122,306,59145,1,0,3:2:0:0:
242,308,59270,5,2,3:2:0:0:
235,280,59332,1,0,3:2:0:0:
229,252,59395,1,0,3:2:0:0:
340,359,59520,5,2,3:2:0:0:
348,325,59582,1,0,3:2:0:0:
355,291,59645,1,0,3:2:0:0:
469,308,59770,5,2,3:2:0:0:
461,274,59832,1,0,3:2:0:0:
454,240,59895,1,0,3:2:0:0:
487,232,60270,6,0,L|380:210,1,101.999996887207,6|0,3:2|3:2,0:2:0:0:
253,359,60520,2,0,B|316:345|316:345|330:325|330:325|398:312,1,152.999995330811,2|0,3:2|0:2,0:2:0:0:
430,333,60770,1,2,3:2:0:0:
252,203,60895,1,2,3:2:0:0:
258,223,60957,1,0,3:2:0:0:
264,241,61020,2,0,L|243:351,1,101.999996887207,2|0,3:2|3:2,0:2:0:0:
128,211,61270,1,2,3:2:0:0:
226,112,61395,1,0,3:2:0:0:
44,15,61520,5,2,3:2:0:0:
16,39,61582,1,0,3:2:0:0:
3,74,61645,1,0,3:2:0:0:
8,111,61707,1,0,3:2:0:0:
29,142,61770,2,0,L|132:113,1,101.999996887207,0|0,3:2|3:2,0:2:0:0:
304,51,62020,5,2,3:2:0:0:
281,21,62082,1,0,3:2:0:0:
247,6,62145,1,0,3:2:0:0:
210,10,62207,1,0,3:2:0:0:
177,29,62270,5,2,3:2:0:0:
292,141,62395,1,2,3:2:0:0:
417,25,62520,1,2,3:2:0:0:
512,118,62645,1,2,3:2:0:0:
442,191,62770,1,2,3:2:0:0:
380,139,62895,1,2,3:2:0:0:
274,267,63020,5,6,3:2:0:0:
227,292,63103,1,0,3:2:0:0:
176,276,63186,1,0,3:2:0:0:
152,229,63270,1,0,3:2:0:0:
127,182,63353,1,0,3:2:0:0:
77,166,63436,1,0,3:2:0:0:
30,191,63520,6,0,L|21:258,2,45.3333333333333,2|2|2,3:2|0:2|0:2,0:2:0:0:
85,293,63770,1,2,3:2:0:0:
49,322,64020,5,4,3:2:0:0:
81,313,64082,1,0,3:2:0:0:
114,304,64145,1,0,3:2:0:0:
147,296,64207,1,0,3:2:0:0:
180,287,64270,1,0,3:2:0:0:
213,279,64332,1,0,3:2:0:0:
246,270,64395,1,0,3:2:0:0:
279,262,64457,1,0,3:2:0:0:
312,253,64520,6,0,L|323:315,3,50.9999984436036,4|0|0|0,3:2|3:2|3:2|3:2,0:2:0:0:
375,197,64770,1,0,3:2:0:0:
376,180,64832,1,0,3:2:0:0:
377,163,64895,1,0,3:2:0:0:
379,146,64957,1,0,3:2:0:0:
380,127,65020,5,4,3:2:0:0:
351,108,65082,1,0,3:2:0:0:
318,106,65145,1,0,3:2:0:0:
288,121,65207,1,0,3:2:0:0:
269,148,65270,1,0,3:2:0:0:
250,175,65332,1,0,3:2:0:0:
220,190,65394,1,0,3:2:0:0:
186,188,65457,1,0,3:2:0:0:
158,169,65520,6,0,L|145:109,3,50.9999984436036,4|0|0|0,3:2|3:2|3:2|3:2,0:2:0:0:
52,52,65770,1,0,3:2:0:0:
45,91,65832,1,0,3:2:0:0:
39,130,65895,1,0,3:2:0:0:
33,169,65957,1,0,3:2:0:0:
28,208,66020,6,0,P|59:284|88:369,1,152.999995330811,0|8,3:2|0:2,0:2:0:0:
206,266,66395,2,0,P|161:234|131:242,1,76.4999976654053,0|0,3:2|0:2,0:2:0:0:
149,311,66645,1,8,0:2:0:0:
275,231,66770,5,8,0:2:0:0:
279,245,66853,1,8,0:2:0:0:
282,258,66936,1,8,0:2:0:0:
285,271,67020,1,8,0:2:0:0:
352,377,67145,2,0,L|268:355,1,76.4999976654053,0|8,3:2|0:2,0:2:0:0:
444,366,67395,5,0,1:2:0:0:
444,366,67457,1,0,1:2:0:0:
444,366,67520,2,0,L|433:318,1,38.2499988327027,0|0,1:2|1:2,0:2:0:0:
376,289,67645,2,0,L|388:240,1,38.2499988327027,0|0,1:2|1:2,0:2:0:0:
440,199,67770,1,8,0:2:0:0:
279,359,68020,5,6,3:2:0:0:
414,144,75520,6,0,L|421:181,3,34,10|0|0|0,0:2|3:2|3:2|3:2,0:0:0:0:
454,236,75770,6,0,L|328:192,1,102,10|0,0:2|0:0,0:0:0:0:
242,124,76020,6,0,P|276:166|266:221,1,85,6|2,3:2|0:2,0:2:0:0:
142,293,76270,1,10,0:2:0:0:
233,357,76395,2,0,P|216:286|179:186,1,170,2|2,3:2|3:2,0:2:0:0:
72,88,76770,6,0,P|125:114|167:100,1,85,10|2,0:2|0:2,0:2:0:0:
128,30,77020,1,2,0:2:0:0:
242,124,77145,2,0,P|269:93|325:90,1,85,2|8,3:2|0:2,0:2:0:0:
377,140,77395,1,2,0:2:0:0:
507,12,77520,5,2,3:2:0:0:
502,33,77645,1,2,3:2:0:0:
404,17,77770,5,10,0:2:0:0:
409,38,77895,1,2,0:2:0:0:
490,189,78020,6,0,P|444:181|397:172,1,85,2|2,3:2|0:2,0:2:0:0:
198,271,78270,2,0,P|244:263|291:254,1,85,10|2,0:2|3:2,0:2:0:0:
314,71,78520,2,0,P|306:117|297:164,1,85,2|2,0:2|3:2,0:2:0:0:
396,363,78770,2,0,P|388:317|379:270,1,85,10|2,0:2|0:2,0:2:0:0:
160,145,79020,6,0,L|113:163,3,42.5,2|2|2|2,3:2|3:2|3:2|3:2,0:2:0:0:
218,187,79270,1,10,0:2:0:0:
54,92,79395,2,0,P|98:205|122:276,1,170,2|2,3:2|3:2,0:2:0:0:
27,375,79770,2,0,P|59:341|106:337,1,85,10|2,0:2|0:2,0:2:0:0:
319,380,80020,5,6,3:2:0:0:
296,310,80145,1,2,0:2:0:0:
275,242,80270,1,10,0:2:0:0:
360,146,80395,2,0,B|408:124|445:162|432:181|468:207|525:189,1,170,2|2,3:2|3:2,0:2:0:0:
259,88,80770,6,0,P|277:141|292:187,1,85,10|2,0:2|0:2,0:2:0:0:
168,309,81020,1,10,0:2:0:0:
101,245,81145,2,0,P|146:216|254:278,1,170,2|2,3:2|3:2,0:2:0:0:
395,361,81520,6,0,L|403:301,3,42.5,10|2|2|2,0:2|0:2|3:2|0:2,0:2:0:0:
479,272,81770,2,0,L|471:212,3,42.5,10|2|2|2,0:2|0:2|0:2|0:2,0:2:0:0:
356,139,82020,6,0,L|377:236,1,85,10|0,0:2|3:2,0:2:0:0:
236,364,82270,2,0,L|257:267,1,85,10|0,0:2|3:2,0:2:0:0:
65,105,82520,2,0,L|86:202,1,85,10|0,0:2|3:2,0:2:0:0:
274,94,82770,5,10,0:2:0:0:
151,1,82895,1,8,0:2:0:0:
368,143,83020,6,0,L|376:88,3,42.5,2|0|0|0,3:2|3:2|3:2|3:2,0:2:0:0:
365,61,83270,5,10,0:2:0:0:
488,154,83395,1,8,0:2:0:0:
344,256,83520,2,0,L|359:169,1,85,2|0,3:2|3:2,0:2:0:0:
396,0,83770,1,14,3:2:0:0:
396,0,84020,5,6,3:2:0:0:
411,41,84103,1,2,0:2:0:0:
397,83,84186,1,2,0:2:0:0:
361,109,84269,1,2,0:2:0:0:
324,133,84353,1,2,0:2:0:0:
311,175,84436,1,2,0:2:0:0:
329,216,84520,5,6,3:2:0:0:
361,191,84603,1,2,0:2:0:0:
371,154,84686,1,2,0:2:0:0:
359,118,84769,1,2,0:2:0:0:
328,94,84853,1,2,0:2:0:0:
289,92,84936,1,2,0:2:0:0:
256,111,85020,6,0,L|305:250,1,136,0|4,3:2|0:2,0:2:0:0:
282,276,86020,6,0,B|241:305|193:294|172:248|177:239|182:236|156:181|101:182|64:210,1,255,10|0,0:2|0:0,0:0:0:0:
1,286,86520,2,0,P|110:245|249:204,1,255,2|0,0:2|0:0,0:0:0:0:
354,74,87020,2,0,B|376:44|359:-5|276:-20|231:70|317:164,1,255,6|0,3:2|0:0,0:0:0:0:
393,144,87520,2,0,P|363:79|195:92,1,255,2|0,0:2|0:0,0:0:0:0:
503,6,88020,6,0,P|462:179|440:273,1,255,10|0,0:2|0:0,0:0:0:0:
512,343,88520,2,0,P|471:170|449:76,1,255,2|0,0:2|0:0,0:0:0:0:
355,271,89020,6,0,P|383:268|431:336,1,113.333333333333,0|0,3:2|3:2,0:0:0:0:
271,272,89353,5,0,3:2:0:0:
276,292,89436,1,0,3:2:0:0:
281,311,89520,1,0,3:2:0:0:
145,207,89686,5,0,3:2:0:0:
268,100,89853,1,0,3:2:0:0:
35,353,90020,6,0,B|10:321|14:263|61:236|66:242|70:248|108:229|133:170|96:120,1,255,10|0,0:2|0:0,0:0:0:0:
46,75,90520,2,0,B|3:127|3:127|193:56,1,255,2|0,0:2|0:0,0:0:0:0:
324,186,91020,6,0,P|239:168|213:307,1,255,6|0,3:2|0:0,0:0:0:0:
272,384,91520,2,0,P|242:299|185:141,1,255,2|0,0:2|0:0,0:0:0:0:
327,78,92020,6,0,P|387:84|390:252,1,255,10|0,0:2|0:0,0:0:0:0:
496,289,92520,2,0,P|460:337|313:256,1,255,6|0,3:2|0:0,0:0:0:0:
232,98,93020,6,0,L|240:48,3,42.5,0|0|0|0,3:2|3:2|3:2|3:2,0:0:0:0:
245,19,93270,1,2,0:2:0:0:
193,256,93520,6,0,L|185:206,3,42.5,0|0|0|0,3:2|3:2|3:2|3:2,0:0:0:0:
180,177,93770,1,2,0:2:0:0:
261,365,94020,6,0,P|316:305|400:327,1,170,10|2,0:2|0:2,0:0:0:0:
489,264,94395,2,0,P|434:204|350:226,1,170
256,159,94770,2,0,P|311:99|395:121,1,170,2|6,0:2|3:2,0:0:0:0:
484,58,95145,2,0,P|429:-2|345:20,1,170
256,159,95520,6,0,B|212:189|159:174|141:122|143:116|151:111|127:61|61:50|14:104,1,255,2|0,0:2|0:0,0:0:0:0:
129,252,96020,2,0,P|142:179|195:3,1,255,10|0,0:2|0:0,0:0:0:0:
45,185,96520,2,0,P|152:117|278:61,1,255,6|0,0:2|0:0,0:0:0:0:
398,121,97020,5,6,3:2:0:0:
368,303,97270,1,0,3:2:0:0:
342,204,97520,5,10,3:2:0:0:
383,211,97645,1,8,0:2:0:0:
425,219,97770,1,8,3:2:0:0:
236,46,98020,5,2,3:2:0:0:
266,228,98270,1,0,3:2:0:0:
200,145,98520,5,10,3:2:0:0:
241,138,98645,1,8,0:2:0:0:
283,130,98770,1,8,3:2:0:0:
325,122,98895,1,10,0:2:0:0:
416,129,99020,5,2,3:2:0:0:
236,46,99270,1,0,3:2:0:0:
360,26,99520,5,10,3:2:0:0:
337,69,99645,1,8,0:2:0:0:
315,113,99770,1,8,3:2:0:0:
502,214,100020,5,2,3:2:0:0:
322,297,100270,1,0,3:2:0:0:
450,347,100457,5,8,0:2:0:0:
452,339,100520,5,10,3:2:0:0:
434,297,100645,1,8,0:2:0:0:
416,255,100770,1,8,3:2:0:0:
398,213,100895,1,10,0:2:0:0:
479,49,101020,6,0,P|454:107|437:151,1,85,6|0,3:2|3:2,0:2:0:0:
283,78,101270,2,0,P|298:117|316:156,1,85,0|2,3:2|3:2,0:2:0:0:
242,258,101520,1,2,3:2:0:0:
351,327,101645,1,0,3:2:0:0:
228,181,101770,1,0,3:2:0:0:
134,273,101895,1,2,3:2:0:0:
0,104,102020,6,0,P|48:88|93:73,1,85,6|0,3:2|3:2,0:2:0:0:
233,190,102270,2,0,P|185:174|140:159,1,85,0|2,3:2|3:2,0:2:0:0:
318,10,102520,1,2,3:2:0:0:
440,163,102645,1,0,3:2:0:0:
271,89,102770,1,0,3:2:0:0:
475,14,102895,1,2,3:2:0:0:
340,203,103020,5,14,0:2:0:0:
292,231,103103,1,8,0:2:0:0:
238,217,103186,1,8,0:2:0:0:
210,170,103269,1,10,0:2:0:0:
181,122,103353,1,8,0:2:0:0:
127,109,103436,1,8,0:2:0:0:
80,137,103519,5,14,0:2:0:0:
127,165,103603,1,8,0:2:0:0:
181,152,103686,1,8,0:2:0:0:
210,103,103770,1,10,0:2:0:0:
238,56,103853,1,8,0:2:0:0:
292,42,103936,1,8,0:2:0:0:
340,71,104020,6,0,L|332:125,3,42.5,14|8|8|8,0:2|0:2|0:2|0:2,0:2:0:0:
416,173,104270,2,0,L|424:227,3,42.5,10|8|8|8,0:2|0:2|0:2|0:2,0:2:0:0:
343,296,104520,5,14,0:2:0:0:
322,289,104582,1,8,0:2:0:0:
302,282,104645,1,8,0:2:0:0:
282,275,104707,1,8,0:2:0:0:
262,268,104770,1,10,0:2:0:0:
242,261,104832,1,8,0:2:0:0:
222,254,104895,1,8,0:2:0:0:
202,247,104957,1,8,0:2:0:0:
182,240,105020,5,6,3:2:0:0:
256,192,105082,12,0,107020,0:2:0:0:
333,10,111395,5,2,0:2:0:0:
330,18,111457,1,2,0:2:0:0:
328,27,111520,1,2,0:2:0:0:
374,92,111645,1,2,0:2:0:0:
310,139,111770,1,2,0:2:0:0:
263,74,111895,1,2,0:2:0:0:
494,214,112020,6,0,B|454:202|419:237|430:249|397:290|344:265,1,152.999995330811,6|0,3:2|0:2,0:2:0:0:
327,261,112270,1,10,0:2:0:0:
488,384,112395,2,0,P|510:330|487:290,1,101.999996887207,2|0,0:2|3:2,0:2:0:0:
365,195,112645,1,2,0:2:0:0:
467,85,112770,2,0,P|449:132|434:181,1,101.999996887207,10|0,0:2|0:2,0:2:0:0:
343,340,113020,1,2,3:2:0:0:
241,230,113145,2,0,P|258:277|273:326,1,101.999996887207,2|8,0:2|0:2,0:2:0:0:
365,195,113395,5,2,0:2:0:0:
365,195,113520,1,2,3:2:0:0:
267,105,113645,1,2,0:2:0:0:
267,105,113707,1,2,0:2:0:0:
267,105,113770,2,0,P|235:115|212:120,1,50.9999984436036,10|2,0:2|0:2,0:2:0:0:
172,185,113895,2,0,P|140:175|117:170,1,50.9999984436036,2|2,0:2|0:2,0:2:0:0:
47,127,114020,5,2,3:2:0:0:
118,244,114145,1,2,0:2:0:0:
23,117,114270,1,10,0:2:0:0:
157,318,114395,6,0,B|200:325|220:283|209:275|239:232|291:247,1,152.999995330811,2|0,0:2|0:2,0:2:0:0:
322,251,114645,1,2,0:2:0:0:
354,383,114770,2,0,P|301:372|287:327,1,101.999996887207,10|0,0:2|0:2,0:2:0:0:
355,180,115020,1,2,3:2:0:0:
457,290,115145,2,0,P|401:298|347:318,1,101.999996887207,2|8,0:2|0:2,0:2:0:0:
244,211,115395,5,2,0:2:0:0:
357,81,115520,1,2,3:2:0:0:
455,178,115645,5,2,0:2:0:0:
455,178,115770,1,10,0:2:0:0:
332,70,115895,1,2,0:2:0:0:
512,233,116020,2,0,P|491:152|471:62,1,152.999995330811,2|0,3:2|0:2,0:2:0:0:
443,77,116270,6,0,P|458:28|469:-8,2,67.9999979248048,10|2|2,0:2|0:2|0:2,0:2:0:0:
338,104,116520,2,0,P|288:115|251:123,2,67.9999979248048,2|2|2,3:2|0:2|0:2,0:2:0:0:
413,181,116770,2,0,P|447:218|473:246,2,67.9999979248048,10|2|2,0:2|0:2|0:2,0:2:0:0:
175,82,117020,5,2,3:2:0:0:
188,93,117103,2,0,L|203:163,1,67.9999979248048,2|2,0:2|0:2,0:2:0:0:
281,295,117270,5,10,0:2:0:0:
312,269,117353,2,0,L|327:199,1,67.9999979248048,2|2,0:2|0:2,0:2:0:0:
123,153,117520,5,2,3:2:0:0:
76,206,117603,2,0,L|90:272,1,67.9999979248048,2|2,0:2|0:2,0:2:0:0:
148,360,117770,5,10,0:2:0:0:
0,276,117895,1,2,0:2:0:0:
225,380,118020,6,0,L|209:318,1,50.9999984436036,6|0,3:2|3:2,0:2:0:0:
162,275,118145,2,0,L|178:213,1,50.9999984436036,2|0,3:2|3:2,0:2:0:0:
210,219,118395,6,0,L|197:169,1,50.9999984436036,2|0,3:2|3:2,0:2:0:0:
147,114,118520,2,0,L|159:64,1,50.9999984436036,2|0,3:2|3:2,0:2:0:0:
194,34,118770,6,0,L|262:22,1,50.9999984436036,2|0,3:2|3:2,0:2:0:0:
77,83,118895,2,0,L|9:71,1,50.9999984436036,2|0,3:2|3:2,0:2:0:0:
176,141,119020,6,0,L|188:190,3,50.9999984436036,2|0|2|0,3:2|3:2|3:2|3:2,0:2:0:0:
121,249,119270,2,0,L|108:298,3,50.9999984436036,2|0|2|0,3:2|3:2|3:2|3:2,0:2:0:0:
187,369,119520,5,10,3:2:0:0:
221,379,119582,1,0,3:2:0:0:
256,372,119645,1,10,3:2:0:0:
285,351,119707,1,0,3:2:0:0:
301,320,119770,1,10,3:2:0:0:
317,289,119832,1,0,3:2:0:0:
346,268,119894,1,10,3:2:0:0:
381,261,119957,1,0,3:2:0:0:
415,271,120020,6,0,P|453:314|438:366,1,101.999996887207,6|2,3:2|0:2,0:2:0:0:
418,379,120207,1,2,0:2:0:0:
418,379,120270,1,10,0:2:0:0:
229,294,120395,2,0,P|239:218|244:174,1,101.999996887207,2|2,0:2|3:2,0:2:0:0:
218,161,120582,1,2,0:2:0:0:
218,161,120645,1,2,0:2:0:0:
278,90,120770,1,10,0:2:0:0:
163,17,120895,1,2,0:2:0:0:
76,154,121020,5,2,3:2:0:0:
154,101,121145,1,2,0:2:0:0:
260,236,121270,1,10,0:2:0:0:
182,183,121395,1,2,0:2:0:0:
115,309,121520,6,0,L|99:240,3,50.9999984436036,2|2|2|2,3:2|0:2|0:2|0:2,0:2:0:0:
203,309,121770,2,0,L|192:364,1,50.9999984436036,10|2,0:2|0:2,0:2:0:0:
288,259,121895,2,0,L|299:314,1,50.9999984436036,2|2,3:2|0:2,0:2:0:0:
373,374,122020,6,0,B|410:363|410:363|423:346|423:346|479:329,1,101.999996887207,2|2,3:2|0:2,0:2:0:0:
500,359,122207,1,2,0:2:0:0:
500,359,122270,1,10,0:2:0:0:
366,228,122395,2,0,P|347:173|369:136,1,101.999996887207,2|2,0:2|3:2,0:2:0:0:
399,113,122582,1,2,0:2:0:0:
399,113,122645,1,2,0:2:0:0:
479,134,122770,1,10,0:2:0:0:
369,36,122895,1,2,0:2:0:0:
258,154,123020,5,2,3:2:0:0:
258,154,123145,1,2,0:2:0:0:
136,41,123270,1,10,0:2:0:0:
282,151,123395,1,2,0:2:0:0:
131,218,123520,2,0,L|144:155,3,50.9999984436036,2|2|2|2,3:2|0:2|0:2|0:2,0:2:0:0:
222,239,123770,2,0,L|238:297,1,50.9999984436036,10|2,0:2|0:2,0:2:0:0:
121,370,123895,2,0,L|137:312,1,50.9999984436036,2|2,3:2|0:2,0:2:0:0:
258,154,124020,6,0,P|292:147|342:192,1,101.999996887207,6|8,3:2|0:2,0:2:0:0:
512,297,124270,1,2,3:2:0:0:
488,307,124332,1,2,0:2:0:0:
465,318,124395,1,10,0:2:0:0:
442,329,124457,1,2,0:2:0:0:
419,339,124520,2,0,L|299:319,1,101.999996887207,2|8,3:2|0:2,0:2:0:0:
460,191,124770,1,2,3:2:0:0:
460,191,124832,1,0,3:2:0:0:
460,191,124895,1,8,0:2:0:0:
317,61,125020,6,0,L|337:173,1,101.999996887207,2|8,3:2|0:2,0:2:0:0:
235,288,125270,1,2,3:2:0:0:
211,277,125332,1,2,0:2:0:0:
188,267,125395,1,10,0:2:0:0:
164,258,125457,1,2,0:2:0:0:
140,249,125520,2,0,P|101:292|118:344,1,101.999996887207,2|8,3:2|0:2,0:2:0:0:
250,196,125770,1,2,3:2:0:0:
250,196,125832,1,0,3:2:0:0:
250,196,125895,1,8,0:2:0:0:
51,32,126020,5,14,0:2:0:0:
152,153,126145,1,2,3:2:0:0:
152,153,126207,1,2,3:2:0:0:
152,153,126270,1,10,0:0:0:0:
255,41,126395,1,2,3:2:0:0:
395,192,126520,6,0,P|430:141|403:94,1,101.999996887207,10|2,0:2|3:2,0:2:0:0:
380,82,126707,1,2,3:2:0:0:
380,82,126770,2,0,L|324:71,1,50.9999984436036,10|2,0:2|0:2,0:2:0:0:
448,21,126895,2,0,L|504:10,1,50.9999984436036,2|2,3:2|0:2,0:2:0:0:
309,161,127020,5,10,0:2:0:0:
475,281,127145,1,2,3:2:0:0:
480,269,127207,1,2,3:2:0:0:
485,255,127270,5,2,3:2:0:0:
450,264,127332,1,2,3:2:0:0:
416,273,127395,1,2,3:2:0:0:
381,283,127457,1,2,3:2:0:0:
347,292,127520,6,0,P|288:273|240:257,1,101.999996887207,10|2,0:2|3:2,0:2:0:0:
219,276,127707,1,2,3:2:0:0:
219,276,127770,1,10,0:2:0:0:
384,369,127895,1,2,3:2:0:0:
140,285,128020,6,0,L|153:216,3,50.9999984436036,6|0|2|2,3:2|3:2|3:2|3:2,0:2:0:0:
211,190,128270,2,0,L|198:121,3,50.9999984436036,2|0|2|0,3:2|3:2|3:2|3:2,0:2:0:0:
152,69,128520,1,2,3:2:0:0:
184,54,128582,1,2,3:2:0:0:
220,55,128645,1,2,3:2:0:0:
252,70,128707,1,2,3:2:0:0:
274,97,128770,1,2,3:2:0:0:
296,123,128832,1,0,3:2:0:0:
328,139,128894,1,2,3:2:0:0:
364,140,128957,1,0,3:2:0:0:
396,125,129020,6,0,P|419:77|378:18,1,101.999996887207,6|10,3:2|0:2,0:2:0:0:
275,149,129270,1,2,3:2:0:0:
454,279,129395,2,0,P|395:259|288:233,1,152.999995330811,10|0,0:2|0:2,0:2:0:0:
265,237,129645,1,10,0:2:0:0:
115,339,129770,1,2,3:2:0:0:
25,250,129895,1,10,0:2:0:0:
213,373,130020,6,0,P|200:314|187:264,1,101.999996887207,2|10,3:2|0:2,0:2:0:0:
154,253,130207,1,2,0:2:0:0:
154,253,130270,1,2,3:2:0:0:
206,65,130395,2,0,P|237:117|215:164,1,101.999996887207,10|2,0:2|3:2,0:2:0:0:
198,179,130582,1,2,0:2:0:0:
198,179,130645,1,10,0:2:0:0:
25,89,130770,1,2,3:2:0:0:
114,1,130895,1,10,0:2:0:0:
107,174,131020,6,0,P|53:191|0:210,1,101.999996887207,2|10,3:2|0:2,0:2:0:0:
173,56,131270,1,2,3:2:0:0:
301,187,131395,2,0,B|339:203|365:167|357:161|381:126|435:140,1,152.999995330811,10|0,0:2|0:2,0:2:0:0:
466,161,131645,1,10,0:2:0:0:
301,25,131770,1,2,3:2:0:0:
309,49,131833,1,0,3:2:0:0:
316,74,131895,1,10,0:2:0:0:
248,257,132020,6,0,P|195:264|122:278,1,101.999996887207,6|10,3:2|0:2,0:2:0:0:
111,252,132207,1,2,0:2:0:0:
111,252,132270,1,2,3:2:0:0:
1,91,132395,2,0,P|54:67|94:82,1,101.999996887207,10|2,0:2|3:2,0:2:0:0:
125,108,132582,1,2,0:2:0:0:
125,108,132645,1,10,0:2:0:0:
46,292,132770,2,0,L|29:231,1,50.9999984436036,2|0,3:2|3:2,0:2:0:0:
0,179,132895,1,10,0:2:0:0:
248,257,133020,6,0,P|227:308|203:371,1,101.999996887207,2|10,3:2|0:2,0:2:0:0:
235,381,133207,1,2,0:2:0:0:
235,381,133270,1,2,3:2:0:0:
409,271,133395,2,0,P|424:222|376:175,1,101.999996887207,10|2,0:2|3:2,0:2:0:0:
364,159,133582,1,2,0:2:0:0:
364,159,133645,1,10,0:2:0:0:
213,23,133770,2,0,L|231:82,1,50.9999984436036,2|0,3:2|3:2,0:2:0:0:
265,160,133895,1,10,0:2:0:0:
392,50,134020,6,0,P|363:41|339:37,3,50.9999984436036,6|2|10|2,3:2|0:2|0:2|0:2,0:2:0:0:
463,124,134270,2,0,P|492:115|516:111,3,50.9999984436036,2|2|10|2,3:2|3:2|0:2|0:2,0:2:0:0:
335,246,134520,1,2,3:2:0:0:
304,238,134582,1,2,0:2:0:0:
274,231,134645,1,10,0:2:0:0:
244,225,134707,1,2,0:2:0:0:
213,219,134770,1,2,3:2:0:0:
182,213,134832,1,2,3:2:0:0:
152,208,134895,1,10,0:2:0:0:
121,204,134957,1,2,0:2:0:0:
90,200,135020,6,0,P|60:252|77:306,1,101.999996887207,10|2,0:2|3:2,0:2:0:0:
92,324,135207,1,0,3:2:0:0:
92,324,135270,1,10,0:2:0:0:
262,369,135395,1,2,3:2:0:0:
262,369,135457,1,0,3:2:0:0:
262,369,135520,1,10,0:2:0:0:
174,191,135645,5,2,3:2:0:0:
174,191,135707,1,0,3:2:0:0:
174,191,135770,2,0,L|192:133,1,50.9999984436036,10|8,0:2|0:2,0:2:0:0:
260,100,135895,2,0,L|242:42,1,50.9999984436036,8|8,0:2|0:2,0:2:0:0:
179,4,136020,6,0,L|108:21,2,59.4999981842042,6|2|2,3:2|0:2|0:2,0:2:0:0:
244,51,136395,1,2,0:2:0:0:
340,138,136645,5,2,0:2:0:0:
340,138,136770,2,0,L|411:155,2,59.4999981842042,2|2|2,0:2|0:2|0:2,0:2:0:0:
275,185,137145,1,2,0:2:0:0:
179,272,137395,5,2,0:2:0:0:
179,272,137520,2,0,L|108:289,2,59.4999981842042,2|2|2,0:2|0:2|0:2,0:2:0:0:
244,319,137895,1,2,0:2:0:0:
379,212,138020,6,0,L|388:155,3,50.9999984436036,6|0|2|0,3:2|3:2|3:2|3:2,0:2:0:0:
422,286,138270,1,2,3:2:0:0:
383,299,138332,1,0,3:2:0:0:
344,293,138395,1,2,3:2:0:0:
311,269,138457,1,0,3:2:0:0:
294,232,138520,1,2,3:2:0:0:
276,195,138582,1,0,3:2:0:0:
243,171,138644,1,2,3:2:0:0:
203,165,138707,1,0,3:2:0:0:
165,178,138769,1,2,3:2:0:0:
151,178,139020,6,0,L|142:121,3,50.9999984436036,6|0|2|0,3:2|3:2|3:2|3:2,0:2:0:0:
108,252,139270,1,2,3:2:0:0:
147,265,139332,1,0,3:2:0:0:
186,259,139395,1,2,3:2:0:0:
219,235,139457,1,0,3:2:0:0:
236,198,139520,1,2,3:2:0:0:
254,161,139582,1,0,3:2:0:0:
287,137,139644,1,2,3:2:0:0:
327,131,139707,1,0,3:2:0:0:
365,144,139769,1,2,3:2:0:0:
230,46,140020,6,0,L|216:1,1,42.5,6|2,3:2|0:2,0:2:0:0:
241,44,140395,2,0,L|227:-1,1,42.5,2|2,0:2|0:2,0:2:0:0:
377,103,140770,2,0,L|363:148,1,42.5,2|2,0:2|0:2,0:2:0:0:
388,105,141145,2,0,L|374:150,1,42.5,2|2,0:2|0:2,0:2:0:0:
219,235,141520,5,2,0:2:0:0:
206,199,141770,1,2,0:2:0:0:
169,203,142020,6,0,L|155:248,1,42.5,2|2,0:2|0:2,0:2:0:0:
180,205,142395,2,0,L|166:250,1,42.5,2|2,0:2|0:2,0:2:0:0:
316,146,142770,2,0,L|302:101,1,42.5,2|2,0:2|0:2,0:2:0:0:
327,144,143145,2,0,L|313:99,1,42.5,2|2,0:2|0:2,0:2:0:0:
175,12,143520,2,0,L|161:57,3,42.5,2|2|2|2,0:2|0:2|0:2|3:2,0:2:0:0:
187,84,143957,1,0,3:0:0:0:
187,84,144020,6,0,L|242:75,1,42.5,6|2,3:2|0:2,0:2:0:0:
182,103,144395,2,0,L|237:94,1,42.5,2|2,0:2|0:2,0:2:0:0:
85,169,144770,6,0,L|30:160,1,42.5,2|2,0:2|0:2,0:2:0:0:
90,188,145145,2,0,L|35:179,1,42.5,2|2,0:2|0:2,0:2:0:0:
241,291,145520,5,2,0:2:0:0:
236,268,145770,1,2,0:2:0:0:
264,249,146020,6,0,L|319:258,1,42.5,2|2,0:2|0:2,0:2:0:0:
259,230,146395,2,0,L|314:239,1,42.5,2|2,0:2|0:2,0:2:0:0:
162,164,146770,6,0,L|107:173,1,42.5,2|2,0:2|0:2,0:2:0:0:
167,145,147145,2,0,L|112:154,1,42.5,2|2,0:2|0:2,0:2:0:0:
288,57,147520,6,0,L|277:110,3,42.5,2|2|2|10,0:2|0:2|0:2|0:2,0:2:0:0:
308,126,147957,1,8,0:0:0:0:
308,126,148020,6,0,P|387:104|476:80,1,170,6|8,3:2|0:2,0:2:0:0:
344,238,148395,2,0,P|265:216|176:192,1,170,2|0,3:2|3:2,0:2:0:0:
58,315,148770,1,10,0:2:0:0:
137,354,148895,2,0,P|149:313|123:265,1,85,2|0,0:2|0:2,0:2:0:0:
2,189,149145,1,2,3:2:0:0:
133,116,149270,1,10,0:2:0:0:
88,193,149395,1,8,0:2:0:0:
18,13,149520,6,0,P|62:31|115:46,1,85,2|0,3:2|3:2,0:2:0:0:
264,17,149770,2,0,P|223:29|184:45,1,85,10|8,0:2|0:2,0:2:0:0:
45,253,150020,6,0,B|68:264|104:260|116:223|115:220|114:217|137:184|180:179|211:201,1,170,2|8,3:2|0:2,0:2:0:0:
327,340,150395,2,0,B|305:347|269:343|257:306|258:303|259:300|236:267|193:262|162:284,1,170,2|0,3:2|3:2,0:2:0:0:
383,187,150770,1,10,0:2:0:0:
322,269,150895,2,0,P|306:203|294:156,1,85,2|0,0:2|0:2,0:2:0:0:
371,14,151145,1,2,3:2:0:0:
280,80,151270,2,0,P|320:93|360:107,1,85,10|8,0:2|0:2,0:2:0:0:
510,30,151520,5,2,3:2:0:0:
466,120,151645,1,2,3:2:0:0:
500,15,151770,1,10,0:2:0:0:
456,105,151895,1,10,0:2:0:0:
512,275,152020,6,0,L|488:178,2,85,2|2|8,3:2|3:2|0:2,0:2:0:0:
324,223,152395,2,0,L|348:126,2,85,2|2|0,3:2|3:2|3:2,0:2:0:0:
194,373,152770,5,10,3:2:0:0:
94,312,152895,1,2,3:2:0:0:
32,145,153020,5,0,3:2:0:0:
55,107,153103,1,0,3:2:0:0:
98,97,153186,1,0,3:2:0:0:
136,115,153270,2,0,L|115:204,1,85,8|8,0:2|3:2,0:2:0:0:
236,280,153520,1,2,3:2:0:0:
277,291,153603,1,0,3:0:0:0:
312,263,153686,1,0,3:0:0:0:
324,223,153770,2,0,P|292:199|243:208,1,85,10|8,0:2|3:2,0:2:0:0:
476,338,154020,5,4,3:2:0:0:
504,289,154103,1,0,3:2:0:0:
496,234,154186,1,0,3:2:0:0:
455,196,154270,1,0,3:2:0:0:
415,158,154353,1,0,3:2:0:0:
406,103,154436,1,0,3:2:0:0:
434,54,154519,1,0,3:2:0:0:
456,43,154770,5,4,3:2:0:0:
491,87,154853,1,0,3:2:0:0:
495,142,154936,1,0,3:2:0:0:
469,191,155020,1,0,3:2:0:0:
420,218,155103,1,0,3:2:0:0:
364,213,155186,1,0,3:2:0:0:
320,179,155270,1,0,3:2:0:0:
213,18,155520,6,0,L|219:73,1,42.5,8|0,0:2|0:2,0:2:0:0:
276,111,155645,1,0,1:2:0:0:
287,103,155707,1,0,1:2:0:0:
298,94,155770,2,0,L|292:39,1,42.5,0|0,1:2|1:2,0:2:0:0:
353,0,155895,1,8,0:2:0:0:
94,208,156020,5,4,3:2:0:0:
149,198,156103,1,0,3:2:0:0:
205,187,156186,1,0,3:2:0:0:
260,176,156270,1,0,3:2:0:0:
316,165,156353,1,0,3:2:0:0:
371,153,156436,1,0,3:2:0:0:
427,141,156520,1,0,3:2:0:0:
462,106,156770,5,4,3:2:0:0:
446,160,156853,1,0,3:2:0:0:
432,215,156936,1,0,3:2:0:0:
419,270,157020,6,0,L|361:283,1,56.6666666666667,4|0,3:2|0:2,0:2:0:0:
261,337,157186,2,0,L|285:267,1,56.6666666666667,2|0,3:2|0:2,0:2:0:0:
281,166,157353,2,0,L|329:221,1,56.6666666666667,2|0,3:2|0:2,0:2:0:0:
423,308,157520,6,0,L|354:299,1,62.3333352355958,2|0,3:2|0:2,0:2:0:0:
223,318,157686,2,0,L|277:251,1,62.3333352355958,2|0,3:2|0:2,0:2:0:0:
313,139,157853,2,0,L|343:219,1,62.3333352355958,2|0,3:2|0:2,0:2:0:0:
412,352,158020,6,0,L|342:315,1,67.9999979248048,2|0,3:2|0:2,0:2:0:0:
194,284,158186,2,0,L|277:233,1,67.9999979248048,2|0,3:2|0:2,0:2:0:0:
360,128,158353,2,0,L|361:225,1,67.9999979248048,2|0,3:2|0:2,0:2:0:0:
380,384,158520,6,0,L|321:320,1,73.6666632944744,2|0,3:2|0:2,0:2:0:0:
181,232,158686,2,0,L|285:211,1,73.6666632944744,2|0,3:2|0:2,0:2:0:0:
409,133,158853,2,0,L|374:234,1,73.6666632944744,2|0,3:2|0:2,0:2:0:0:
384,160,160020,5,6,3:2:0:0:
346,172,160082,1,0,3:2:0:0:
307,164,160145,1,0,3:2:0:0:
278,137,160207,1,0,3:2:0:0:
266,100,160270,1,0,3:2:0:0:
253,61,160332,1,0,3:2:0:0:
225,34,160394,1,0,3:2:0:0:
185,26,160457,1,0,3:2:0:0:
149,40,160520,6,0,L|160:97,3,50.9999984436036,6|0|0|0,3:2|3:2|3:2|3:2,0:2:0:0:
78,142,160770,2,0,L|66:194,3,50.9999984436036,0|0|0|0,3:2|3:2|3:2|3:2,0:2:0:0:
149,279,161020,5,6,3:2:0:0:
186,292,161082,1,0,3:2:0:0:
225,283,161145,1,0,3:2:0:0:
254,257,161207,1,0,3:2:0:0:
266,219,161270,1,0,3:2:0:0:
279,180,161332,1,0,3:2:0:0:
307,153,161394,1,0,3:2:0:0:
347,146,161457,1,0,3:2:0:0:
384,160,161520,6,0,L|372:217,3,50.9999984436036,6|0|0|0,3:2|3:2|3:2|3:2,0:2:0:0:
454,261,161770,2,0,L|464:313,3,50.9999984436036,0|0|0|0,3:2|3:2|3:2|3:2,0:2:0:0:
346,381,162020,5,6,3:2:0:0:
300,377,162082,1,0,3:2:0:0:
266,346,162145,1,0,3:2:0:0:
259,300,162207,1,0,3:2:0:0:
283,261,162270,1,0,3:2:0:0:
326,245,162332,1,0,3:2:0:0:
369,260,162395,1,0,3:2:0:0:
412,277,162457,1,0,3:2:0:0:
454,261,162519,1,4,3:2:0:0:
479,221,162582,1,0,3:2:0:0:
473,176,162644,1,0,3:2:0:0:
439,145,162707,1,0,3:2:0:0:
393,142,162770,6,0,L|385:199,1,51,2|0,3:2|3:2,0:2:0:0:
230,347,163020,5,6,3:2:0:0:
237,307,163103,1,0,3:2:0:0:
245,268,163186,1,0,3:2:0:0:
326,245,163270,5,2,3:2:0:0:
319,213,163353,1,0,3:2:0:0:
313,181,163436,1,0,3:2:0:0:
241,169,163520,5,6,3:2:0:0:
246,142,163603,1,0,3:2:0:0:
251,118,163686,1,0,3:2:0:0:
301,94,163770,5,2,3:2:0:0:
296,73,163853,1,0,3:2:0:0:
293,53,163936,1,0,3:2:0:0:
261,35,164020,5,6,3:2:0:0:
256,192,164082,12,0,169020,0:2:0:0:
