osu file format v14

[General]
AudioFilename: audio.mp3
AudioLeadIn: 0
PreviewTime: 107270
Countdown: 0
SampleSet: Soft
StackLeniency: 0.7
Mode: 0
LetterboxInBreaks: 0
WidescreenStoryboard: 1

[Editor]
Bookmarks: 68020,75020,107020,112020,136020,138020
DistanceSpacing: 1.4
BeatDivisor: 4
GridSize: 32
TimelineZoom: 2.200001

[Metadata]
Title:Enkindle feat. vally.exe
TitleUnicode:Enkindle feat. vally.exe
Artist:Zenpaku
ArtistUnicode:Zenpaku
Creator:Kujinn
Version:Pepekcz's Hard
Source:
Tags:Reform Ermi Modding Queue Yumerios Pepekcz Kirishima- dj-jo dj jo japanese instrumental electronic artcore
BeatmapID:3609066
BeatmapSetID:1762718

[Difficulty]
HPDrainRate:4.2
CircleSize:4
OverallDifficulty:7
ApproachRate:8.2
SliderMultiplier:1.4
SliderTickRate:1

[Events]
//Background and Video events
0,0,"220216_enkindle_album_cover_OSU_Version_Smaller.jpg",0,0
//Break Periods
2,68220,74270
2,107219,111270
2,136219,137300
//Storyboard Layer 0 (Background)
//Storyboard Layer 1 (Fail)
//Storyboard Layer 2 (Pass)
//Storyboard Layer 3 (Foreground)
//Storyboard Layer 4 (Overlay)
//Storyboard Sound Samples

[TimingPoints]
520,250,4,2,1,60,1,0
520,-125,4,2,1,60,0,0
8520,-111.111111111111,4,2,1,70,0,0
14520,-99.9999999999999,4,2,2,80,0,0
16020,-99.9999999999999,4,2,2,60,0,0
16520,-99.9999999999999,4,2,2,80,0,0
17520,-99.9999999999999,4,2,1,80,0,0
19020,250,4,2,3,60,1,0
19020,-125,4,2,3,60,0,0
25020,-125,4,2,2,80,0,0
26270,-125,4,2,3,70,0,0
28520,-125,4,2,2,70,0,0
29020,-125,4,2,3,70,0,0
30520,-125,4,2,2,70,0,0
31020,-125,4,2,3,70,0,0
33020,-125,4,2,2,80,0,0
34520,-125,4,2,3,80,0,0
35020,-111.111111111111,4,2,4,70,0,0
42520,-111.111111111111,4,2,3,60,0,0
43145,-111.111111111111,4,2,5,70,0,0
49020,-111.111111111111,4,2,2,80,0,0
50520,-111.111111111111,4,2,3,70,0,0
51020,-111.111111111111,4,2,1,60,0,0
52020,-100,4,2,6,90,0,0
66020,-100,4,2,2,50,0,0
68020,-100,4,2,1,60,0,0
75020,-125,4,2,1,60,0,0
75520,-125,4,2,1,70,0,0
76020,-100,4,2,1,70,0,0
84020,-100,4,2,1,60,0,0
85020,-125,4,2,1,60,0,0
86020,-100,4,2,7,80,0,0
89020,-100,4,2,7,70,0,0
90020,-100,4,2,7,80,0,0
93020,-100,4,2,7,70,0,0
94020,-100,4,2,7,80,0,0
97020,-125,4,2,8,70,0,0
101020,-111.111111111111,4,2,8,80,0,0
103020,-99.9999999999999,4,2,6,80,0,0
105020,-125,4,2,1,80,0,0
112020,-100,4,2,9,90,0,0
128020,-100,4,2,9,100,0,0
136020,-100,4,2,9,70,0,0
138020,-100,4,2,2,100,0,0
140020,-125,4,2,1,70,0,0
148020,-111.111111111111,4,2,1,80,0,0
154020,-100,4,2,2,80,0,0
157020,-100,4,2,1,90,0,0
160020,-100,4,2,2,100,0,0
162770,-100,4,2,2,80,0,0
163020,-100,4,2,2,100,0,0
164020,-100,4,2,1,100,0,0

[Colours]
Combo1 : 222,73,118
Combo2 : 112,77,215
Combo3 : 192,95,28
Combo4 : 255,189,156

[HitObjects]
20,356,520,6,0,L|92:380,1,56,6|2,3:2|0:2,0:2:0:0:
168,248,895,2,0,L|240:272,1,56,2|2,0:2|0:2,0:2:0:0:
304,132,1270,2,0,L|376:156,1,56,2|2,0:2|0:2,0:2:0:0:
456,28,1645,2,0,L|528:52,1,56,2|2,0:2|0:2,0:2:0:0:
452,192,2020,6,0,P|466:248|480:304,1,112,2|2,0:2|0:2,0:0:0:0:
344,380,2520,6,0,P|316:364|300:332,1,56,2|2,0:2|0:2,0:2:0:0:
148,320,2895,2,0,P|147:287|167:257,1,56,2|2,0:2|0:2,0:2:0:0:
64,144,3270,2,0,P|91:127|127:129,1,56,2|2,0:2|0:2,0:2:0:0:
208,0,3645,2,0,P|236:16|252:48,1,56,2|2,0:2|0:2,0:2:0:0:
320,176,4020,6,0,L|336:122,1,56,2|2,0:2|0:2,0:2:0:0:
400,76,4270,2,0,L|416:22,1,56,2|2,0:2|0:2,0:0:0:0:
496,12,4520,6,0,L|479:65,1,56,2|2,0:2|0:2,0:2:0:0:
336,122,4895,2,0,L|319:175,1,56,2|2,0:2|0:2,0:2:0:0:
440,276,5270,2,0,L|423:329,1,56,2|2,0:2|0:2,0:2:0:0:
268,316,5645,2,0,L|251:369,1,56,2|2,0:2|0:2,0:2:0:0:
228,216,6020,6,0,P|192:172|128:172,1,112,2|2,0:2|0:2,0:0:0:0:
24,272,6520,6,0,P|12:244|12:212,1,56,2|2,0:2|0:2,0:2:0:0:
126,114,6895,2,0,P|138:142|138:174,1,56,2|2,0:2|0:2,0:2:0:0:
136,324,7270,2,0,P|124:296|124:264,1,56,2|2,0:2|0:2,0:2:0:0:
238,166,7645,2,0,P|250:194|250:226,1,56,2|2,0:2|0:2,0:2:0:0:
324,356,8020,6,0,L|388:336,1,56,2|2,0:2|0:2,0:2:0:0:
432,284,8270,2,0,L|412:220,1,56,2|2,0:2|0:2,0:0:0:0:
456,152,8520,6,0,L|476:80,1,62.9999980773926,6|2,3:2|0:0,0:2:0:0:
416,24,8770,1,8,0:2:0:0:
416,24,8895,2,0,P|356:37|288:56,1,125.999996154785,2|0,3:2|3:2,0:2:0:0:
208,80,9270,1,10,0:2:0:0:
208,80,9395,1,2,0:2:0:0:
40,24,9645,5,2,3:2:0:0:
40,24,9770,2,0,L|64:100,1,62.9999980773926,10|0,0:2|0:2,0:2:0:0:
32,168,10020,2,0,P|55:234|80:308,1,125.999996154785,2|10,3:2|0:2,0:2:0:0:
232,364,10520,6,0,P|256:340|284:332,1,62.9999980773926,2|2,3:2|0:0,0:2:0:0:
368,356,10770,1,8,0:2:0:0:
368,356,10895,2,0,P|424:384|488:360,1,125.999996154785,2|0,3:2|3:2,0:2:0:0:
496,280,11270,1,10,0:2:0:0:
496,280,11395,1,2,0:2:0:0:
400,132,11645,5,2,3:2:0:0:
400,132,11770,2,0,P|360:88|296:88,1,125.999996154785,10|2,0:2|3:2,0:2:0:0:
220,132,12145,1,2,3:2:0:0:
220,132,12270,2,0,P|208:172|216:200,1,62.9999980773926,10|2,0:2|3:2,0:0:0:0:
264,264,12520,5,2,3:2:0:0:
264,264,12645,2,0,L|240:336,1,62.9999980773926,2|8,3:2|0:2,0:0:0:0:
168,368,12895,1,2,3:2:0:0:
168,368,13020,2,0,P|112:372|64:320,1,125.999996154785,2|10,3:2|0:2,0:0:0:0:
40,240,13395,5,2,3:2:0:0:
40,240,13520,1,8,0:2:0:0:
100,176,13645,2,0,L|140:188,2,31.4999990386963,2|0|10,3:2|3:2|0:2,0:0:0:0:
4,28,14020,5,10,0:2:0:0:
84,64,14145,2,0,L|124:76,2,31.4999990386963,0|0|10,3:2|3:2|0:2,0:0:0:0:
100,176,14520,6,0,L|157:191,6,46.6666666666667,4|0|0|0|0|0|0,3:2|3:2|3:2|3:2|3:2|3:2|3:2,0:0:0:0:
279,97,15270,2,0,L|340:76,6,46.6666666666667,4|0|0|0|0|0|0,3:2|3:2|3:2|3:2|3:2|3:2|3:2,0:0:0:0:
461,167,16020,2,0,L|437:255,1,70,8|0,0:2|1:2,0:2:0:0:
445,251,16207,1,0,1:2:0:0:
449,267,16270,2,0,L|433:315,2,35,0|0|8,1:2|1:2|0:2,0:2:0:0:
352,352,16520,6,0,P|328:368|311:368,6,46.6666666666667,4|0|0|0|0|0|0,3:2|3:2|3:2|3:2|3:2|3:2|3:2,0:0:0:0:
173,269,17270,6,0,P|149:253|132:252,2,46.6666666666667,4|0|0,3:2|3:2|3:2,0:0:0:0:
123,260,17520,6,0,L|95:156,2,93.3333333333333,8|8|8,0:2|0:2|0:2,0:2:0:0:
468,368,19020,6,0,P|482:314|504:244,1,112,6|2,3:2|3:2,0:2:0:0:
476,104,19520,2,0,P|456:72|376:68,1,112,2|2,3:2|3:2,0:2:0:0:
320,104,19895,5,2,0:2:0:0:
320,104,20020,2,0,L|340:168,2,56,2|2|2,3:2|0:2|3:2,0:2:0:0:
256,56,20395,1,2,0:2:0:0:
256,56,20520,2,0,L|188:76,1,56,2|2,3:2|0:2,0:0:0:0:
60,132,20895,5,2,0:2:0:0:
60,132,21020,2,0,P|79:191|96:248,1,112,2|2,3:2|3:2,0:2:0:0:
108,316,21395,1,0,0:2:0:0:
108,316,21520,2,0,P|136:328|172:324,1,56,2|0,3:2|0:0,0:2:0:0:
228,287,21770,2,0,P|253:276|281:276,2,56,2|2|10,3:2|0:2|3:2,0:0:0:0:
416,360,22270,5,10,0:2:0:0:
416,360,22395,2,0,L|436:296,1,56,10|0,0:2|3:0,0:2:0:0:
408,232,22645,2,0,L|428:168,1,56,10|10,0:2|0:2,0:0:0:0:
476,28,23020,6,0,B|416:20|432:64|356:56,1,112,6|2,3:2|3:2,0:2:0:0:
216,24,23520,2,0,P|172:16|112:72,1,112,2|2,3:2|3:2,0:2:0:0:
64,108,23895,5,2,0:2:0:0:
64,108,24020,2,0,L|8:92,2,56,2|2|2,3:2|0:2|3:2,0:0:0:0:
120,168,24395,1,2,0:2:0:0:
120,168,24520,2,0,P|172:152|232:136,1,112,10|10,3:2|3:2,0:2:0:0:
372,76,25020,6,0,L|386:116,6,37.3333333333333,0|0|0|0|0|0|4,3:2|3:2|3:2|3:2|3:2|3:2|3:2,0:0:0:0:
456,208,25770,2,0,L|443:252,6,37.3333333333333,0|0|0|0|0|0|6,3:2|3:2|3:2|3:2|3:2|3:2|3:2,0:0:0:0:
376,344,26520,2,0,P|348:324|324:320,1,56,2|0,0:2|0:2,0:2:0:0:
252,344,26770,2,0,P|224:364|200:368,1,56,2|0,0:2|0:2,0:2:0:0:
124,312,27020,5,6,3:2:0:0:
124,312,27145,2,0,P|108:263|84:184,1,112,2|2,0:2|0:2,0:0:0:0:
64,132,27520,1,0,3:0:0:0:
204,60,27770,2,0,L|184:0,2,56,2|2|2,3:2|0:2|3:2,0:2:0:0:
244,128,28145,6,0,L|312:108,1,56,2|0,0:2|3:0,0:2:0:0:
452,88,28520,2,0,P|476:124|480:188,1,84,0|0,3:2|3:2,0:0:0:0:
476,176,28770,2,0,P|456:212|456:240,1,56,0|0,3:2|3:2,0:0:0:0:
480,304,29020,5,2,3:2:0:0:
480,304,29145,2,0,P|430:320|368:344,1,112,2|2,0:2|0:2,0:0:0:0:
300,368,29520,1,0,3:0:0:0:
148,324,29770,2,0,L|88:304,2,56,2|2|2,3:2|0:2|3:2,0:2:0:0:
220,292,30145,6,0,L|240:216,1,56,2|0,0:2|3:0,0:2:0:0:
292,92,30520,2,0,P|264:60|216:52,1,84,0|0,3:2|3:2,0:0:0:0:
212,56,30770,2,0,P|176:84|160:88,1,56,0|0,3:2|3:2,0:0:0:0:
88,68,31020,5,6,3:2:0:0:
88,68,31145,2,0,P|52:108|64:164,1,112,2|2,0:2|0:2,0:0:0:0:
104,228,31520,1,0,3:0:0:0:
208,344,31770,2,0,L|140:368,2,56,2|2|2,3:2|0:2|3:2,0:2:0:0:
272,300,32145,6,0,L|344:324,1,56,2|0,0:2|3:2,0:2:0:0:
480,308,32520,2,0,L|500:368,2,56,6|2|6,3:2|0:2|3:2,0:0:0:0:
412,240,32895,5,2,0:2:0:0:
412,240,33020,2,0,L|398:189,6,37.3333333333333,0|0|0|0|0|0|4,3:2|3:2|3:2|3:2|3:2|3:2|3:2,0:0:0:0:
488,104,33770,2,0,L|502:52,6,37.3333333333333,0|0|0|0|0|0|4,3:2|3:2|3:2|3:2|3:2|3:2|3:2,0:0:0:0:
344,36,34520,2,0,B|284:20|244:52|272:76|216:108|164:84,1,196,8|0,0:1|0:0,0:2:0:0:
152,80,35020,6,0,B|142:128|119:157|119:157|115:238|115:238|84:275|72:328,1,251.999992309571,6|10,3:2|0:2,0:2:0:0:
248,360,35770,2,0,L|312:336,1,62.9999980773926,2|2,0:2|0:2,0:0:0:0:
392,316,36020,2,0,L|412:376,2,62.9999980773926,2|2|2,3:2|0:2|0:2,0:0:0:0:
460,256,36395,1,2,0:2:0:0:
460,256,36520,2,0,L|480:316,2,62.9999980773926,10|2|2,0:2|0:2|0:2,0:0:0:0:
496,176,36895,5,2,0:2:0:0:
496,176,37020,2,0,B|440:148|440:148|376:184,1,125.999996154785,2|2,3:2|0:2,0:2:0:0:
244,284,37520,1,10,0:2:0:0:
80,348,37770,2,0,P|64:312|68:280,1,62.9999980773926,2|2,0:2|0:2,0:0:0:0:
128,228,38020,2,0,L|204:204,2,62.9999980773926,2|2|2,3:2|0:2|0:2,0:0:0:0:
68,164,38395,1,2,0:2:0:0:
68,164,38520,2,0,L|7:182,2,62.9999980773926,10|2|2,0:2|0:2|3:2,0:0:0:0:
108,84,38895,5,2,0:2:0:0:
108,84,39020,2,0,B|154:70|154:70|203:81|203:81|256:66|256:66|288:32|288:32|342:16,1,251.999992309571,6|10,3:2|0:2,0:2:0:0:
480,124,39770,2,0,L|464:196,1,62.9999980773926,2|2,0:2|0:2,0:0:0:0:
404,248,40020,6,0,B|376:264|376:264|328:256,2,62.9999980773926,2|2|2,3:2|0:2|3:2,0:0:0:0:
496,264,40395,1,2,0:2:0:0:
496,264,40520,2,0,P|480:328|464:400,1,125.999996154785,10|2,0:2|3:2,0:2:0:0:
292,360,41020,6,0,L|188:332,2,94.499997116089,6|2|2,3:2|3:2|3:2,0:2:0:0:
364,252,41582,6,0,L|260:224,2,94.499997116089,2|2|2,3:2|3:2|3:2,0:2:0:0:
468,172,42145,6,0,L|488:72,1,94.499997116089,2|8,3:2|0:2,0:2:0:0:
364,28,42520,6,0,L|292:16,1,62.9999980773926,10|8,0:2|0:2,0:2:0:0:
220,56,42770,2,0,L|157:66,1,62.9999980773926,10|8,0:2|0:2,0:2:0:0:
68,64,43020,6,0,L|60:20,2,31.4999990386963,2|2|2,0:2|0:2|0:2,0:0:0:0:
28,236,43395,1,2,0:2:0:0:
28,236,43520,2,0,L|48:312,1,62.9999980773926,14|0,0:2|0:0,0:0:0:0:
116,348,43770,2,0,L|121:378,2,31.4999990386963,2|2|2,3:2|3:2|3:2,0:0:0:0:
232,216,44145,5,2,3:2:0:0:
232,216,44270,2,0,P|260:196|288:192,1,62.9999980773926,2|0,0:2|0:0,0:0:0:0:
364,236,44520,2,0,L|396:340,1,94.499997116089,8|0,3:2|3:2,0:0:0:0:
396,340,44770,2,0,L|476:316,1,62.9999980773926,0|0,3:2|3:2,0:0:0:0:
496,244,45020,6,0,L|480:196,2,31.4999990386963,2|2|2,3:2|3:2|3:2,0:0:0:0:
440,80,45395,1,2,3:2:0:0:
440,80,45520,1,10,0:2:0:0:
276,144,45770,2,0,L|285:173,2,31.4999990386963,2|2|2,3:2|3:2|3:2,0:0:0:0:
216,312,46145,5,0,3:2:0:0:
216,312,46270,1,2,0:2:0:0:
68,220,46520,2,0,L|40:112,1,94.499997116089,8|0,3:2|3:2,0:0:0:0:
36,116,46770,2,0,L|16:40,1,62.9999980773926,0|0,3:2|3:2,0:0:0:0:
100,12,47020,6,0,L|144:24,2,31.4999990386963,6|2|2,3:2|3:2|3:2,0:0:0:0:
252,100,47395,1,2,3:2:0:0:
252,100,47520,2,0,L|328:72,1,62.9999980773926,10|0,0:2|0:0,0:0:0:0:
384,32,47770,2,0,L|428:44,2,31.4999990386963,2|2|2,3:2|3:2|3:2,0:0:0:0:
488,172,48145,5,2,3:2:0:0:
488,172,48270,2,0,L|464:244,1,62.9999980773926,2|0,0:2|0:0,0:0:0:0:
424,308,48520,2,0,P|452:328|488:328,2,62.9999980773926,10|2|2,0:2|3:2|3:2,0:0:0:0:
344,252,48895,5,2,3:2:0:0:
344,252,49020,2,0,P|328:240|304:236,6,41.9999987182618,0|0|0|0|0|0|4,3:2|3:2|3:2|3:2|3:2|3:2|3:2,0:0:0:0:
178,316,49770,2,0,P|162:328|139:332,6,41.9999987182618,0|0|0|0|0|0|4,3:2|3:2|3:2|3:2|3:2|3:2|3:2,0:0:0:0:
29,219,50520,2,0,L|53:143,1,62.9999980773926,8|8,0:2|0:2,0:2:0:0:
12,80,50770,2,0,L|36:4,1,62.9999980773926,8|8,0:2|0:2,0:2:0:0:
496,16,52020,5,6,3:2:0:0:
496,16,52145,1,0,3:2:0:0:
440,88,52270,2,0,L|460:176,1,70,2|0,3:2|3:2,0:2:0:0:
472,244,52520,2,0,B|420:292|420:292|344:260,1,140,2|2,3:2|3:2,0:2:0:0:
272,236,52895,2,0,L|260:196,2,35,2|0|2,3:2|3:2|3:2,0:0:0:0:
240,324,53145,5,0,3:2:0:0:
240,324,53270,2,0,L|164:352,1,70,2|0,3:2|3:2,0:0:0:0:
88,316,53520,2,0,L|76:276,4,35,2|0|0|0|0,3:2|3:2|3:2|3:2|3:2,0:0:0:0:
24,144,54020,6,0,L|36:104,4,35,2|0|0|0|2,3:2|3:2|3:2|3:2|3:2,0:0:0:0:
100,192,54395,1,2,3:2:0:0:
100,192,54520,2,0,L|176:168,1,70,2|2,3:2|3:2,0:0:0:0:
232,108,54770,2,0,L|308:84,1,70,2|2,3:2|3:2,0:0:0:0:
380,128,55020,6,0,L|360:192,5,46.6666666666667,6|0|0|0|0|0,3:2|3:2|3:2|3:2|3:2|3:2,0:0:0:0:
432,204,55520,6,0,L|418:248,5,46.6666666666667,2|2|2|2|2|2,3:2|0:2|0:2|3:2|0:2|0:2,0:2:0:0:
344,272,56020,5,6,3:2:0:0:
220,140,56270,2,0,B|164:96|164:96|96:120,1,140,2|2,3:2|3:2,0:2:0:0:
28,172,56645,1,0,3:0:0:0:
28,172,56770,2,0,L|18:138,4,35,2|0|0|0|2,3:2|3:2|3:2|3:2|3:2,0:0:0:0:
12,264,57145,5,2,3:2:0:0:
12,264,57270,2,0,L|36:336,1,70,2|2,3:2|3:2,0:0:0:0:
120,360,57520,2,0,B|154:350|154:350|163:352|163:352|190:345|190:345|197:339|197:339|239:327|239:327|248:329|248:329|279:321|279:321|286:315|286:315|324:305,1,210,2|0,3:2|0:2,0:2:0:0:
408,320,58020,6,0,L|396:364,4,35,6|0|2|0|2,3:2|3:2|3:2|3:2|3:2,0:2:0:0:
496,160,58520,2,0,L|505:193,4,35,6|0|2|0|2,3:2|3:2|3:2|3:2|3:2,0:2:0:0:
352,52,59020,6,0,L|312:40,2,35,6|0|0,3:2|3:2|3:2,0:0:0:0:
296,124,59270,2,0,L|256:112,2,35,2|0|0,3:2|3:2|3:2,0:0:0:0:
388,124,59520,6,0,L|428:136,2,35,2|0|0,3:2|3:2|3:2,0:0:0:0:
444,52,59770,2,0,L|484:64,2,35,2|0|0,3:2|3:2|3:2,0:0:0:0:
172,28,60270,6,0,B|136:24|136:24|88:56,1,70,6|0,3:2|3:2,0:2:0:0:
44,104,60520,2,0,B|39:140|39:140|72:188,1,70,2|0,3:2|3:0,0:2:0:0:
128,224,60770,1,2,3:2:0:0:
128,224,60895,2,0,L|112:272,2,35,2|0|2,3:2|3:2|3:2,0:0:0:0:
196,164,61145,5,0,3:2:0:0:
196,164,61270,2,0,L|276:148,1,70,2|0,3:2|3:2,0:0:0:0:
348,108,61520,2,0,L|332:64,4,35,2|0|0|0|0,3:2|3:2|3:2|3:2|3:2,0:0:0:0:
440,124,61895,5,0,3:2:0:0:
440,124,62020,2,0,L|424:80,4,35,2|0|0|0|2,3:2|3:2|3:2|3:2|3:2,0:0:0:0:
496,196,62395,1,2,3:2:0:0:
496,196,62520,2,0,L|472:284,1,70,2|2,3:2|3:2,0:0:0:0:
412,328,62770,2,0,L|324:304,1,70,2|2,3:2|3:2,0:0:0:0:
260,272,63020,6,0,L|208:288,5,46.6666666666667,6|0|0|0|0|0,3:2|3:2|3:2|3:2|3:2|3:2,0:0:0:0:
180,352,63520,6,0,L|128:368,3,46.6666666666667,2|2|2|2,3:2|0:2|0:2|3:2,0:2:0:0:
16,228,64020,6,0,L|32:180,6,35,4|0|0|0|0|0|0,3:2|3:2|3:2|3:2|3:2|3:2|3:2,0:0:0:0:
104,208,64520,2,0,L|120:160,6,35,4|0|0|0|0|0|0,3:2|3:2|3:2|3:2|3:2|3:2|3:2,0:2:0:0:
56,128,65020,6,0,L|72:80,6,35,4|0|0|0|0|0|0,3:2|3:2|3:2|3:2|3:2|3:2|3:2,0:0:0:0:
144,108,65520,2,0,L|160:60,6,35,4|0|0|0|0|0|0,3:2|3:2|3:2|3:2|3:2|3:2|3:2,0:2:0:0:
96,28,66020,5,0,3:2:0:0:
276,20,66270,2,0,P|344:37|416:60,1,140,8|0,0:2|0:2,0:0:0:0:
472,124,66645,1,8,0:2:0:0:
472,124,66770,2,0,L|520:108,3,46.6666666666667,8|8|8|8,0:2|0:2|0:2|0:2,0:0:0:0:
432,196,67145,6,0,L|360:220,1,70,0|8,3:2|0:2,0:2:0:0:
276,204,67395,2,0,L|224:220,6,35,0|0|0|0|0|0|8,1:2|1:2|1:2|1:2|1:2|1:2|0:2,0:0:0:0:
116,292,68020,5,6,3:2:0:0:
16,372,75020,6,0,L|188:312,1,168,2|2,0:0|0:0,0:0:0:0:
248,344,75520,6,0,L|296:360,2,37.3333333333333,10|2|2,0:2|0:0|0:0,0:0:0:0:
348,320,75770,6,0,L|396:336,2,37.3333333333333,10|2|2,0:2|0:0|0:0,0:0:0:0:
460,368,76020,5,6,3:2:0:0:
460,368,76145,2,0,P|482:337|476:284,1,70,2|10,0:2|0:2,0:0:0:0:
424,236,76395,2,0,P|388:188|416:108,1,140,2|2,3:2|3:2,0:2:0:0:
464,44,76770,2,0,L|536:16,2,70,10|2|2,0:2|0:2|0:2,0:2:0:0:
376,20,77145,6,0,P|308:42|216:72,1,140,2|2,3:2|0:2,0:2:0:0:
160,104,77520,1,2,3:2:0:0:
160,104,77645,1,2,3:2:0:0:
76,68,77770,1,10,0:2:0:0:
76,68,77895,1,2,0:2:0:0:
28,144,78020,6,0,L|52:216,1,70,2|2,3:2|0:2,0:2:0:0:
20,296,78270,2,0,L|44:368,1,70,10|2,0:2|3:2,0:2:0:0:
132,364,78520,2,0,L|204:340,1,70,2|2,0:2|3:2,0:2:0:0:
284,372,78770,2,0,L|356:348,1,70,10|2,0:2|0:2,0:2:0:0:
440,356,79020,6,0,L|456:312,3,35,2|2|2|2,3:2|3:2|3:2|3:2,0:2:0:0:
464,312,79270,2,0,L|480:268,3,35,10|0|2|0,0:2|0:0|3:2|0:0,0:0:0:0:
484,264,79520,2,0,P|422:245|340:224,1,140,2|10,0:0|0:2,0:0:0:0:
176,288,80020,6,0,L|96:316,1,70,6|2,3:2|0:2,0:0:0:0:
20,328,80270,1,10,0:2:0:0:
20,328,80395,2,0,P|35:263|60:176,1,140,2|2,3:2|3:2,0:2:0:0:
72,104,80770,2,0,P|104:80|140:76,1,70,10|2,0:2|0:2,0:2:0:0:
224,108,81020,5,10,0:2:0:0:
224,108,81145,2,0,B|304:116|272:56|360:64,1,140,2|2,3:2|3:2,0:2:0:0:
432,104,81520,2,0,L|448:152,3,35,10|2|2|2,0:2|0:2|3:2|0:2,0:2:0:0:
456,152,81770,2,0,L|472:196,3,35,10|2|2|2,0:2|0:2|0:2|0:2,0:2:0:0:
468,204,82020,6,0,L|492:284,1,70,10|0,0:2|3:2,0:2:0:0:
432,344,82270,2,0,L|352:368,1,70,10|0,0:2|3:2,0:2:0:0:
288,316,82520,2,0,L|220:295,1,70,10|0,0:2|3:2,0:2:0:0:
136,332,82770,2,0,L|56:356,1,70,10|8,0:2|0:2,0:0:0:0:
52,356,82957,5,0,0:0:0:0:
36,360,83020,2,0,L|25:326,4,35,2|0|0|0|10,3:2|3:2|3:2|3:2|0:2,0:2:0:0:
80,256,83395,1,8,0:2:0:0:
80,256,83520,2,0,L|40:104,1,140,2|14,3:2|3:2,0:2:0:0:
204,28,84020,6,0,P|227:45|260:48,5,46.6666666666667,6|2|2|2|2|2,3:2|0:2|0:2|0:2|0:2|0:2,0:0:0:0:
320,28,84520,6,0,P|343:10|376:8,5,46.6666666666667,6|2|2|2|2|2,3:2|0:2|0:2|0:2|0:2|0:2,0:0:0:0:
436,32,85020,6,0,P|462:140|492:272,1,224,0|4,3:2|0:2,0:2:0:0:
144,372,86020,6,0,P|112:336|156:244,1,140,10|2,0:2|0:0,0:0:0:0:
292,164,86520,2,0,P|324:128|280:36,1,140,2|2,0:2|0:0,0:0:0:0:
120,24,87020,6,0,L|68:44,5,46.6666666666667,6|2|2|2|2|2,3:2|0:0|0:0|0:0|0:0|0:0,0:0:0:0:
80,116,87520,6,0,L|28:136,5,46.6666666666667,2|2|2|2|2|2,0:2|0:0|0:0|0:0|0:0|0:0,0:0:0:0:
136,168,88020,6,0,L|188:188,5,46.6666666666667,10|2|2|2|2|2,0:2|0:0|0:0|0:0|0:0|0:0,0:0:0:0:
176,260,88520,6,0,L|228:280,5,46.6666666666667,2|2|2|2|2|2,0:2|0:0|0:0|0:0|0:0|0:0,0:0:0:0:
136,328,89020,6,0,L|32:368,2,93.3333333333333,0|0|0,3:2|3:2|3:2,0:0:0:0:
276,340,89520,6,0,L|380:380,2,93.3333333333333,0|0|0,3:2|3:2|3:2,0:0:0:0:
240,204,90020,6,0,P|220:136|272:80,1,140,10|2,0:2|0:0,0:0:0:0:
464,124,90520,2,0,P|484:188|445:242,1,140,2|2,0:2|0:0,0:0:0:0:
276,340,91020,6,0,L|228:356,5,46.6666666666667,6|2|2|2|2|2,3:2|0:0|0:0|0:0|0:0|0:0,0:0:0:0:
168,320,91520,6,0,L|123:305,5,46.6666666666667,2|2|2|2|2|2,0:2|0:0|0:0|0:0|0:0|0:0,0:0:0:0:
52,324,92020,6,0,P|36:292|36:272,5,46.6666666666667,10|2|2|2|2|2,0:2|0:0|0:0|0:0|0:0|0:0,0:0:0:0:
88,228,92520,6,0,P|104:196|104:176,5,46.6666666666667,6|2|2|2|2|2,3:2|0:0|0:0|0:0|0:0|0:0,0:0:0:0:
52,132,93020,6,0,L|40:88,4,35,0|0|0|0|2,3:2|3:2|3:2|3:2|0:2,0:0:0:0:
232,24,93520,2,0,L|241:57,4,35,0|0|0|0|2,3:2|3:2|3:2|3:2|0:2,0:0:0:0:
336,208,94020,6,0,P|384:252|468:244,1,140,10|2,0:2|0:2,0:0:0:0:
484,168,94395,1,0,0:0:0:0:
484,168,94520,2,0,P|436:124|352:132,1,140,2|2,0:0|0:2,0:0:0:0:
184,152,95020,6,0,L|168:84,5,46.6666666666667,6|2|2|2|2|2,3:2|0:0|0:0|0:0|0:0|0:0,0:0:0:0:
96,104,95520,6,0,L|106:149,5,46.6666666666667,2|2|2|2|2|2,0:2|0:0|0:0|0:0|0:0|0:0,0:0:0:0:
145,214,96020,6,0,L|156:260,5,46.6666666666667,10|2|2|2|2|2,0:2|0:0|0:0|0:0|0:0|0:0,0:0:0:0:
92,308,96520,6,0,L|81:262,5,46.6666666666667,6|2|2|2|2|2,0:2|0:0|0:0|0:0|0:0|0:0,0:0:0:0:
164,336,97020,6,0,L|264:360,2,84,6|2|2,3:2|0:0|0:0,0:0:0:0:
155,259,97520,2,0,L|236:278,2,84,10|2|2,3:2|0:0|0:0,0:0:0:0:
112,192,98020,2,0,P|88:120|200:56,1,224,2|10,3:2|3:2,0:0:0:0:
336,128,98770,2,0,L|400:108,1,56,8|10,3:2|0:2,0:0:0:0:
464,140,99020,6,0,P|484:100|468:48,2,84,2|2|2,3:2|0:0|0:0,0:0:0:0:
404,192,99520,2,0,P|398:232|417:269,2,84,10|2|2,3:2|0:0|0:0,0:0:0:0:
389,111,100020,2,0,P|296:84|157:47,1,224,2|10,3:2|3:2,0:0:0:0:
48,144,100770,2,0,L|68:212,1,56,8|10,3:2|0:2,0:0:0:0:
88,284,101020,5,6,3:2:0:0:
88,284,101145,2,0,P|52:304|20:304,2,62.9999980773926,0|0|2,3:2|3:2|3:2,0:0:0:0:
168,248,101520,2,0,P|198:252|225:269,2,62.9999980773926,2|0|0,3:2|3:2|3:2,0:0:0:0:
116,80,102020,5,6,3:2:0:0:
116,80,102145,2,0,L|136:8,2,62.9999980773926,0|0|2,3:2|3:2|3:2,0:0:0:0:
192,124,102520,2,0,L|212:52,2,62.9999980773926,2|0|0,3:2|3:2|3:2,0:0:0:0:
268,168,102895,1,2,3:2:0:0:
268,168,103020,6,0,L|320:152,5,46.6666666666667,14|8|8|10|8|8,0:2|0:2|0:2|0:2|0:2|0:2,0:0:0:0:
352,88,103520,6,0,L|404:72,5,46.6666666666667,14|8|8|10|8|8,0:2|0:2|0:2|0:2|0:2|0:2,0:0:0:0:
480,56,104020,6,0,L|469:89,6,35,14|8|8|8|10|8|8,0:2|0:2|0:2|0:2|0:2|0:2|0:2,0:2:0:0:
411,167,104520,2,0,L|422:201,6,35,14|8|8|8|10|8|8,0:2|0:2|0:2|0:2|0:2|0:2|0:2,0:0:0:0:
412,304,105020,6,0,B|448:288|472:312|500:288|500:288|456:204|268:224|352:376|232:520|-32:408|-60:196|92:112|208:96|252:216,1,896,6|0,3:2|0:2,0:0:0:0:
488,24,112020,6,0,P|424:43|332:76,1,140,6|10,3:2|0:2,0:2:0:0:
268,40,112395,2,0,L|188:20,1,70,2|0,0:2|3:2,0:2:0:0:
112,32,112645,1,2,0:2:0:0:
112,32,112770,2,0,P|88:60|84:108,1,70,10|0,0:2|0:2,0:2:0:0:
156,156,113020,5,2,3:2:0:0:
156,156,113145,2,0,P|196:208|176:288,1,140,2|2,0:2|0:2,0:2:0:0:
132,352,113520,2,0,L|208:376,1,70,2|2,3:2|0:2,0:0:0:0:
288,356,113770,2,0,L|340:372,3,35,10|2|2|2,0:2|0:2|0:2|0:2,0:2:0:0:
340,372,114020,6,0,L|364:292,1,70,2|2,3:2|0:2,0:0:0:0:
404,224,114270,1,10,0:2:0:0:
404,224,114395,2,0,B|332:232|348:180|260:188,1,140,2|2,0:2|0:2,0:2:0:0:
188,228,114770,2,0,P|156:248|112:248,1,70,10|0,0:2|0:2,0:2:0:0:
56,192,115020,5,2,3:2:0:0:
56,192,115145,2,0,P|20:136|52:56,1,140,2|2,0:2|0:2,0:2:0:0:
120,32,115520,2,0,L|196:56,1,70,2|2,3:2|0:2,0:0:0:0:
276,76,115770,2,0,L|342:54,1,70,10|2,0:2|0:2,0:0:0:0:
432,32,116020,2,0,P|460:64|460:96,1,70,2|0,3:2|0:0,0:2:0:0:
416,168,116270,6,0,P|404:196|404:216,2,46.6666666666667,10|2|2,0:2|0:2|0:2,0:2:0:0:
480,208,116520,6,0,P|516:268|484:344,1,140,2|10,3:2|0:2,0:2:0:0:
316,328,117020,6,0,P|267:314|212:300,1,93.3333333333333,2|2,3:2|0:2,0:0:0:0:
152,336,117270,6,0,P|106:348|61:360,1,93.3333333333333,10|2,0:2|0:2,0:0:0:0:
16,304,117520,6,0,L|32:248,2,46.6666666666667,2|2|2,3:2|0:2|0:2,0:0:0:0:
80,204,117770,6,0,L|64:148,2,46.6666666666667,10|0|0,0:2|0:0|0:0,0:0:0:0:
12,108,118020,6,0,L|28:56,3,35,6|0|2|0,3:2|3:2|3:2|3:2,0:2:0:0:
160,72,118395,6,0,L|144:20,3,35,2|0|2|0,3:2|3:2|3:2|3:2,0:2:0:0:
272,100,118770,6,0,L|288:48,3,35,2|0|2|0,3:2|3:2|3:2|3:2,0:2:0:0:
296,52,119020,6,0,L|329:40,6,35,2|0|2|0|2|0|2,3:2|3:2|3:2|3:2|3:2|3:2|3:2,0:2:0:0:
408,84,119520,2,0,L|456:68,6,35,10|0|10|0|10|0|10,3:2|3:2|3:2|3:2|3:2|3:2|3:2,0:0:0:0:
512,148,120020,6,0,P|494:214|472:304,1,140,6|10,3:2|0:2,0:2:0:0:
408,344,120395,1,2,0:2:0:0:
408,344,120520,2,0,L|324:320,1,70,2|2,3:2|0:2,0:0:0:0:
260,284,120770,1,10,0:2:0:0:
260,284,120895,1,2,0:2:0:0:
180,328,121020,6,0,P|152:348|104:344,1,70,2|2,3:2|0:2,0:0:0:0:
52,288,121270,2,0,P|32:260|36:212,1,70,10|2,0:2|0:2,0:0:0:0:
100,164,121520,6,0,P|120:152|156:148,5,46.6666666666667,2|0|0|10|0|0,3:2|0:0|0:0|0:2|0:0|0:0,0:2:0:0:
212,184,122020,5,2,3:2:0:0:
212,184,122145,2,0,L|284:208,1,70,2|10,0:2|0:2,0:0:0:0:
364,252,122395,1,2,0:2:0:0:
364,252,122520,2,0,P|428:227|496:204,1,140,2|10,3:2|0:2,0:0:0:0:
504,112,122895,5,2,0:2:0:0:
504,112,123020,2,0,P|500:76|480:48,1,70,2|2,3:2|0:2,0:0:0:0:
396,16,123270,2,0,P|360:20|332:40,1,70,10|2,0:2|0:2,0:0:0:0:
256,88,123520,2,0,B|184:96|200:44|112:52,1,140,2|10,3:2|0:2,0:2:0:0:
44,96,123895,5,2,3:2:0:0:
44,96,124020,2,0,L|24:180,1,70,6|8,3:2|0:2,0:2:0:0:
60,248,124270,1,2,3:2:0:0:
60,248,124395,1,10,0:2:0:0:
20,328,124520,2,0,L|108:352,1,70,2|8,3:2|0:2,0:2:0:0:
168,300,124770,2,0,L|235:281,1,70,2|8,3:2|0:2,0:0:0:0:
320,320,125020,6,0,P|385:341|464:368,1,140,2|2,3:2|3:2,0:2:0:0:
500,288,125395,1,10,0:2:0:0:
500,288,125520,2,0,L|480:216,1,70,2|8,3:2|0:2,0:2:0:0:
424,152,125770,2,0,L|444:80,1,70,2|8,3:2|0:2,0:0:0:0:
504,20,126020,6,0,P|441:39|348:68,1,140,14|10,0:2|0:0,0:0:0:0:
292,112,126395,1,2,3:2:0:0:
292,112,126520,2,0,P|225:91|158:70,1,140,10|10,0:2|0:2,0:2:0:0:
72,40,126895,5,2,3:2:0:0:
72,40,127020,1,10,0:2:0:0:
20,116,127145,2,0,L|29:149,6,35,2|2|2|2|2|2|10,3:2|3:2|3:2|3:2|3:2|3:2|0:2,0:0:0:0:
116,188,127645,1,2,3:2:0:0:
116,188,127770,2,0,L|200:212,1,70,10|2,0:2|3:2,0:0:0:0:
276,156,128020,6,0,L|309:144,6,35,6|0|2|2|2|0|2,3:2|3:2|3:2|3:2|3:2|3:2|3:2,0:2:0:0:
392,180,128520,2,0,L|425:191,6,35,2|2|2|2|2|0|2,3:2|3:2|3:2|3:2|3:2|3:2|3:2,0:0:0:0:
504,248,129020,5,6,3:2:0:0:
504,248,129145,2,0,L|480:332,1,70,10|2,0:2|3:2,0:0:0:0:
408,364,129395,2,0,P|341:341|260:316,1,140,10|10,0:2|0:2,0:2:0:0:
192,280,129770,2,0,L|116:304,1,70,2|10,3:2|0:2,0:0:0:0:
44,340,130020,5,2,3:2:0:0:
44,340,130145,2,0,P|16:300|20:268,1,70,10|2,0:2|3:2,0:0:0:0:
72,208,130395,1,10,0:2:0:0:
72,208,130520,2,0,P|100:168|96:136,1,70,2|10,3:2|0:2,0:0:0:0:
60,68,130770,1,2,3:2:0:0:
60,68,130895,2,0,L|-8:48,2,70,10|2|10,0:2|3:2|0:2,0:0:0:0:
144,36,131270,5,2,3:2:0:0:
144,36,131395,2,0,L|296:76,1,140,10|10,0:2|0:2,0:2:0:0:
368,64,131770,2,0,L|376:24,2,35,2|0|10,3:2|3:2|0:2,0:0:0:0:
420,136,132020,5,6,3:2:0:0:
420,136,132145,2,0,L|448:224,1,70,10|2,0:2|3:2,0:0:0:0:
384,276,132395,1,10,0:2:0:0:
384,276,132520,2,0,L|296:304,1,70,2|10,3:2|0:2,0:0:0:0:
232,264,132770,2,0,L|176:248,2,35,2|0|10,3:2|3:2|0:2,0:2:0:0:
304,208,133020,5,2,3:2:0:0:
304,208,133145,2,0,L|280:136,1,70,10|2,0:2|3:2,0:0:0:0:
224,72,133395,1,10,0:2:0:0:
224,72,133520,2,0,P|184:48|88:84,1,140,2|2,3:2|3:2,0:0:0:0:
28,168,134020,6,0,L|37:201,6,35,6|2|10|2|2|2|10,3:2|0:2|0:2|0:2|3:2|3:2|0:2,0:2:0:0:
112,256,134520,2,0,L|102:289,6,35,2|2|10|2|2|2|10,3:2|0:2|0:2|0:2|3:2|3:2|0:2,0:0:0:0:
68,376,135020,6,0,L|152:356,1,70,10|2,0:2|3:2,0:2:0:0:
204,300,135270,2,0,L|288:280,1,70,10|2,0:2|3:2,0:0:0:0:
360,312,135520,2,0,L|444:292,1,70,10|2,0:2|3:2,0:0:0:0:
492,232,135770,2,0,L|536:220,4,35,10|8|8|8|6,0:2|0:2|0:2|0:2|3:2,0:2:0:0:
40,24,138020,6,0,L|31:57,10,35,6|0|2|0|2|0|2|0|2|0|2,3:2|3:2|3:2|3:2|3:2|3:2|3:2|3:2|3:2|3:2|3:2,0:2:0:0:
80,136,138770,2,0,L|116:256,1,105,2|2,3:2|0:0,0:0:0:0:
116,252,139020,6,0,L|148:264,10,35,6|0|2|0|2|0|2|0|2|0|2,3:2|3:2|3:2|3:2|3:2|3:2|3:2|3:2|3:2|3:2|3:2,0:2:0:0:
224,316,139770,2,0,P|276:298|340:280,1,105,2|0,3:2|0:0,0:0:0:0:
340,288,140020,6,0,L|416:312,1,56,6|2,3:2|0:2,0:2:0:0:
444,156,140395,2,0,L|520:180,1,56,2|2,0:2|0:2,0:2:0:0:
340,192,140770,2,0,L|264:216,1,56,2|2,0:2|0:2,0:2:0:0:
236,60,141145,2,0,L|160:84,1,56,2|2,0:2|0:2,0:2:0:0:
28,104,141520,6,0,P|64:148|60:212,1,112,2|2,0:2|0:2,0:0:0:0:
20,352,142020,6,0,P|40:368|80:368,1,56,2|2,0:2|0:2,0:2:0:0:
216,320,142395,2,0,P|196:304|156:304,1,56,2|2,0:2|0:2,0:2:0:0:
312,360,142770,2,0,P|336:324|332:292,1,56,2|2,0:2|0:2,0:2:0:0:
228,200,143145,2,0,P|204:164|208:132,1,56,2|2,0:2|0:2,0:2:0:0:
312,36,143520,6,0,L|376:20,1,56,2|2,0:2|0:2,0:2:0:0:
436,56,143770,2,0,L|452:119,1,56,2|2,0:2|3:2,0:0:0:0:
460,120,143957,5,0,3:0:0:0:
468,128,144020,2,0,L|484:191,1,56,6|2,3:2|0:2,0:2:0:0:
352,272,144395,2,0,L|338:217,1,56,2|2,0:2|0:2,0:2:0:0:
212,124,144770,2,0,L|228:187,1,56,2|2,0:2|0:2,0:2:0:0:
96,268,145145,2,0,L|82:213,1,56,2|2,0:2|0:2,0:2:0:0:
24,68,145520,6,0,B|84:68|72:36|136:36,1,112,2|2,0:2|0:2,0:0:0:0:
284,56,146020,6,0,P|307:75|344:80,1,56,2|2,0:2|0:2,0:2:0:0:
432,200,146395,2,0,P|405:206|383:224,1,56,2|2,0:2|0:2,0:2:0:0:
256,136,146770,2,0,P|279:155|316:160,1,56,2|2,0:2|0:2,0:2:0:0:
364,304,147145,2,0,P|337:310|315:328,1,56,2|2,0:2|0:2,0:2:0:0:
164,368,147520,6,0,L|144:304,1,56,2|2,0:2|0:2,0:2:0:0:
68,300,147770,2,0,L|48:236,1,56,2|10,0:2|0:2,0:0:0:0:
40,236,147957,5,8,0:0:0:0:
28,224,148020,2,0,L|8:160,1,62.9999980773926,6|2,3:2|0:0,0:2:0:0:
44,84,148270,1,8,0:2:0:0:
44,84,148395,2,0,P|80:56|164:68,1,125.999996154785,2|0,3:2|3:2,0:2:0:0:
232,116,148770,1,10,0:2:0:0:
232,116,148895,1,2,0:2:0:0:
392,44,149145,5,2,3:2:0:0:
392,44,149270,2,0,P|412:72|416:112,1,62.9999980773926,10|8,0:2|0:2,0:0:0:0:
396,184,149520,2,0,P|341:202|272:228,1,125.999996154785,2|10,3:2|0:2,0:2:0:0:
192,204,149895,5,8,0:2:0:0:
192,204,150020,2,0,L|120:184,1,62.9999980773926,2|2,3:2|0:0,0:2:0:0:
52,224,150270,1,8,0:2:0:0:
52,224,150395,2,0,P|28:256|52:332,1,125.999996154785,2|0,3:2|3:2,0:2:0:0:
136,372,150770,1,10,0:2:0:0:
136,372,150895,1,2,0:2:0:0:
300,312,151145,5,2,3:2:0:0:
300,312,151270,2,0,L|372:288,1,62.9999980773926,10|8,0:2|0:2,0:2:0:0:
444,324,151520,2,0,P|454:290|468:252,1,62.9999980773926,2|2,3:2|3:2,0:0:0:0:
412,192,151770,2,0,P|401:158|388:120,1,62.9999980773926,10|10,0:2|0:2,0:0:0:0:
436,56,152020,5,2,3:2:0:0:
436,56,152145,2,0,P|408:36|372:32,1,62.9999980773926,2|8,3:2|0:2,0:0:0:0:
304,76,152395,1,2,3:2:0:0:
304,76,152520,2,0,B|240:84|256:32|168:40,1,125.999996154785,2|10,3:2|3:2,0:0:0:0:
116,92,152895,1,2,3:2:0:0:
116,92,153020,6,0,L|96:144,2,41.9999987182618,0|0|0,3:2|3:2|3:2,0:2:0:0:
40,180,153270,2,0,L|64:260,1,62.9999980773926,8|8,0:2|3:2,0:2:0:0:
124,300,153520,6,0,L|176:280,2,41.9999987182618,2|0|0,3:2|3:0|3:0,0:0:0:0:
224,236,153770,2,0,L|300:260,1,62.9999980773926,10|8,0:2|3:2,0:2:0:0:
372,312,154020,6,0,L|428:295,6,46.6666666666667,4|0|0|0|0|0|0,3:2|3:2|3:2|3:2|3:2|3:2|3:2,0:0:0:0:
482,149,154770,2,0,L|434:132,6,46.6666666666667,4|0|0|0|0|0|0,3:2|3:2|3:2|3:2|3:2|3:2|3:2,0:0:0:0:
314,45,155520,2,0,P|274:25|246:25,1,70,8|0,0:2|1:2,0:2:0:0:
234,33,155707,1,0,1:2:0:0:
221,45,155770,2,0,P|210:57|194:66,2,35,0|0|8,1:2|1:2|0:2,0:2:0:0:
94,37,156020,6,0,L|82:88,6,46.6666666666667,4|0|0|0|0|0|0,3:2|3:2|3:2|3:2|3:2|3:2|3:2,0:0:0:0:
15,216,156770,2,0,L|28:265,2,46.6666666666667,4|0|0,3:2|3:2|3:2,0:0:0:0:
36,270,157020,6,0,P|19:324|4:378,2,93.3333333333333,4|2|2,3:2|3:2|3:2,0:2:0:0:
147,201,157520,6,0,P|161:150|176:100,2,93.3333333333333,2|2|2,3:2|3:2|3:2,0:2:0:0:
196,322,158020,6,0,P|164:362|100:366,2,93.3333333333333,2|2|2,3:2|3:2|3:2,0:2:0:0:
281,222,158520,6,0,P|331:230|363:270,2,93.3333333333333,2|2|2,3:2|3:2|3:2,0:2:0:0:
52,19,160020,6,0,L|20:32,6,35,6|0|0|0|0|0|0,3:2|3:2|3:2|3:2|3:2|3:2|3:2,0:0:0:0:
136,56,160520,2,0,P|186:70|260:92,1,105,6|0,3:2|3:2,0:2:0:0:
252,80,160770,2,0,P|302:65|352:50,1,105,0|0,3:2|3:2,0:2:0:0:
367,47,161020,6,0,P|380:59|391:73,6,35,6|0|0|0|0|0|0,3:2|3:2|3:2|3:2|3:2|3:2|3:2,0:0:0:0:
348,156,161520,2,0,P|316:196|328:256,1,105,6|0,3:2|3:2,0:2:0:0:
332,260,161770,2,0,P|364:300|352:360,1,105,0|0,3:2|3:2,0:2:0:0:
344,360,162020,6,0,L|310:371,6,35,6|0|0|0|0|0|0,3:2|3:2|3:2|3:2|3:2|3:2|3:2,0:0:0:0:
224,340,162520,2,0,L|84:300,1,140,4|2,3:2|3:2,0:0:0:0:
44,124,163020,6,0,P|36:96|40:68,5,46.6666666666667,6|0|0|2|0|0,3:2|3:2|3:2|3:2|3:2|3:2,0:0:0:0:
116,72,163520,6,0,P|124:100|120:128,5,46.6666666666667,6|0|0|2|0|0,3:2|3:2|3:2|3:2|3:2|3:2,0:0:0:0:
69,12,164020,5,6,3:2:0:0:
