osu file format v14

[General]
AudioFilename: audio.mp3
AudioLeadIn: 0
PreviewTime: 107270
Countdown: 0
SampleSet: Soft
StackLeniency: 0.2
Mode: 0
LetterboxInBreaks: 0
WidescreenStoryboard: 0

[Editor]
Bookmarks: 28895,30895,101520,111645
DistanceSpacing: 1.3
BeatDivisor: 4
GridSize: 32
TimelineZoom: 3.699999

[Metadata]
Title:Enkindle feat. vally.exe
TitleUnicode:Enkindle feat. vally.exe
Artist:Zenpaku
ArtistUnicode:Zenpaku
Creator:Kujinn
Version:Ignite
Source:
Tags:Reform Ermi Modding Queue Yumerios Pepekcz Kirishima- dj-jo dj jo japanese instrumental electronic artcore
BeatmapID:3607872
BeatmapSetID:1762718

[Difficulty]
HPDrainRate:5
CircleSize:4.5
OverallDifficulty:10
ApproachRate:10
SliderMultiplier:2
SliderTickRate:1

[Events]
//Background and Video events
0,0,"220216_enkindle_album_cover_OSU_Version_Smaller.jpg",0,0
//Break Periods
2,107220,110520
2,144220,147070
//Storyboard Layer 0 (Background)
//Storyboard Layer 1 (Fail)
//Storyboard Layer 2 (Pass)
//Storyboard Layer 3 (Foreground)
//Storyboard Layer 4 (Overlay)
//Storyboard Sound Samples

[TimingPoints]
520,250,4,2,1,60,1,0
520,-200,4,2,1,60,0,0
2020,-333.333333333333,4,2,1,60,0,0
2520,-200,4,2,1,60,0,0
6020,-333.333333333333,4,2,1,60,0,0
6520,-200,4,2,1,60,0,0
8520,-95.238095238095,4,2,1,70,0,0
14520,-95.238095238095,4,2,2,80,0,0
16020,-95.238095238095,4,2,2,60,0,0
16520,-95.238095238095,4,2,2,80,0,0
17520,-95.238095238095,4,2,1,80,0,0
19020,250,4,2,3,60,1,0
19020,-117.647058823529,4,2,3,60,0,0
25020,-117.647058823529,4,2,2,80,0,0
26270,-117.647058823529,4,2,3,70,0,0
27020,-80,4,2,3,70,0,0
28520,-95.2380952380954,4,2,2,70,0,0
29020,-95.2380952380954,4,2,3,70,0,0
30520,-95.2380952380954,4,2,2,70,0,0
31020,-80,4,2,3,70,0,0
33020,-95.2380952380954,4,2,2,80,0,0
34520,-80,4,2,3,80,0,0
35020,-117.647058823529,4,2,4,70,0,0
35770,-68.9655172413793,4,2,4,70,0,0
37020,-51.2820512820513,4,2,4,70,0,0
37770,-68.9655172413793,4,2,4,70,0,0
38270,-68.9655172413793,4,2,4,70,0,0
38520,-68.9655172413793,4,2,4,70,0,0
39020,-74.0740740740741,4,2,4,70,0,0
39520,-64.5161290322581,4,2,4,70,0,0
39770,-68.9655172413793,4,2,4,70,0,0
40520,-68.9655172413793,4,2,4,70,0,0
41020,-54.054054054054,4,2,4,70,0,0
42332,-95.2380952380952,4,2,4,70,0,0
42520,-95.2380952380952,4,2,3,60,0,0
43020,-86.9565217391304,4,2,3,60,0,0
43145,-86.9565217391304,4,2,5,70,0,0
49020,-86.9565217391304,4,2,2,80,0,0
50520,-74.0740740740741,4,2,3,70,0,0
51020,-74.0740740740741,4,2,1,60,0,0
52020,-40.8163265306122,4,2,6,90,0,0
52270,-54.054054054054,4,2,6,90,0,0
53020,-44.4444444444445,4,2,6,90,0,0
53270,-68.9655172413793,4,2,6,90,0,0
53770,-40.8163265306122,4,2,6,90,0,0
54270,-44.4444444444445,4,2,6,90,0,0
54645,-60.6060606060606,4,2,6,90,0,0
56020,-37.7358490566038,4,2,6,90,0,0
56270,-44.4444444444445,4,2,6,90,0,0
57020,-57.1428571428571,4,2,6,90,0,0
60270,-48.780487804878,4,2,6,90,0,0
60770,-95.2380952380952,4,2,6,90,0,0
60895,-54.054054054054,4,2,6,90,0,0
63020,-74.0740740740741,4,2,6,90,0,0
66020,-105.263157894737,4,2,2,50,0,0
68020,-133.333333333334,4,2,1,60,0,0
68770,-400.000000000006,4,2,1,60,0,0
70395,-133.333333333334,4,2,1,60,0,0
70770,-400.000000000006,4,2,1,60,0,0
71207,-133.333333333334,4,2,1,60,0,0
75520,-133.333333333334,4,2,1,70,0,0
76020,-105.263157894737,4,2,1,70,0,0
83020,-74.0740740740742,4,2,1,70,0,0
83770,-400,4,2,1,70,0,0
84020,-400,4,2,1,60,0,0
86020,-400,4,2,7,80,0,0
89020,-400,4,2,7,70,0,0
90020,-400,4,2,7,80,0,0
93020,-400,4,2,7,70,0,0
94020,-400,4,2,7,80,0,0
97020,-117.647058823529,4,2,8,70,0,0
101020,-117.647058823529,4,2,8,80,0,0
103020,-117.647058823529,4,2,6,80,0,0
105020,-1000,4,2,1,80,0,0
111457,-80,4,2,1,80,0,0
112020,-44.4444444444445,4,2,9,90,0,0
112270,-60.6060606060606,4,2,9,90,0,0
112395,-57.1428571428571,4,2,9,90,0,0
112770,-54.054054054054,4,2,9,90,0,0
113020,-54.054054054054,4,2,9,90,0,0
113145,-46.5116279069767,4,2,9,90,0,0
113395,-51.2820512820513,4,2,9,90,0,0
114395,-44.4444444444445,4,2,9,90,0,0
114645,-54.054054054054,4,2,9,90,0,0
114770,-46.5116279069767,4,2,9,90,0,0
115145,-54.054054054054,4,2,9,90,0,0
116020,-54.054054054054,4,2,9,90,0,0
116270,-74.0740740740741,4,2,9,90,0,0
120020,-54.054054054054,4,2,9,90,0,0
121020,-57.1428571428571,4,2,9,90,0,0
127520,-117.647058823529,4,2,9,90,0,0
128020,-57.1428571428571,4,2,9,100,0,0
136020,-153.846153846154,4,2,9,70,0,0
138020,-95.2380952380953,4,2,2,100,0,0
139770,-400,4,2,2,100,0,0
140020,-400,4,2,1,70,0,0
147520,-95.2380952380952,4,2,1,70,0,0
148020,-95.2380952380952,4,2,1,80,0,0
154020,-95.2380952380952,4,2,2,80,0,0
157020,-95.2380952380952,4,2,1,90,0,0
157520,-74.0740740740741,4,2,1,90,0,0
158020,-60.6060606060606,4,2,1,90,0,0
159645,-399.999999999997,4,2,1,90,0,0
160020,-95.2380952380951,4,2,2,100,0,0
162770,-181.818181818182,4,2,2,80,0,0
163020,-95.2380952380951,4,2,2,100,0,0
164020,-95.2380952380951,4,2,1,100,0,0

[Colours]
Combo1 : 222,73,118
Combo2 : 112,77,215
Combo3 : 192,95,28
Combo4 : 255,189,156

[HitObjects]
85,87,520,6,0,L|72:19,1,50,6|2,3:2|0:2,0:2:0:0:
78,95,895,2,0,L|65:27,1,50,2|2,0:2|0:2,0:2:0:0:
320,219,1270,6,0,L|333:151,1,50,2|2,0:2|0:2,0:2:0:0:
327,227,1645,2,0,L|340:159,1,50,2|2,0:2|0:2,0:2:0:0:
26,345,2020,6,0,B|37:371|37:371|67:357,1,59.9999981689454,2|2,0:2|0:2,0:0:0:0:
475,30,2520,6,0,L|410:15,1,50,2|2,0:2|0:2,0:2:0:0:
463,36,2895,2,0,L|398:21,1,50,2|2,0:2|0:2,0:2:0:0:
215,203,3270,6,0,L|150:218,1,50,2|2,0:2|0:2,0:2:0:0:
203,197,3645,2,0,L|138:212,1,50,2|2,0:2|0:2,0:2:0:0:
8,33,4020,6,0,B|18:11|18:11|46:24,1,50,2|2,0:2|0:2,0:2:0:0:
66,98,4270,2,0,B|56:120|56:120|28:107,1,50,2|2,0:2|0:2,0:0:0:0:
192,43,4520,6,0,L|206:113,1,50,2|2,0:2|0:2,0:2:0:0:
201,48,4895,2,0,L|215:118,1,50,2|2,0:2|0:2,0:2:0:0:
391,202,5270,6,0,L|377:272,1,50,2|2,0:2|0:2,0:2:0:0:
382,207,5645,2,0,L|368:277,1,50,2|2,0:2|0:2,0:2:0:0:
91,279,6020,6,0,B|84:250|84:250|116:241,1,59.9999981689454,2|2,0:2|0:2,0:0:0:0:
434,372,6520,6,0,L|494:359,1,50,2|2,0:2|0:2,0:2:0:0:
445,362,6895,2,0,L|505:349,1,50,2|2,0:2|0:2,0:2:0:0:
343,73,7270,6,0,L|403:86,1,50,2|2,0:2|0:2,0:2:0:0:
352,83,7645,2,0,L|412:96,1,50,2|2,0:2|0:2,0:2:0:0:
296,239,8020,6,0,B|306:214|306:214|327:221,1,50,2|2,0:2|0:2,0:2:0:0:
365,286,8271,2,0,B|355:311|355:311|333:303,1,50,2|2,0:2|0:2,0:0:0:0:
227,210,8520,6,0,B|234:189|234:189|175:131|175:131|150:210|150:210|167:227,1,209.999993591309,6|8,3:2|0:2,0:2:0:0:
99,293,8895,6,0,B|106:313|106:313|47:371|47:371|22:292|22:292|39:275,1,209.999993591309,2|0,3:2|3:2,0:2:0:0:
222,338,9270,5,10,0:2:0:0:
230,345,9395,2,0,P|281:341|325:387,1,104.999996795654,2|0,0:2|0:2,0:2:0:0:
389,291,9645,1,2,3:2:0:0:
394,282,9770,2,0,P|381:228|366:166,1,104.999996795654,10|0,0:2|0:2,0:2:0:0:
467,99,10020,5,2,3:2:0:0:
476,101,10145,1,0,3:2:0:0:
425,30,10270,2,0,B|377:19|377:19|373:20|373:20|320:8,1,104.999996795654,10|0,0:2|0:2,0:2:0:0:
120,106,10520,6,0,B|73:69|96:-2|158:-14|206:46|179:102,1,209.999993591309,2|8,3:2|0:2,0:2:0:0:
307,222,10895,6,0,B|354:185|331:114|269:102|221:162|248:218,1,209.999993591309,2|0,3:2|3:2,0:2:0:0:
107,251,11270,5,10,0:2:0:0:
116,248,11395,2,0,P|166:259|183:313,1,104.999996795654,2|0,0:2|0:2,0:2:0:0:
402,324,11645,5,2,3:2:0:0:
395,317,11770,2,0,P|345:303|305:342,1,104.999996795654,10|0,0:2|0:2,0:2:0:0:
280,185,12020,6,0,L|263:255,1,52.4999983978272,2|0,3:2|0:0,0:0:0:0:
288,181,12145,2,0,L|271:251,1,52.4999983978272,2|0,3:2|0:0,0:0:0:0:
415,58,12270,6,0,L|432:128,1,52.4999983978272,10|0,0:2|0:0,0:0:0:0:
407,54,12395,2,0,L|424:124,1,52.4999983978272,2|0,3:2|0:0,0:0:0:0:
284,86,12520,5,2,3:2:0:0:
441,202,12645,1,2,3:2:0:0:
291,77,12770,5,8,0:2:0:0:
448,193,12895,1,2,3:2:0:0:
181,308,13020,5,2,3:2:0:0:
202,114,13145,1,0,3:2:0:0:
169,306,13270,5,10,0:2:0:0:
191,112,13395,1,2,3:2:0:0:
70,324,13520,5,8,0:2:0:0:
263,195,13645,1,2,3:2:0:0:
272,198,13707,1,0,3:2:0:0:
281,201,13770,1,10,0:2:0:0:
44,199,13895,5,0,3:2:0:0:
266,346,14020,1,10,0:2:0:0:
182,109,14145,1,0,3:2:0:0:
183,98,14207,1,0,3:2:0:0:
185,88,14270,1,10,0:2:0:0:
141,367,14395,1,0,3:2:0:0:
442,217,14520,5,4,3:2:0:0:
400,160,14603,1,0,3:2:0:0:
330,157,14686,1,0,3:2:0:0:
272,198,14770,1,0,3:2:0:0:
242,261,14853,1,0,3:2:0:0:
177,286,14936,1,0,3:2:0:0:
118,245,15020,1,0,3:2:0:0:
105,164,15270,5,4,3:2:0:0:
162,122,15353,1,0,3:2:0:0:
230,141,15436,1,0,3:2:0:0:
272,198,15520,1,0,3:2:0:0:
281,267,15603,1,0,3:2:0:0:
335,311,15686,1,0,3:2:0:0:
404,290,15770,1,0,3:2:0:0:
492,38,16020,6,0,P|460:30|426:20,1,52.4999983978272,8|0,0:2|0:2,0:2:0:0:
369,63,16145,1,0,1:2:0:0:
360,59,16207,1,0,1:2:0:0:
346,56,16270,2,0,P|314:48|280:38,1,52.4999983978272,0|0,1:2|1:2,0:2:0:0:
232,90,16395,1,8,0:2:0:0:
0,16,16520,5,4,3:2:0:0:
70,15,16603,1,0,3:2:0:0:
118,64,16686,1,0,3:2:0:0:
112,134,16770,1,0,3:2:0:0:
104,203,16853,1,0,3:2:0:0:
149,255,16936,1,0,3:2:0:0:
218,246,17020,1,0,3:2:0:0:
499,145,17270,5,4,3:2:0:0:
428,143,17353,1,0,3:2:0:0:
381,193,17436,1,0,3:2:0:0:
387,263,17520,6,0,L|410:354,1,69.9999978637696,8|0,0:2|0:2,0:2:0:0:
186,124,17686,6,0,L|165:216,1,69.9999978637696,8|0,0:2|0:2,0:2:0:0:
393,0,17853,6,0,L|414:92,1,69.9999978637696,8|0,0:2|0:2,0:2:0:0:
0,367,19020,6,0,P|49:373|78:330,1,85.0000016212464,6|0,3:2|0:2,0:2:0:0:
100,189,19270,2,0,P|112:229|124:270,1,85.0000016212464,2|0,3:2|0:2,0:2:0:0:
180,121,19520,2,0,B|245:135|245:135|249:133|249:133|311:147,1,127.50000243187,2|0,3:2|0:2,0:2:0:0:
382,174,19770,5,2,3:2:0:0:
378,164,19895,1,2,0:2:0:0:
448,76,20020,5,2,3:2:0:0:
438,80,20145,1,2,0:2:0:0:
348,10,20270,5,2,3:2:0:0:
352,20,20395,1,2,0:2:0:0:
272,118,20520,5,2,3:2:0:0:
281,113,20645,2,0,L|254:7,1,85.0000016212464,2|0,0:2|3:2,0:0:0:0:
179,270,20895,5,2,0:2:0:0:
170,265,21020,2,0,L|197:159,1,85.0000016212464,2|0,3:2|0:2,0:2:0:0:
24,298,21270,2,0,L|130:325,1,85.0000016212464,2|0,3:2|0:2,0:2:0:0:
210,378,21520,5,2,3:2:0:0:
320,330,21645,1,0,0:0:0:0:
494,293,21770,5,2,3:2:0:0:
426,266,21895,1,2,0:2:0:0:
359,239,22020,2,0,P|355:196|402:158,1,85.0000016212464,10|0,3:2|0:0,0:2:0:0:
458,144,22270,1,10,0:2:0:0:
327,106,22395,2,0,P|362:81|418:102,1,85.0000016212464,10|0,0:2|3:0,0:2:0:0:
458,144,22645,1,10,0:2:0:0:
426,12,22770,2,0,P|465:30|474:89,1,85.0000016212464,10|0,0:2|0:0,0:0:0:0:
285,176,23020,6,0,P|237:161|192:147,1,85.0000016212464,6|0,3:2|0:2,0:2:0:0:
135,279,23270,2,0,P|104:250|104:209,1,85.0000016212464,2|0,3:2|0:2,0:2:0:0:
190,57,23520,2,0,P|142:72|51:100,1,127.50000243187,2|0,3:2|0:2,0:2:0:0:
21,148,23770,5,2,3:2:0:0:
29,157,23895,1,2,0:2:0:0:
181,214,24020,5,2,3:2:0:0:
173,223,24145,1,2,0:2:0:0:
177,370,24270,5,2,3:2:0:0:
165,367,24395,1,2,0:2:0:0:
56,340,24520,6,0,P|50:289|31:241,1,85.0000016212464,10|0,3:2|0:2,0:2:0:0:
235,56,24770,6,0,P|241:107|260:155,1,85.0000016212464,10|0,3:2|0:2,0:2:0:0:
512,226,25020,5,0,3:2:0:0:
452,192,25103,1,0,3:2:0:0:
388,214,25186,1,0,3:2:0:0:
353,273,25270,1,0,3:2:0:0:
341,340,25353,1,0,3:2:0:0:
284,378,25436,1,0,3:2:0:0:
219,355,25520,1,4,3:2:0:0:
194,226,25770,5,0,3:2:0:0:
254,192,25853,1,0,3:2:0:0:
318,214,25936,1,0,3:2:0:0:
353,273,26020,1,0,3:2:0:0:
365,340,26103,1,0,3:2:0:0:
422,378,26186,1,0,3:2:0:0:
489,346,26270,6,0,B|501:298|501:298|501:296|501:296|516:237,1,85.0000016212464,6|0,3:2|0:2,0:2:0:0:
452,202,26520,5,2,0:2:0:0:
457,206,26645,1,0,0:2:0:0:
507,143,26770,5,2,0:2:0:0:
512,147,26895,1,0,0:2:0:0:
368,11,27020,6,0,P|342:36|342:77,1,62.5,6|0,3:2|0:0,0:2:0:0:
233,37,27145,2,0,P|241:72|277:92,1,62.5,2|0,0:2|0:0,0:0:0:0:
223,171,27270,2,0,P|257:181|293:160,1,62.5,2|0,3:2|0:0,0:0:0:0:
381,148,27395,6,0,P|366:221|353:289,1,125,2|0,0:2|3:0,0:2:0:0:
364,275,27645,1,0,0:2:0:0:
166,384,27770,6,0,P|140:359|140:318,1,62.5,2|0,3:2|0:0,0:2:0:0:
32,352,27895,2,0,P|40:316|76:296,1,62.5,2|0,0:2|0:0,0:0:0:0:
21,224,28020,2,0,P|55:213|91:234,1,62.5,2|0,3:2|0:0,0:0:0:0:
179,247,28145,6,0,P|164:174|151:106,1,125,2|0,0:2|3:0,0:2:0:0:
163,118,28395,1,0,0:2:0:0:
409,21,28520,6,0,L|423:90,1,52.4999983978272,0|0,3:2|0:0,0:0:0:0:
438,162,28707,5,0,3:2:0:0:
441,171,28770,2,0,L|456:239,1,52.4999983978272,0|0,3:2|0:0,0:0:0:0:
470,310,28895,6,0,L|479:366,1,52.4999983978272,0|0,3:2|0:0,0:0:0:0:
376,375,29020,5,2,3:2:0:0:
304,358,29145,1,2,0:2:0:0:
230,341,29270,1,2,3:2:0:0:
142,367,29395,6,0,P|210:373|238:250,1,209.999993591309,2|0,0:2|0:2,0:2:0:0:
82,141,29770,5,2,3:2:0:0:
154,124,29895,1,2,0:2:0:0:
228,107,30020,1,2,3:2:0:0:
316,133,30145,6,0,P|248:139|220:16,1,209.999993591309,2|0,0:2|0:2,0:2:0:0:
447,205,30520,5,0,3:2:0:0:
440,208,30582,2,0,L|427:269,1,52.4999983978272,0|0,3:2|0:0,0:0:0:0:
272,363,30707,5,0,3:2:0:0:
265,360,30769,2,0,L|252:299,1,52.4999983978272,0|0,3:2|0:0,0:0:0:0:
97,191,30895,5,0,3:2:0:0:
92,197,30957,1,0,3:2:0:0:
88,204,31020,6,0,P|119:226|151:221,1,62.5,6|0,3:2|0:0,0:2:0:0:
148,47,31145,2,0,P|144:84|164:110,1,62.5,2|0,0:2|0:0,0:0:0:0:
299,65,31270,2,0,P|264:80|252:111,1,62.5,2|0,3:2|0:0,0:0:0:0:
273,231,31395,6,0,P|351:250|418:270,1,125,2|0,0:2|3:0,0:2:0:0:
393,270,31645,1,0,0:2:0:0:
244,363,31770,6,0,P|215:352|198:326,1,62.5,2|0,3:2|0:0,0:2:0:0:
89,363,31895,2,0,P|83:332|98:305,1,62.5,2|0,0:2|0:0,0:0:0:0:
32,224,32020,2,0,P|56:204|87:203,1,62.5,2|0,3:2|0:0,0:0:0:0:
338,165,32145,6,0,P|278:182|217:197,1,125,2|0,0:2|3:2,0:2:0:0:
214,189,32395,1,0,0:2:0:0:
414,78,32520,6,0,P|424:31|429:4,1,62.5,6|0,3:2|0:0,0:0:0:0:
422,75,32645,2,0,P|432:28|437:1,1,62.5,2|0,0:2|0:0,0:0:0:0:
400,261,32770,6,0,P|410:308|415:335,1,62.5,6|0,3:2|0:0,0:0:0:0:
408,264,32895,2,0,P|418:311|423:338,1,62.5,2|0,0:2|0:0,0:0:0:0:
286,125,33020,5,0,3:2:0:0:
221,98,33103,1,0,3:2:0:0:
158,127,33186,1,0,3:2:0:0:
139,195,33270,1,0,3:2:0:0:
121,262,33353,1,0,3:2:0:0:
61,294,33436,1,0,3:2:0:0:
0,261,33520,1,4,3:2:0:0:
11,193,33770,5,0,3:2:0:0:
76,166,33853,1,0,3:2:0:0:
139,195,33936,1,0,3:2:0:0:
158,263,34020,1,0,3:2:0:0:
176,330,34103,1,0,3:2:0:0:
236,362,34186,1,0,3:2:0:0:
297,329,34270,1,4,3:2:0:0:
471,108,34520,6,0,B|509:143|484:218|484:218|411:122|294:132|294:132|348:162|348:212,1,437.5,8|0,0:1|0:0,0:2:0:0:
367,313,35020,6,0,P|401:163|461:26,1,297.500005674362,6|0,3:2|0:0,0:2:0:0:
449,22,35520,1,10,0:2:0:0:
118,124,35770,6,0,P|129:168|134:209,1,72.5000022125245,2|0,0:2|0:0,0:0:0:0:
202,142,35895,2,0,P|191:98|186:57,1,72.5000022125245,2|0,0:2|0:0,0:0:0:0:
0,143,36020,6,0,P|28:173|72:170,1,72.5000022125245,2|0,3:2|0:0,0:0:0:0:
90,245,36145,2,0,P|124:222|129:178,1,72.5000022125245,2|0,0:2|0:0,0:0:0:0:
315,121,36270,6,0,P|287:91|243:94,1,72.5000022125245,2|0,0:2|0:0,0:0:0:0:
229,20,36395,2,0,P|194:42|189:86,1,72.5000022125245,2|0,0:2|0:0,0:0:0:0:
217,259,36520,6,0,P|251:266|280:307,1,72.5000022125245,10|0,0:2|0:0,0:0:0:0:
354,291,36645,2,0,P|350:327|337:376,1,72.5000022125245,2|0,0:2|0:0,0:0:0:0:
465,320,36770,6,0,P|469:284|482:235,1,72.5000022125245,2|0,0:2|0:0,0:0:0:0:
456,316,36895,2,0,P|460:280|473:231,1,72.5000022125245,2|0,0:2|0:0,0:0:0:0:
424,84,37020,6,0,B|466:80|494:115|494:115|370:85|307:194,1,292.500001115799,2|0,3:2|0:0,0:2:0:0:
394,156,37270,6,0,B|308:109|333:-32|449:-33|477:50|415:91,1,292.500001115799,2|0,0:2|0:0,0:2:0:0:
467,238,37520,6,0,P|380:148|214:140,1,292.500001115799,10|0,0:2|0:0,0:2:0:0:
3,22,37770,6,0,P|17:69|26:115,1,72.5000022125245,2|0,0:2|0:0,0:0:0:0:
66,1,37895,2,0,P|80:48|89:94,1,72.5000022125245,2|0,0:2|0:0,0:0:0:0:
155,190,38020,6,0,P|141:237|132:283,1,72.5000022125245,2|0,3:2|0:0,0:0:0:0:
92,169,38145,2,0,P|78:216|69:262,1,72.5000022125245,2|0,0:2|0:0,0:0:0:0:
63,370,38270,6,0,P|86:337|152:339,1,72.5000022125245,2|0,0:2|0:0,0:0:0:0:
135,259,38395,2,0,P|171:275|183:342,1,72.5000022125245,2|0,0:2|0:0,0:0:0:0:
399,294,38520,6,0,P|358:290|327:232,1,72.5000022125245,10|0,0:2|0:0,0:0:0:0:
265,286,38645,2,0,P|260:246|312:202,1,72.5000022125245,2|0,0:2|0:0,0:0:0:0:
331,127,38770,6,0,P|319:75|306:38,1,72.5000022125245,2|0,3:2|0:0,0:0:0:0:
339,119,38895,2,0,P|327:67|314:30,1,72.5000022125245,2|0,0:2|0:0,0:0:0:0:
512,104,39020,6,0,P|471:96|424:171,1,135.000000514984,6|2,3:2|0:2,0:2:0:0:
277,220,39270,2,0,P|236:228|189:153,1,135.000000514984,2|2,0:2|0:2,0:0:0:0:
407,15,39520,6,0,P|387:130|366:265,1,232.500001773834,10|0,0:2|0:0,0:2:0:0:
337,330,39770,6,0,P|374:340|422:362,1,72.5000022125245,2|0,0:2|0:0,0:0:0:0:
334,322,39895,2,0,P|371:332|419:354,1,72.5000022125245,2|0,0:2|0:0,0:0:0:0:
233,336,40020,6,0,P|205:363|162:393,1,72.5000022125245,2|0,3:2|0:0,0:0:0:0:
241,337,40145,2,0,P|213:364|170:394,1,72.5000022125245,2|0,0:2|0:0,0:0:0:0:
270,241,40270,6,0,P|260:203|255:151,1,72.5000022125245,2|0,3:2|0:0,0:0:0:0:
265,247,40395,2,0,P|255:209|250:157,1,72.5000022125245,2|0,0:2|0:0,0:0:0:0:
0,254,40520,6,0,B|43:196|126:254|68:261|152:316|199:252,1,217.500006637573,10|0,0:2|0:0,0:2:0:0:
14,322,40770,2,0,B|76:358|130:273|74:289|135:207|199:248,1,217.500006637573,2|0,3:2|0:0,0:2:0:0:
314,113,41020,6,0,B|309:81|309:81|350:37|350:37|355:97|355:97|323:128,1,184.999999294281,6|0,3:2|0:0,0:2:0:0:
372,299,41207,6,0,B|401:311|401:311|419:368|419:368|364:343|364:343|353:299,1,184.999999294281,2|0,3:2|0:0,0:2:0:0:
188,242,41395,6,0,B|162:261|162:261|104:248|104:248|153:213|153:213|196:225,1,184.999999294281,2|0,3:2|0:0,0:2:0:0:
210,106,41582,6,0,B|180:93|180:93|162:36|162:36|217:61|217:61|228:105,1,184.999999294281,2|0,3:2|0:0,0:2:0:0:
424,154,41769,6,0,B|449:134|449:134|507:147|507:147|458:182|458:182|415:170,1,184.999999294281,2|0,3:2|0:0,0:2:0:0:
263,314,41957,6,0,B|267:345|267:345|226:389|226:389|221:329|221:329|253:298,1,184.999999294281,2|0,3:2|0:0,0:2:0:0:
277,181,42145,6,0,B|264:224|264:224|310:240|310:240|325:195|325:195|280:179,1,184.999999294281,2|0,3:2|0:0,0:2:0:0:
133,382,42332,6,0,B|93:372|93:372|85:375|85:375|23:357,1,104.999996795654,8|0,0:2|0:2,0:2:0:0:
1,295,42520,5,10,0:2:0:0:
25,225,42645,1,8,0:2:0:0:
49,155,42770,1,10,0:2:0:0:
73,85,42895,1,8,0:2:0:0:
151,26,43020,5,2,0:2:0:0:
166,33,43082,1,2,0:2:0:0:
179,38,43145,1,2,0:2:0:0:
355,143,43395,5,2,0:2:0:0:
245,171,43520,2,0,B|299:159|299:159|301:156|301:156|372:140,1,115.000002193451,14|0,0:2|0:0,0:0:0:0:
456,339,43770,5,2,3:2:0:0:
446,332,43832,1,2,3:2:0:0:
435,324,43895,2,0,P|452:253|467:190,1,115.000002193451,2|0,3:2|0:0,0:2:0:0:
476,111,44145,5,2,3:2:0:0:
449,0,44270,2,0,P|466:71|481:134,1,115.000002193451,2|0,0:2|0:0,0:0:0:0:
277,348,44520,6,0,L|203:326,1,57.5000010967255,8|0,3:2|0:0,0:0:0:0:
168,253,44707,5,0,3:2:0:0:
161,248,44770,2,0,L|87:226,1,57.5000010967255,0|0,3:2|0:0,0:0:0:0:
62,153,44895,6,0,L|-12:131,1,57.5000010967255,0|0,3:2|0:0,0:0:0:0:
3,352,45020,5,2,3:2:0:0:
17,347,45082,1,2,3:2:0:0:
30,342,45145,2,0,L|3:221,1,115.000002193451,2|0,3:2|0:0,0:2:0:0:
161,105,45395,5,2,3:2:0:0:
145,9,45520,2,0,P|179:66|141:119,1,115.000002193451,10|0,0:2|0:0,0:0:0:0:
312,351,45770,5,2,3:2:0:0:
298,346,45832,1,2,3:2:0:0:
285,341,45895,2,0,L|312:220,1,115.000002193451,2|0,3:2|0:0,0:2:0:0:
503,175,46145,5,0,3:2:0:0:
410,141,46270,2,0,P|466:185|524:148,1,115.000002193451,2|0,0:2|0:0,0:0:0:0:
260,23,46520,5,8,3:2:0:0:
263,30,46582,2,0,L|193:48,1,57.5000010967255,0|0,3:2|0:0,0:0:0:0:
247,191,46707,5,0,3:2:0:0:
250,184,46769,2,0,L|180:166,1,57.5000010967255,0|0,3:2|0:0,0:0:0:0:
256,333,46895,5,0,3:2:0:0:
249,340,46957,1,0,3:2:0:0:
178,366,47020,5,6,3:2:0:0:
169,360,47082,1,2,3:2:0:0:
160,354,47145,2,0,L|19:384,1,115.000002193451,2|0,3:2|0:0,0:2:0:0:
330,259,47395,5,2,3:2:0:0:
442,282,47520,2,0,L|301:252,1,115.000002193451,10|0,0:2|0:0,0:0:0:0:
101,137,47770,5,2,3:2:0:0:
112,132,47832,1,2,3:2:0:0:
124,127,47895,2,0,L|101:13,1,115.000002193451,2|0,3:2|0:0,0:2:0:0:
233,301,48145,5,2,3:2:0:0:
255,188,48270,2,0,L|232:300,1,115.000002193451,2|0,0:2|0:0,0:0:0:0:
432,33,48520,6,0,L|444:96,1,57.5000010967255,10|0,0:2|0:0,0:0:0:0:
440,36,48645,2,0,L|452:99,1,57.5000010967255,2|0,3:2|0:0,0:0:0:0:
384,378,48770,6,0,L|372:315,1,57.5000010967255,2|0,3:2|0:0,0:0:0:0:
376,375,48895,2,0,L|364:312,1,57.5000010967255,2|0,3:2|0:0,0:0:0:0:
181,145,49020,5,0,3:2:0:0:
236,104,49103,1,0,3:2:0:0:
304,113,49186,1,0,3:2:0:0:
345,169,49270,1,0,3:2:0:0:
365,234,49353,1,0,3:2:0:0:
424,268,49436,1,0,3:2:0:0:
486,237,49520,1,4,3:2:0:0:
486,237,49770,5,0,3:2:0:0:
424,268,49854,1,0,3:2:0:0:
365,234,49937,1,0,3:2:0:0:
345,169,50020,1,0,3:2:0:0:
304,113,50104,1,0,3:2:0:0:
236,104,50187,1,0,3:2:0:0:
181,145,50270,1,4,3:2:0:0:
18,353,50520,6,0,L|95:372,1,67.5000002574921,8|0,0:2|0:0,0:2:0:0:
142,310,50645,2,0,L|207:293,1,67.5000002574921,8|0,0:2|0:0,0:0:0:0:
267,367,50770,2,0,L|344:386,1,67.5000002574921,8|0,0:2|0:0,0:2:0:0:
396,320,50895,2,0,L|461:303,1,67.5000002574921,8|0,0:2|0:0,0:0:0:0:
492,165,51020,5,2,0:2:0:0:
424,203,51103,1,2,0:2:0:0:
350,189,51186,1,2,0:2:0:0:
305,126,51270,1,2,0:2:0:0:
316,61,51353,1,2,0:2:0:0:
346,39,51436,1,2,0:2:0:0:
369,33,51520,5,2,0:2:0:0:
358,56,51603,1,2,0:2:0:0:
338,72,51686,1,2,0:2:0:0:
316,75,51770,1,2,0:2:0:0:
296,71,51853,1,2,0:2:0:0:
282,62,51936,1,2,0:2:0:0:
250,0,52020,6,0,B|221:156|221:156|223:160|223:160|183:381,1,367.500003504753,6|0,3:2|0:0,0:2:0:0:
88,248,52270,6,0,B|133:238|133:238|139:240|139:240|200:227,1,92.4999996471405,2|0,3:2|0:0,0:2:0:0:
307,287,52395,2,0,B|262:297|262:297|256:295|256:295|195:308,1,92.4999996471405,0|0,3:2|0:0,0:0:0:0:
90,321,52520,6,0,B|180:302|180:302|209:235|209:235|358:206,1,277.499998941422,2|0,3:2|0:2,0:2:0:0:
390,267,52770,1,2,3:2:0:0:
512,39,52895,5,2,3:2:0:0:
487,29,52957,1,0,3:2:0:0:
466,22,53020,2,0,B|435:30|435:30|405:119,1,112.500004291535,2|0,3:2|0:0,0:2:0:0:
333,351,53145,2,0,B|364:343|364:343|394:254,1,112.500004291535,0|0,3:2|0:0,0:0:0:0:
302,57,53270,6,0,L|319:147,1,72.5000022125245,2|0,3:2|0:0,0:0:0:0:
510,316,53395,2,0,L|493:226,1,72.5000022125245,0|0,3:2|0:0,0:0:0:0:
114,315,53520,5,2,3:2:0:0:
156,309,53582,1,0,3:2:0:0:
199,303,53645,1,0,3:2:0:0:
242,297,53707,1,0,3:2:0:0:
289,292,53770,2,0,B|279:262|279:262|190:241,1,122.500001168251,0|0,3:2|0:0,0:2:0:0:
0,87,53895,2,0,B|9:116|9:116|98:137,1,122.500001168251,0|0,3:2|0:0,0:0:0:0:
266,9,54020,5,2,3:2:0:0:
198,31,54082,1,0,3:2:0:0:
181,99,54145,1,0,3:2:0:0:
225,155,54207,1,0,3:2:0:0:
299,170,54270,6,0,P|350:159|357:98,1,112.500004291535,2|0,3:2|0:0,0:0:0:0:
428,0,54395,2,0,P|412:49|461:86,1,112.500004291535,2|0,3:2|0:0,0:0:0:0:
512,194,54520,2,0,P|476:155|420:179,1,112.500004291535,2|0,3:2|0:0,0:0:0:0:
316,263,54645,6,0,P|309:311|300:354,1,82.5000007867813,2|0,3:2|0:0,0:0:0:0:
399,266,54770,2,0,P|392:314|383:357,1,82.5000007867813,2|0,3:2|0:0,0:0:0:0:
478,273,54895,2,0,P|471:321|462:364,1,82.5000007867813,2|0,3:2|0:0,0:0:0:0:
338,153,55020,5,6,3:2:0:0:
284,104,55103,5,0,3:2:0:0:
214,120,55186,5,0,3:2:0:0:
183,185,55270,5,0,3:2:0:0:
174,255,55353,5,0,3:2:0:0:
128,309,55436,5,0,3:2:0:0:
56,299,55520,5,2,3:2:0:0:
28,232,55603,5,2,0:2:0:0:
30,212,55686,1,2,0:2:0:0:
34,193,55770,1,2,3:2:0:0:
38,173,55853,1,2,0:2:0:0:
42,153,55936,1,2,0:2:0:0:
69,48,56020,6,0,B|35:0|-35:23|-55:88|13:145|68:127|68:127|121:112|195:128|186:213,1,397.500016679764,6|0,3:2|0:0,0:2:0:0:
209,364,56270,6,0,P|188:358|176:274,1,112.500004291535,2|0,3:2|0:0,0:2:0:0:
315,172,56395,2,0,P|320:193|253:245,1,112.500004291535,0|0,3:2|0:0,0:0:0:0:
30,212,56520,6,0,P|176:251|368:306,1,337.500012874604,2|0,3:2|0:2,0:2:0:0:
512,40,56770,5,2,3:2:0:0:
478,20,56832,1,0,3:2:0:0:
435,24,56895,1,0,3:2:0:0:
404,56,56957,1,0,3:2:0:0:
400,91,57020,6,0,P|412:134|429:196,1,87.500000834465,2|0,3:2|0:0,0:0:0:0:
491,384,57145,2,0,P|479:341|462:279,1,87.500000834465,2|0,3:2|0:0,0:0:0:0:
273,9,57270,6,0,P|285:52|302:114,1,87.500000834465,2|0,3:2|0:0,0:0:0:0:
355,301,57395,2,0,P|343:258|326:196,1,87.500000834465,2|0,3:2|0:0,0:0:0:0:
70,199,57520,6,0,B|50:203|50:203|46:208|46:208|24:212,14,43.7500004172325,2|0|0|0|0|0|0|0|0|0|0|0|0|0|0,3:2|0:2|0:2|0:2|0:2|0:2|0:2|0:2|0:2|0:2|0:2|0:2|0:2|0:2|0:2,0:2:0:0:
125,150,58020,5,6,3:2:0:0:
130,134,58082,1,0,3:2:0:0:
133,117,58145,1,2,3:2:0:0:
136,101,58207,1,0,3:2:0:0:
141,84,58270,1,2,3:2:0:0:
134,296,58520,5,6,3:2:0:0:
139,312,58582,1,0,3:2:0:0:
142,329,58645,1,2,3:2:0:0:
145,345,58707,1,0,3:2:0:0:
150,362,58770,1,2,3:2:0:0:
274,104,59020,5,6,3:2:0:0:
271,86,59082,1,0,3:2:0:0:
269,68,59145,2,0,L|378:104,1,87.500000834465,0|0,3:2|0:0,0:0:0:0:
490,268,59270,5,2,3:2:0:0:
493,286,59332,1,0,3:2:0:0:
495,304,59395,2,0,L|386:268,1,87.500000834465,0|0,3:2|0:0,0:0:0:0:
476,74,59520,5,2,3:2:0:0:
494,71,59582,1,0,3:2:0:0:
512,69,59645,2,0,L|476:178,1,87.500000834465,0|0,3:2|0:0,0:0:0:0:
293,326,59770,5,2,3:2:0:0:
275,329,59832,1,0,3:2:0:0:
257,331,59895,2,0,L|293:222,1,87.500000834465,0|0,3:2|0:0,0:0:0:0:
90,93,60270,6,0,B|24:5|24:5|213:59,1,307.500004692078,6|0,3:2|0:0,0:2:0:0:
301,64,60520,2,0,L|1:144,1,307.500004692078,2|0,3:2|0:2,0:2:0:0:
170,231,60770,6,0,L|188:149,1,52.4999983978272,2|0,3:2|0:0,0:0:0:0:
9,291,60895,5,2,3:2:0:0:
4,284,60957,1,0,3:2:0:0:
0,277,61020,2,0,P|30:246|97:267,1,92.4999996471405,2|0,3:2|0:0,0:2:0:0:
184,384,61145,2,0,L|272:358,1,92.4999996471405,0|0,3:2|0:0,0:0:0:0:
301,64,61270,6,0,L|280:155,1,92.4999996471405,2|0,3:2|0:0,0:0:0:0:
470,242,61395,2,0,B|493:197|493:197|454:152,1,92.4999996471405,0|0,3:2|0:0,0:0:0:0:
225,265,61520,5,2,3:2:0:0:
268,280,61582,1,0,3:2:0:0:
312,293,61645,1,0,3:2:0:0:
355,306,61707,1,0,3:2:0:0:
391,316,61770,2,0,L|371:212,1,92.4999996471405,0|0,3:2|0:0,0:2:0:0:
473,17,61895,2,0,P|448:47|372:39,1,92.4999996471405,0|0,3:2|0:0,0:0:0:0:
86,37,62020,5,2,3:2:0:0:
142,5,62082,1,0,3:2:0:0:
203,27,62145,1,0,3:2:0:0:
217,89,62207,1,0,3:2:0:0:
179,142,62270,2,0,P|129:129|73:114,1,92.4999996471405,2|0,3:2|0:0,0:0:0:0:
101,192,62395,2,0,P|56:180|12:169,1,92.4999996471405,2|0,3:2|0:0,0:0:0:0:
258,222,62520,6,0,P|308:209|364:194,1,92.4999996471405,2|0,3:2|0:0,0:0:0:0:
335,272,62645,2,0,P|380:260|425:249,1,92.4999996471405,2|0,3:2|0:0,0:0:0:0:
189,303,62770,6,0,P|139:290|83:275,1,92.4999996471405,2|0,3:2|0:0,0:0:0:0:
111,353,62895,2,0,P|66:341|22:330,1,92.4999996471405,2|0,3:2|0:0,0:0:0:0:
335,74,63020,5,6,3:2:0:0:
276,102,63103,5,0,3:2:0:0:
257,165,63186,5,0,3:2:0:0:
288,225,63270,5,0,3:2:0:0:
335,272,63353,5,0,3:2:0:0:
345,337,63436,5,0,3:2:0:0:
293,379,63520,5,2,3:2:0:0:
289,369,63603,5,2,0:2:0:0:
286,359,63686,5,2,0:2:0:0:
283,349,63770,5,2,3:2:0:0:
74,27,64020,5,4,3:2:0:0:
76,46,64082,1,0,3:2:0:0:
79,64,64145,1,0,3:2:0:0:
81,83,64207,1,0,3:2:0:0:
83,102,64270,1,0,3:2:0:0:
86,120,64332,1,0,3:2:0:0:
88,139,64395,1,0,3:2:0:0:
91,158,64457,1,0,3:2:0:0:
94,174,64520,5,4,3:2:0:0:
129,150,64582,1,0,3:2:0:0:
172,152,64645,1,0,3:2:0:0:
205,179,64707,1,0,3:2:0:0:
216,221,64770,1,0,3:2:0:0:
200,261,64832,1,0,3:2:0:0:
163,283,64895,1,0,3:2:0:0:
120,278,64957,1,0,3:2:0:0:
88,250,65020,5,4,3:2:0:0:
133,221,65082,1,0,3:2:0:0:
187,221,65145,1,0,3:2:0:0:
234,247,65207,1,0,3:2:0:0:
265,291,65270,1,0,3:2:0:0:
301,332,65332,1,0,3:2:0:0:
351,353,65395,1,0,3:2:0:0:
405,349,65457,1,0,3:2:0:0:
456,317,65520,5,4,3:2:0:0:
483,261,65582,1,0,3:2:0:0:
477,199,65645,1,0,3:2:0:0:
441,150,65707,1,0,3:2:0:0:
384,126,65770,1,0,3:2:0:0:
323,135,65832,1,0,3:2:0:0:
275,175,65895,1,0,3:2:0:0:
255,233,65957,1,0,3:2:0:0:
264,290,66020,6,0,B|174:263|174:263|171:265|171:265|54:229,1,189.999994926453,0|8,3:2|0:2,0:2:0:0:
32,88,66395,2,0,P|37:134|87:156,1,94.9999974632264,0|0,3:2|0:2,0:2:0:0:
149,121,66645,1,8,0:2:0:0:
261,13,66770,5,8,0:2:0:0:
257,27,66853,1,8,0:2:0:0:
254,40,66936,1,8,0:2:0:0:
251,53,67020,1,8,0:2:0:0:
347,153,67145,5,0,3:2:0:0:
422,114,67270,1,8,0:2:0:0:
479,196,67395,1,0,1:2:0:0:
479,196,67457,1,0,1:2:0:0:
479,196,67520,2,0,L|467:251,1,47.4999987316132,0|0,1:2|1:2,0:2:0:0:
397,285,67645,2,0,L|409:340,1,47.4999987316132,0|0,1:2|1:2,0:2:0:0:
479,381,67770,1,8,0:2:0:0:
12,56,68020,5,6,3:2:0:0:
82,36,68145,1,2,0:0:0:0:
153,19,68270,1,2,0:0:0:0:
215,90,68395,6,0,L|198:167,1,75.0000028610231,2|0,0:0|0:0,0:0:0:0:
180,236,68645,1,2,0:0:0:0:
286,191,68770,2,0,L|259:323,1,125,2|0,0:0|0:0,0:0:0:0:
353,361,69520,5,2,0:2:0:0:
425,381,69645,1,2,0:0:0:0:
462,317,69770,1,2,0:0:0:0:
413,258,69895,1,2,0:0:0:0:
340,286,70020,5,2,0:2:0:0:
270,266,70145,1,2,0:0:0:0:
199,249,70270,1,2,0:0:0:0:
110,343,70395,6,0,L|24:366,1,75.0000028610231,2|0,0:0|0:0,0:0:0:0:
37,362,70645,1,2,0:2:0:0:
1,296,70770,2,0,L|82:272,1,75,2|2,0:0|0:0,0:0:0:0:
72,274,71207,1,2,0:0:0:0:
72,274,71270,1,2,0:2:0:0:
114,197,71395,1,2,0:0:0:0:
187,31,71520,5,2,0:0:0:0:
228,108,71645,1,2,0:0:0:0:
304,253,71770,5,2,0:0:0:0:
345,176,71895,1,2,0:0:0:0:
469,111,72020,6,0,P|418:119|375:42,1,150.000005722046,2|2,0:0|0:0,0:0:0:0:
374,43,72395,2,0,P|427:32|463:24,1,75.0000028610231,2|0,0:0|0:0,0:0:0:0:
448,27,72645,1,2,0:0:0:0:
184,216,72770,6,0,P|235:224|278:147,1,150.000005722046,2|2,0:0|0:0,0:0:0:0:
278,148,73145,2,0,P|225:136|189:128,1,75.0000028610231,2|0,0:0|0:0,0:0:0:0:
23,263,73395,5,2,0:0:0:0:
31,266,73457,1,2,0:0:0:0:
39,269,73520,1,2,0:2:0:0:
10,144,73645,1,2,0:0:0:0:
184,216,73770,1,2,0:0:0:0:
155,341,73895,1,2,0:0:0:0:
347,340,74020,5,2,0:2:0:0:
318,215,74145,1,2,0:0:0:0:
469,141,74270,1,2,0:0:0:0:
469,141,74395,2,0,L|450:230,1,75.0000028610231,2|0,0:0|0:0,0:0:0:0:
286,46,74645,5,2,0:0:0:0:
286,46,74707,1,2,0:0:0:0:
286,46,74770,1,2,0:2:0:0:
436,0,74895,1,2,0:0:0:0:
349,148,75020,1,2,0:0:0:0:
349,148,75145,2,0,L|258:129,1,75.0000028610231,2|0,0:0|0:0,0:0:0:0:
7,65,75395,5,2,0:0:0:0:
85,11,75520,1,10,0:2:0:0:
126,39,75603,1,2,0:0:0:0:
140,86,75686,1,2,0:0:0:0:
117,131,75770,1,10,0:2:0:0:
81,166,75853,1,2,0:0:0:0:
76,215,75936,1,2,0:0:0:0:
109,252,76020,5,6,3:2:0:0:
298,284,76145,1,2,0:2:0:0:
137,384,76270,1,10,0:2:0:0:
312,202,76395,2,0,P|328:284|341:351,1,142.49999619484,2|0,3:2|0:0,0:2:0:0:
362,359,76645,1,2,3:2:0:0:
444,27,76770,5,10,0:2:0:0:
258,69,76895,1,2,0:2:0:0:
419,183,77020,1,2,0:2:0:0:
244,1,77145,2,0,P|231:71|222:115,1,94.9999974632264,2|8,3:2|0:2,0:2:0:0:
95,182,77395,1,2,0:2:0:0:
212,289,77520,5,2,3:2:0:0:
143,102,77645,1,2,3:2:0:0:
214,300,77770,1,10,0:2:0:0:
308,115,77895,1,2,0:2:0:0:
126,364,78020,5,2,3:2:0:0:
371,289,78145,1,2,0:2:0:0:
99,208,78270,5,10,0:2:0:0:
368,280,78395,1,2,3:2:0:0:
151,58,78520,5,2,0:2:0:0:
364,273,78645,1,2,3:2:0:0:
281,0,78770,5,10,0:2:0:0:
360,264,78895,1,2,0:2:0:0:
488,103,79020,5,2,3:2:0:0:
453,71,79082,1,2,3:2:0:0:
405,64,79145,1,2,3:2:0:0:
360,78,79207,1,2,3:2:0:0:
332,116,79270,1,10,0:2:0:0:
312,158,79332,1,0,0:0:0:0:
274,187,79395,1,2,3:2:0:0:
226,184,79457,1,0,0:0:0:0:
191,151,79520,5,2,0:0:0:0:
331,319,79645,1,2,3:2:0:0:
512,173,79770,1,10,0:2:0:0:
359,7,79895,1,2,0:2:0:0:
242,328,80020,5,6,3:2:0:0:
360,78,80145,1,2,0:2:0:0:
430,353,80270,1,10,0:2:0:0:
295,132,80395,2,0,L|334:335,1,189.999994926453,2|2,3:2|3:2,0:2:0:0:
400,70,80770,5,10,0:2:0:0:
204,246,80895,1,2,0:2:0:0:
438,142,81020,1,10,0:2:0:0:
161,43,81145,2,0,P|200:106|319:92,1,189.999994926453,2|2,3:2|3:2,0:2:0:0:
16,159,81520,5,10,0:2:0:0:
31,203,81582,1,2,0:2:0:0:
71,228,81645,1,2,3:2:0:0:
118,226,81707,1,2,0:2:0:0:
160,204,81770,1,10,0:2:0:0:
206,208,81832,1,2,0:2:0:0:
245,235,81895,1,2,0:2:0:0:
261,278,81957,1,2,0:2:0:0:
262,325,82020,5,10,0:2:0:0:
211,27,82145,1,0,3:2:0:0:
105,382,82270,5,10,0:2:0:0:
157,92,82395,1,0,3:2:0:0:
59,313,82520,5,10,0:2:0:0:
0,26,82645,1,0,3:2:0:0:
178,214,82770,5,10,0:2:0:0:
196,208,82832,1,0,0:0:0:0:
214,202,82895,1,8,0:2:0:0:
232,196,82957,1,0,0:0:0:0:
269,215,83020,6,0,P|312:229|344:240,1,67.5000002574921,2|0,3:2|3:2,0:2:0:0:
404,182,83145,2,0,P|361:168|329:157,1,67.5000002574921,0|0,3:2|3:2,0:0:0:0:
179,307,83270,6,0,P|222:293|254:282,1,67.5000002574921,10|0,0:2|0:0,0:0:0:0:
450,63,83395,2,0,P|407:77|375:88,1,67.5000002574921,8|0,0:2|0:0,0:0:0:0:
365,384,83520,6,0,L|348:295,1,67.5000002574921,2|0,3:2|0:0,0:2:0:0:
284,0,83645,2,0,L|301:89,1,67.5000002574921,0|0,3:2|0:0,0:0:0:0:
320,185,83770,5,14,3:2:0:0:
146,340,84020,5,6,3:2:0:0:
72,330,84103,1,2,0:2:0:0:
30,268,84186,1,2,0:2:0:0:
53,199,84270,1,2,0:2:0:0:
114,182,84353,1,2,0:2:0:0:
155,204,84436,1,2,0:2:0:0:
170,241,84520,1,6,3:2:0:0:
169,265,84603,5,2,0:2:0:0:
146,273,84686,1,2,0:2:0:0:
127,262,84770,1,2,0:2:0:0:
116,239,84853,1,2,0:2:0:0:
116,222,84936,1,2,0:2:0:0:
126,212,85020,6,0,L|236:242,1,100,0|4,3:2|0:2,0:2:0:0:
429,346,86020,5,10,0:2:0:0:
422,355,86103,1,2,0:0:0:0:
407,367,86186,1,2,0:0:0:0:
382,372,86270,1,2,0:0:0:0:
357,368,86353,1,2,0:0:0:0:
330,348,86436,1,2,0:0:0:0:
320,312,86520,1,2,0:2:0:0:
333,268,86603,1,2,0:0:0:0:
362,226,86686,1,2,0:0:0:0:
358,174,86770,1,2,0:0:0:0:
339,123,86853,1,2,0:0:0:0:
282,100,86936,1,2,0:0:0:0:
215,126,87020,5,6,3:2:0:0:
187,196,87103,1,2,0:0:0:0:
212,268,87186,1,2,0:0:0:0:
278,309,87270,1,2,0:0:0:0:
352,292,87353,1,2,0:0:0:0:
393,237,87436,1,2,0:0:0:0:
392,185,87520,1,2,0:2:0:0:
372,152,87603,1,2,0:0:0:0:
349,123,87686,1,2,0:0:0:0:
343,93,87770,1,2,0:0:0:0:
347,73,87853,1,2,0:0:0:0:
357,58,87936,1,2,0:0:0:0:
419,29,88020,5,10,0:2:0:0:
402,50,88103,1,2,0:0:0:0:
355,81,88186,1,2,0:0:0:0:
287,84,88270,1,2,0:0:0:0:
221,42,88353,1,2,0:0:0:0:
143,24,88436,1,2,0:0:0:0:
66,55,88520,5,2,0:2:0:0:
79,70,88603,1,2,0:0:0:0:
118,101,88686,1,2,0:0:0:0:
189,110,88770,1,2,0:0:0:0:
253,80,88853,1,2,0:0:0:0:
311,31,88936,1,2,0:0:0:0:
387,21,89020,5,0,3:2:0:0:
287,316,89186,1,0,3:2:0:0:
118,101,89353,5,0,3:2:0:0:
113,85,89437,1,0,3:2:0:0:
109,70,89520,1,0,3:2:0:0:
403,201,89686,1,0,3:2:0:0:
92,360,89853,1,0,3:2:0:0:
231,46,90020,5,10,0:2:0:0:
306,26,90103,1,2,0:0:0:0:
360,78,90186,1,2,0:0:0:0:
354,149,90270,1,2,0:0:0:0:
303,190,90353,1,2,0:0:0:0:
250,193,90436,1,2,0:0:0:0:
212,220,90520,1,2,0:2:0:0:
210,266,90603,1,2,0:0:0:0:
229,302,90686,1,2,0:0:0:0:
259,316,90770,1,2,0:0:0:0:
287,316,90853,1,2,0:0:0:0:
309,309,90936,1,2,0:0:0:0:
343,292,91020,5,6,3:2:0:0:
331,265,91103,1,2,0:0:0:0:
284,234,91186,1,2,0:0:0:0:
208,231,91270,1,2,0:0:0:0:
140,265,91353,1,2,0:0:0:0:
65,272,91436,1,2,0:0:0:0:
0,213,91520,5,2,0:2:0:0:
21,202,91603,1,2,0:0:0:0:
74,196,91686,1,2,0:0:0:0:
146,218,91770,1,2,0:0:0:0:
194,270,91853,1,2,0:0:0:0:
267,305,91936,1,2,0:0:0:0:
334,276,92020,5,10,0:2:0:0:
320,268,92103,1,2,0:0:0:0:
293,229,92186,1,2,0:0:0:0:
278,165,92270,1,2,0:0:0:0:
304,113,92353,1,2,0:0:0:0:
364,81,92436,1,2,0:0:0:0:
379,8,92520,5,6,3:2:0:0:
306,36,92603,1,2,0:0:0:0:
228,37,92686,1,2,0:0:0:0:
155,19,92770,1,2,0:0:0:0:
105,1,92853,1,2,0:0:0:0:
62,4,92936,1,2,0:0:0:0:
2,68,93020,5,0,3:2:0:0:
10,70,93082,1,0,3:2:0:0:
19,72,93145,1,0,3:2:0:0:
28,76,93207,1,0,3:2:0:0:
37,78,93270,1,2,0:2:0:0:
382,185,93520,5,0,3:2:0:0:
374,187,93582,1,0,3:2:0:0:
365,189,93645,1,0,3:2:0:0:
356,193,93707,1,0,3:2:0:0:
347,195,93770,1,2,0:2:0:0:
87,376,94020,5,10,0:2:0:0:
34,317,94103,1,2,0:0:0:0:
55,247,94186,1,2,0:0:0:0:
128,231,94270,1,2,0:2:0:0:
182,283,94353,1,2,0:0:0:0:
222,350,94436,1,2,0:0:0:0:
291,378,94520,1,2,0:0:0:0:
342,360,94603,1,2,0:0:0:0:
367,334,94686,1,2,0:0:0:0:
378,304,94770,1,2,0:2:0:0:
395,279,94853,1,2,0:0:0:0:
409,267,94936,1,2,0:0:0:0:
474,253,95020,5,6,3:2:0:0:
455,265,95103,1,2,0:0:0:0:
431,267,95186,1,2,0:0:0:0:
402,243,95270,1,2,0:0:0:0:
369,202,95353,1,2,0:0:0:0:
312,161,95436,1,2,0:0:0:0:
237,150,95520,1,2,0:2:0:0:
172,171,95603,1,2,0:0:0:0:
118,215,95686,1,2,0:0:0:0:
74,224,95770,1,2,0:0:0:0:
46,213,95853,1,2,0:0:0:0:
34,203,95936,1,2,0:0:0:0:
0,144,96020,5,10,0:2:0:0:
26,133,96103,1,2,0:0:0:0:
63,136,96186,1,2,0:0:0:0:
101,168,96270,1,2,0:0:0:0:
142,211,96353,1,2,0:0:0:0:
212,223,96436,1,2,0:0:0:0:
276,184,96520,1,6,0:2:0:0:
301,115,96603,1,2,0:0:0:0:
273,49,96686,1,2,0:0:0:0:
201,22,96770,1,2,0:0:0:0:
133,56,96853,1,2,0:0:0:0:
126,128,96936,1,2,0:0:0:0:
169,191,97020,5,6,3:2:0:0:
446,56,97270,1,0,3:2:0:0:
328,233,97520,5,10,3:2:0:0:
301,149,97645,1,8,0:2:0:0:
274,65,97770,1,8,3:2:0:0:
65,348,98020,5,2,3:2:0:0:
160,39,98270,1,0,3:2:0:0:
138,263,98520,5,10,3:2:0:0:
90,108,98645,1,8,0:2:0:0:
138,263,98770,5,8,3:2:0:0:
90,108,98895,1,10,0:2:0:0:
373,304,99020,5,2,3:2:0:0:
0,167,99270,1,0,3:2:0:0:
305,188,99520,5,10,3:2:0:0:
210,228,99645,1,8,0:2:0:0:
121,269,99770,1,8,3:2:0:0:
241,75,100020,5,2,3:2:0:0:
177,383,100270,1,0,3:2:0:0:
181,134,100395,5,2,0:0:0:0:
181,134,100457,1,8,0:2:0:0:
181,134,100520,1,10,3:2:0:0:
239,336,100645,1,8,0:2:0:0:
181,134,100770,5,8,3:2:0:0:
239,336,100895,1,10,0:2:0:0:
403,0,101020,5,6,3:2:0:0:
334,281,101145,1,0,3:2:0:0:
512,51,101270,1,0,3:2:0:0:
248,165,101395,1,2,3:2:0:0:
475,276,101520,5,2,3:2:0:0:
322,10,101645,1,0,3:2:0:0:
386,333,101770,1,0,3:2:0:0:
210,64,101895,1,2,3:2:0:0:
160,365,102020,5,6,3:2:0:0:
389,48,102145,1,0,3:2:0:0:
45,205,102270,1,0,3:2:0:0:
440,219,102395,1,2,3:2:0:0:
49,45,102520,5,2,3:2:0:0:
303,366,102645,1,0,3:2:0:0:
270,0,102770,1,0,3:2:0:0:
87,319,102895,1,2,3:2:0:0:
341,223,103020,5,14,0:2:0:0:
307,164,103103,5,8,0:2:0:0:
240,151,103186,5,8,0:2:0:0:
186,191,103270,5,10,0:2:0:0:
188,258,103353,5,8,0:2:0:0:
234,307,103436,5,8,0:2:0:0:
302,310,103520,5,14,0:2:0:0:
346,259,103603,5,8,0:2:0:0:
361,193,103686,5,8,0:2:0:0:
424,165,103770,5,10,0:2:0:0:
487,187,103853,5,8,0:2:0:0:
512,253,103936,5,8,0:2:0:0:
459,297,104020,5,14,0:2:0:0:
431,286,104082,1,8,0:2:0:0:
402,276,104145,1,8,0:2:0:0:
373,268,104207,1,8,0:2:0:0:
344,259,104270,1,10,0:2:0:0:
315,250,104332,1,8,0:2:0:0:
286,241,104395,1,8,0:2:0:0:
257,233,104457,1,8,0:2:0:0:
228,224,104520,1,14,0:2:0:0:
199,215,104582,1,8,0:2:0:0:
169,207,104645,1,8,0:2:0:0:
140,200,104707,1,8,0:2:0:0:
110,193,104770,1,10,0:2:0:0:
81,187,104832,1,8,0:2:0:0:
52,178,104895,1,8,0:2:0:0:
23,169,104957,1,8,0:2:0:0:
0,164,105020,6,0,L|33:321,1,160,6|0,3:2|0:2,0:0:0:0:
42,332,111395,5,2,0:2:0:0:
48,334,111458,1,2,0:2:0:0:
54,335,111520,1,2,0:2:0:0:
105,281,111645,1,2,0:2:0:0:
171,244,111770,1,2,0:2:0:0:
245,220,111895,1,2,0:2:0:0:
102,94,112020,6,0,B|94:51|46:39|46:39|121:-2|202:30|227:98|190:165,1,337.500012874604,6|0,3:2|0:2,0:2:0:0:
148,340,112270,2,0,P|119:326|112:261,1,82.5000007867813,10|0,0:2|0:0,0:0:0:0:
257,217,112395,6,0,P|124:148|-37:98,1,262.500002503395,2|0,0:2|0:0,0:2:0:0:
0,250,112645,5,2,0:2:0:0:
0,250,112707,1,0,0:0:0:0:
0,250,112770,2,0,B|30:282|92:281|112:236|95:197|91:196|87:195|112:125|166:122|203:158,1,277.499998941422,10|0,0:2|0:0,0:2:0:0:
405,323,113020,6,0,P|362:332|316:376,1,92.4999996471405,2|0,3:2|0:0,0:0:0:0:
352,218,113145,2,0,B|362:296|462:334|534:283|534:283|480:275|464:224,1,322.50000492096,2|0,0:2|0:0,0:2:0:0:
489,2,113395,6,0,P|471:40|455:110,1,97.500000371933,2|0,0:2|0:0,0:0:0:0:
240,159,113520,2,0,P|301:152|323:99,1,97.500000371933,2|0,3:2|0:0,0:0:0:0:
24,15,113645,5,2,0:2:0:0:
0,57,113707,1,2,0:2:0:0:
16,103,113770,1,10,0:2:0:0:
56,128,113832,1,2,0:2:0:0:
102,142,113895,1,2,0:2:0:0:
122,185,113957,1,2,0:2:0:0:
108,232,114020,6,0,P|70:238|9:284,1,97.500000371933,2|0,3:2|0:0,0:0:0:0:
194,28,114145,2,0,P|246:49|247:110,1,97.500000371933,2|0,0:2|0:0,0:0:0:0:
231,355,114270,2,0,P|219:301|190:230,1,97.500000371933,10|0,0:2|0:0,0:0:0:0:
384,138,114395,6,0,B|375:104|340:91|340:91|474:74|498:205|498:205|467:190|424:207,1,337.500012874604,2|0,0:2|0:2,0:2:0:0:
287,204,114645,6,0,P|281:182|296:207,1,92.4999996471405,2|0,0:2|0:0,0:0:0:0:
463,271,114770,2,0,B|436:279|424:302|424:302|305:249|227:343|227:343|209:324|169:327,1,322.50000492096,10|0,0:2|0:0,0:2:0:0:
3,172,115020,6,0,P|43:175|71:242,1,107.50000164032,2|0,3:2|0:0,0:0:0:0:
63,357,115145,2,0,P|99:238|204:56,1,277.499998941422,2|0,0:2|0:0,0:2:0:0:
58,0,115395,6,0,P|64:32|126:47,1,92.4999996471405,2|0,0:2|0:0,0:0:0:0:
245,148,115520,2,0,P|302:127|369:115,1,92.4999996471405,2|0,3:2|0:0,0:0:0:0:
512,116,115645,6,0,P|506:148|444:163,1,92.4999996471405,2|0,0:2|0:0,0:0:0:0:
349,271,115770,2,0,P|292:250|225:238,1,92.4999996471405,10|0,0:2|0:0,0:0:0:0:
200,294,115895,1,2,0:2:0:0:
463,271,116020,6,0,P|338:301|209:381,1,277.499998941422,2|0,3:2|0:2,0:2:0:0:
65,350,116270,5,10,0:2:0:0:
52,354,116353,2,0,P|48:312|88:281,1,90.0000003433228,2|2,0:2|0:2,0:0:0:0:
30,206,116520,5,2,3:2:0:0:
7,196,116603,2,0,P|41:171|88:190,1,90.0000003433228,2|2,0:2|0:2,0:0:0:0:
112,77,116770,5,10,0:2:0:0:
124,44,116853,2,0,P|162:61|169:111,1,90.0000003433228,2|2,0:2|0:2,0:0:0:0:
328,280,117020,5,2,3:2:0:0:
302,288,117103,1,2,0:2:0:0:
276,280,117186,1,2,0:2:0:0:
236,346,117270,5,10,0:2:0:0:
206,317,117353,1,2,0:2:0:0:
195,277,117436,1,2,0:2:0:0:
100,299,117520,5,2,3:2:0:0:
116,232,117603,1,2,0:2:0:0:
164,183,117686,1,2,0:2:0:0:
129,83,117770,5,10,0:2:0:0:
341,218,117895,1,2,0:2:0:0:
225,160,118020,5,6,3:2:0:0:
244,155,118082,1,0,3:2:0:0:
263,149,118145,1,2,3:2:0:0:
282,145,118207,1,0,3:2:0:0:
463,35,118395,5,2,3:2:0:0:
444,30,118457,1,0,3:2:0:0:
425,24,118520,1,2,3:2:0:0:
406,20,118582,1,0,3:2:0:0:
329,339,118770,5,2,3:2:0:0:
334,320,118832,1,0,3:2:0:0:
340,301,118895,1,2,3:2:0:0:
344,282,118957,1,0,3:2:0:0:
357,251,119020,5,2,3:2:0:0:
321,210,119082,1,0,3:2:0:0:
266,209,119145,1,2,3:2:0:0:
222,240,119207,1,0,3:2:0:0:
201,290,119270,1,2,3:2:0:0:
179,338,119332,1,0,3:2:0:0:
130,362,119395,1,2,3:2:0:0:
77,352,119457,1,0,3:2:0:0:
38,313,119520,5,10,3:2:0:0:
67,245,119582,1,0,3:2:0:0:
138,223,119645,1,10,3:2:0:0:
205,252,119707,1,0,3:2:0:0:
245,314,119770,1,10,3:2:0:0:
302,359,119832,1,0,3:2:0:0:
376,357,119895,1,10,3:2:0:0:
431,308,119957,1,0,3:2:0:0:
444,234,120020,6,0,P|451:198|470:141,1,92.4999996471405,6|0,3:2|0:0,0:2:0:0:
445,73,120145,1,2,0:2:0:0:
435,69,120207,1,2,0:2:0:0:
427,64,120270,1,10,0:2:0:0:
186,170,120395,6,0,P|179:134|160:77,1,92.4999996471405,2|0,0:2|0:0,0:2:0:0:
185,9,120520,1,2,3:2:0:0:
195,5,120582,1,2,0:2:0:0:
203,0,120645,1,2,0:2:0:0:
362,163,120770,6,0,P|317:154|275:136,1,92.4999996471405,10|0,0:2|0:0,0:0:0:0:
11,235,120895,2,0,P|56:244|99:263,1,92.4999996471405,2|0,0:2|0:0,0:0:0:0:
238,338,121020,5,2,3:2:0:0:
161,81,121145,1,2,0:2:0:0:
111,367,121270,5,10,0:2:0:0:
155,196,121395,1,2,0:2:0:0:
443,235,121520,5,2,3:2:0:0:
421,273,121582,1,2,0:2:0:0:
385,298,121645,1,2,0:2:0:0:
341,302,121707,1,2,0:2:0:0:
300,286,121770,1,10,0:2:0:0:
266,260,121832,1,2,0:2:0:0:
223,251,121895,1,2,3:2:0:0:
184,270,121957,1,2,0:2:0:0:
162,309,122020,6,0,P|218:324|270:354,1,87.500000834465,2|0,3:2|0:0,0:2:0:0:
315,377,122145,1,2,0:2:0:0:
322,372,122207,1,2,0:2:0:0:
329,367,122270,1,10,0:2:0:0:
37,173,122395,6,0,P|93:158|145:128,1,87.500000834465,2|0,0:2|0:0,0:2:0:0:
190,105,122520,1,2,3:2:0:0:
197,110,122582,1,2,0:2:0:0:
204,115,122645,1,2,0:2:0:0:
503,236,122770,6,0,P|490:277|431:286,1,87.500000834465,10|0,0:2|0:0,0:0:0:0:
389,363,122895,2,0,P|346:357|327:300,1,87.500000834465,2|0,0:2|0:0,0:0:0:0:
281,37,123020,5,2,3:2:0:0:
208,317,123145,1,2,0:2:0:0:
25,83,123270,5,10,0:2:0:0:
78,244,123395,1,2,0:2:0:0:
242,116,123520,5,2,3:2:0:0:
309,114,123582,1,2,0:2:0:0:
335,178,123645,1,2,0:2:0:0:
302,232,123707,1,2,0:2:0:0:
258,244,123770,1,10,0:2:0:0:
222,227,123832,1,2,0:2:0:0:
210,183,123895,1,2,3:2:0:0:
230,157,123957,1,2,0:2:0:0:
258,156,124020,5,6,3:2:0:0:
323,353,124145,1,8,0:2:0:0:
299,60,124270,5,2,3:2:0:0:
218,320,124395,1,10,0:2:0:0:
357,5,124520,5,2,3:2:0:0:
435,352,124645,1,8,0:2:0:0:
177,40,124770,5,2,3:2:0:0:
180,32,124832,1,0,3:2:0:0:
183,22,124895,1,8,0:2:0:0:
103,286,125020,5,2,3:2:0:0:
20,26,125145,1,8,0:2:0:0:
0,363,125270,5,2,3:2:0:0:
121,82,125395,1,10,0:2:0:0:
304,359,125520,5,2,3:2:0:0:
218,1,125645,1,8,0:2:0:0:
146,328,125770,5,2,3:2:0:0:
140,350,125832,1,0,3:2:0:0:
135,368,125895,1,8,0:2:0:0:
420,46,126020,5,14,0:2:0:0:
102,188,126145,1,2,3:2:0:0:
83,194,126207,1,2,3:2:0:0:
68,200,126270,1,10,0:0:0:0:
418,354,126395,1,2,3:2:0:0:
62,14,126520,5,10,0:2:0:0:
388,164,126645,1,2,3:2:0:0:
407,170,126707,1,2,3:2:0:0:
428,175,126770,1,10,0:2:0:0:
64,354,126895,1,2,3:2:0:0:
233,0,127020,5,10,0:2:0:0:
279,384,127145,1,2,3:2:0:0:
275,358,127207,1,2,3:2:0:0:
272,331,127270,1,2,3:2:0:0:
268,305,127332,1,2,3:2:0:0:
264,278,127395,1,2,3:2:0:0:
260,252,127457,1,2,3:2:0:0:
257,225,127520,5,10,0:2:0:0:
372,113,127645,1,2,3:2:0:0:
372,113,127707,1,2,3:2:0:0:
372,113,127770,2,0,P|324:105|282:83,1,85.0000016212464,10|2,0:2|3:2,0:0:0:0:
47,52,128020,5,6,3:2:0:0:
110,23,128082,1,0,3:2:0:0:
176,45,128145,1,2,3:2:0:0:
219,99,128207,1,2,3:2:0:0:
251,161,128270,1,2,3:2:0:0:
311,194,128332,1,0,3:2:0:0:
378,172,128395,1,2,3:2:0:0:
410,110,128457,1,0,3:2:0:0:
385,43,128520,5,2,3:2:0:0:
320,16,128582,1,2,3:2:0:0:
253,40,128645,1,2,3:2:0:0:
219,99,128707,1,2,3:2:0:0:
251,161,128770,1,2,3:2:0:0:
311,194,128832,1,0,3:2:0:0:
336,261,128895,1,2,3:2:0:0:
304,323,128957,1,0,3:2:0:0:
237,345,129020,6,0,P|212:323|153:328,1,87.500000834465,6|0,3:2|0:0,0:2:0:0:
174,164,129145,2,0,P|142:174|117:228,1,87.500000834465,10|0,0:2|0:0,0:0:0:0:
0,210,129270,2,0,P|-6:242|27:291,1,87.500000834465,2|0,3:2|0:0,0:0:0:0:
412,384,129395,6,0,P|393:286|372:189,1,175.00000166893,10|0,0:2|3:0,0:2:0:0:
512,0,129645,2,0,P|503:39|449:55,1,87.500000834465,10|0,0:2|0:0,0:0:0:0:
254,78,129770,2,0,P|297:85|340:90,1,87.500000834465,2|0,3:2|0:0,0:0:0:0:
505,223,129895,2,0,P|493:184|441:165,1,87.500000834465,10|0,0:2|0:0,0:0:0:0:
102,201,130020,6,0,P|90:258|79:313,1,87.500000834465,2|0,3:2|0:0,0:2:0:0:
164,355,130145,1,10,0:2:0:0:
173,358,130207,1,2,0:2:0:0:
181,361,130270,1,2,3:2:0:0:
301,3,130395,6,0,P|313:56|325:111,1,87.500000834465,10|0,0:2|0:0,0:2:0:0:
264,171,130520,1,2,3:2:0:0:
256,168,130583,1,2,0:2:0:0:
247,165,130645,1,10,0:2:0:0:
17,171,130770,5,2,3:2:0:0:
241,62,130895,1,10,0:2:0:0:
0,43,131020,5,2,3:2:0:0:
264,171,131145,1,10,0:2:0:0:
4,316,131270,1,2,3:2:0:0:
329,348,131395,6,0,P|221:290|64:249,1,262.500002503395,10|0,0:2|0:2,0:2:0:0:
147,359,131645,2,0,P|193:353|217:306,1,87.500000834465,10|0,0:2|0:0,0:0:0:0:
122,126,131770,1,2,3:2:0:0:
126,115,131832,1,0,3:2:0:0:
130,104,131895,1,10,0:2:0:0:
509,11,132020,5,6,3:2:0:0:
292,148,132145,1,10,0:2:0:0:
283,145,132207,1,2,0:2:0:0:
274,142,132270,1,2,3:2:0:0:
512,204,132395,5,10,0:2:0:0:
325,22,132520,1,2,3:2:0:0:
316,19,132583,1,2,0:2:0:0:
307,16,132645,1,10,0:2:0:0:
363,299,132770,6,0,L|382:200,1,87.500000834465,2|0,3:2|3:2,0:2:0:0:
416,13,132895,1,10,0:2:0:0:
218,379,133020,5,2,3:2:0:0:
157,139,133145,1,10,0:2:0:0:
163,132,133207,1,2,0:2:0:0:
168,125,133270,1,2,3:2:0:0:
11,345,133395,5,10,0:2:0:0:
64,173,133520,1,2,3:2:0:0:
58,166,133582,1,2,0:2:0:0:
53,159,133645,1,10,0:2:0:0:
138,348,133770,5,2,3:2:0:0:
87,31,133895,1,10,0:2:0:0:
260,256,134020,5,6,3:2:0:0:
296,292,134082,1,2,0:2:0:0:
348,289,134145,1,10,0:2:0:0:
388,256,134207,1,2,0:2:0:0:
412,209,134270,1,2,3:2:0:0:
399,158,134332,1,2,3:2:0:0:
354,129,134395,1,10,0:2:0:0:
301,129,134457,1,2,0:2:0:0:
259,161,134520,1,2,3:2:0:0:
221,196,134582,1,2,0:2:0:0:
170,211,134645,1,10,0:2:0:0:
121,191,134707,1,2,0:2:0:0:
84,152,134770,1,2,3:2:0:0:
75,100,134832,1,2,3:2:0:0:
106,57,134895,1,10,0:2:0:0:
152,33,134957,1,2,0:2:0:0:
203,43,135020,5,10,0:2:0:0:
330,349,135145,1,2,3:2:0:0:
346,343,135207,1,0,3:2:0:0:
360,337,135270,1,10,0:2:0:0:
313,15,135395,6,0,L|290:113,1,87.500000834465,2|0,3:2|3:2,0:0:0:0:
229,366,135520,1,10,0:2:0:0:
465,111,135645,5,2,3:2:0:0:
205,236,135770,1,10,0:2:0:0:
166,223,135832,1,8,0:2:0:0:
125,209,135895,1,8,0:2:0:0:
86,197,135957,1,8,0:2:0:0:
51,187,136020,6,0,P|90:180|135:164,1,64.9999970245363,6|2,3:2|0:2,0:2:0:0:
142,93,136270,1,2,0:2:0:0:
137,96,136395,2,0,P|153:160|169:246,1,129.999994049073,2|2,0:2|0:2,0:0:0:0:
402,319,136770,6,0,P|363:312|318:296,1,64.9999970245363,2|2,0:2|0:2,0:2:0:0:
312,224,137020,1,2,0:2:0:0:
316,228,137145,2,0,P|300:292|284:378,1,129.999994049073,2|2,0:2|0:2,0:0:0:0:
137,356,137520,6,0,P|98:363|53:379,1,64.9999970245363,2|2,0:2|0:2,0:2:0:0:
15,332,137770,1,2,0:2:0:0:
17,325,137895,1,2,0:2:0:0:
50,90,138020,5,6,3:2:0:0:
69,41,138082,1,0,3:2:0:0:
116,17,138145,1,2,3:2:0:0:
167,21,138207,1,0,3:2:0:0:
212,48,138270,1,2,3:2:0:0:
238,93,138332,1,0,3:2:0:0:
245,145,138395,1,2,3:2:0:0:
275,186,138457,1,0,3:2:0:0:
322,208,138520,1,2,3:2:0:0:
373,200,138582,1,0,3:2:0:0:
414,167,138645,1,2,3:2:0:0:
424,115,138707,1,0,3:2:0:0:
406,68,138770,2,0,P|410:42|418:17,3,52.4999983978272,2|2|2|2,3:2|0:0|0:0|0:0,0:0:0:0:
255,30,139020,5,6,3:2:0:0:
191,7,139082,1,0,3:2:0:0:
130,39,139145,1,2,3:2:0:0:
108,103,139207,1,0,3:2:0:0:
133,166,139270,1,2,3:2:0:0:
191,199,139332,1,0,3:2:0:0:
259,190,139395,1,2,3:2:0:0:
324,206,139457,1,0,3:2:0:0:
356,266,139520,1,2,3:2:0:0:
349,333,139582,1,0,3:2:0:0:
296,377,139645,1,2,3:2:0:0:
229,365,139707,1,0,3:2:0:0:
168,320,139770,2,0,P|176:276|184:266,1,50,2|6,3:2|3:2,0:0:0:0:
256,192,140082,12,2,143770,0:2:0:0:
173,268,143895,5,2,3:2:0:0:
176,278,143957,1,0,3:0:0:0:
178,287,144020,1,6,3:2:0:0:
341,35,147520,6,0,L|328:100,1,52.4999983978272,2|0,0:2|0:0,0:2:0:0:
352,32,147645,2,0,L|339:97,1,52.4999983978272,2|0,0:2|0:0,0:0:0:0:
363,29,147770,2,0,L|350:94,1,52.4999983978272,2|0,0:2|0:0,0:0:0:0:
312,268,147895,5,10,0:2:0:0:
315,277,147957,1,8,0:0:0:0:
318,287,148020,2,0,B|325:266|325:266|266:208|266:208|241:287|241:287|258:304,1,209.999993591309,6|8,3:2|0:2,0:2:0:0:
92,348,148395,2,0,B|85:327|85:327|144:269|144:269|169:348|169:348|152:365,1,209.999993591309,2|0,3:2|3:2,0:2:0:0:
189,186,148770,5,10,0:2:0:0:
193,176,148895,2,0,L|173:53,1,104.999996795654,2|0,0:2|0:2,0:2:0:0:
408,266,149145,5,2,3:2:0:0:
412,276,149270,2,0,L|392:399,1,104.999996795654,10|8,0:2|0:2,0:0:0:0:
282,251,149520,5,2,3:2:0:0:
423,150,149645,1,0,3:2:0:0:
274,242,149770,5,10,0:2:0:0:
415,141,149895,1,8,0:2:0:0:
247,16,150020,6,0,B|200:53|223:124|285:136|333:76|306:20,1,209.999993591309,2|8,3:2|0:2,0:2:0:0:
148,139,150395,2,0,B|195:176|172:247|110:259|62:199|89:143,1,209.999993591309,2|0,3:2|3:2,0:2:0:0:
13,307,150770,5,10,0:2:0:0:
22,300,150895,2,0,P|66:298|97:362,1,104.999996795654,2|0,0:2|0:2,0:2:0:0:
279,211,151145,5,2,3:2:0:0:
267,211,151270,2,0,P|232:237|249:306,1,104.999996795654,10|8,0:2|0:2,0:2:0:0:
481,361,151520,6,0,L|499:295,1,52.4999983978272,2|0,3:2|0:0,0:0:0:0:
472,349,151645,2,0,L|490:283,1,52.4999983978272,2|0,3:2|0:0,0:0:0:0:
347,156,151770,6,0,L|329:90,1,52.4999983978272,10|0,0:2|0:0,0:0:0:0:
356,146,151895,2,0,L|338:80,1,52.4999983978272,10|0,0:2|0:0,0:0:0:0:
333,325,152020,5,2,3:2:0:0:
459,62,152145,1,2,3:2:0:0:
198,56,152270,5,8,0:2:0:0:
324,319,152395,1,2,3:2:0:0:
345,1,152520,5,2,3:2:0:0:
471,264,152645,1,0,3:2:0:0:
210,270,152770,5,10,3:2:0:0:
336,7,152895,1,2,3:2:0:0:
412,182,153020,5,0,3:2:0:0:
406,218,153103,1,0,3:2:0:0:
402,254,153186,1,0,3:2:0:0:
398,292,153270,1,8,0:2:0:0:
259,104,153395,1,8,3:2:0:0:
138,253,153520,5,2,3:2:0:0:
144,289,153603,1,0,3:0:0:0:
148,325,153686,1,0,3:0:0:0:
152,363,153770,1,10,0:2:0:0:
317,174,153895,1,8,3:2:0:0:
477,328,154020,5,4,3:2:0:0:
422,369,154103,1,0,3:2:0:0:
354,360,154186,1,0,3:2:0:0:
313,304,154270,1,0,3:2:0:0:
293,239,154353,1,0,3:2:0:0:
234,205,154436,1,0,3:2:0:0:
172,236,154520,1,0,3:2:0:0:
497,215,154770,5,4,3:2:0:0:
442,174,154853,1,0,3:2:0:0:
374,183,154936,1,0,3:2:0:0:
333,239,155020,1,0,3:2:0:0:
313,304,155103,1,0,3:2:0:0:
254,338,155186,1,0,3:2:0:0:
192,307,155270,1,0,3:2:0:0:
25,14,155520,6,0,L|95:28,1,52.4999983978272,8|0,0:2|0:2,0:2:0:0:
135,98,155645,1,0,1:2:0:0:
135,98,155707,1,0,1:2:0:0:
135,98,155770,2,0,L|186:87,1,52.4999983978272,0|0,1:2|1:2,0:2:0:0:
239,13,155895,1,8,0:2:0:0:
417,57,156020,5,4,3:2:0:0:
448,119,156104,1,0,3:2:0:0:
414,178,156187,1,0,3:2:0:0:
349,198,156270,1,0,3:2:0:0:
293,239,156354,1,0,3:2:0:0:
284,307,156437,1,0,3:2:0:0:
325,362,156520,1,0,3:2:0:0:
325,362,156770,5,4,3:2:0:0:
284,307,156853,1,0,3:2:0:0:
293,239,156936,1,0,3:2:0:0:
349,197,157020,6,0,P|314:196|287:175,1,69.9999978637696,4|0,3:2|0:2,0:2:0:0:
196,87,157186,2,0,P|212:118|208:153,1,69.9999978637696,2|0,3:2|0:2,0:2:0:0:
170,271,157353,2,0,P|188:241|220:227,1,69.9999978637696,2|0,3:2|0:2,0:2:0:0:
338,25,157520,6,0,P|306:60|282:121,1,90.0000003433228,2|0,3:2|0:2,0:2:0:0:
333,347,157686,2,0,P|318:301|277:250,1,90.0000003433228,2|0,3:2|0:2,0:2:0:0:
53,181,157853,2,0,P|99:191|164:181,1,90.0000003433228,2|0,3:2|0:2,0:2:0:0:
406,124,158020,6,0,P|434:168|415:218,1,110.000001049042,2|0,3:2|0:2,0:2:0:0:
98,74,158186,6,0,P|122:27|175:20,1,110.000001049042,2|0,3:2|0:2,0:2:0:0:
225,350,158353,6,0,P|172:352|140:311,1,110.000001049042,2|0,3:2|0:2,0:2:0:0:
424,12,158520,6,0,P|379:36|321:73,1,110.000001049042,2|0,3:2|0:2,0:2:0:0:
342,384,158686,6,0,P|343:333|340:264,1,110.000001049042,2|0,3:2|0:2,0:2:0:0:
40,147,158853,6,0,P|83:173|144:205,1,110.000001049042,2|0,3:2|0:2,0:2:0:0:
381,350,159645,6,0,P|410:356|439:366,1,50
496,308,160020,5,6,3:2:0:0:
487,230,160082,1,0,3:2:0:0:
421,185,160145,1,0,3:2:0:0:
343,196,160207,1,0,3:2:0:0:
303,265,160270,1,0,3:2:0:0:
278,336,160332,1,0,3:2:0:0:
242,370,160395,1,0,3:2:0:0:
198,378,160457,1,0,3:2:0:0:
171,364,160520,5,6,3:2:0:0:
146,336,160582,1,0,3:2:0:0:
140,288,160645,1,0,3:2:0:0:
161,242,160707,1,0,3:2:0:0:
215,197,160770,1,0,3:2:0:0:
265,147,160832,1,0,3:2:0:0:
268,76,160895,1,0,3:2:0:0:
220,22,160957,1,0,3:2:0:0:
140,15,161020,5,6,3:2:0:0:
81,66,161082,1,0,3:2:0:0:
73,144,161145,1,0,3:2:0:0:
122,204,161207,1,0,3:2:0:0:
198,224,161270,1,0,3:2:0:0:
265,194,161332,1,0,3:2:0:0:
302,160,161395,1,0,3:2:0:0:
350,143,161457,1,0,3:2:0:0:
384,154,161520,5,6,3:2:0:0:
415,181,161582,1,0,3:2:0:0:
422,226,161645,1,0,3:2:0:0:
404,270,161707,1,0,3:2:0:0:
348,295,161770,1,0,3:2:0:0:
284,263,161832,1,0,3:2:0:0:
265,194,161895,1,0,3:2:0:0:
298,124,161957,1,0,3:2:0:0:
289,45,162020,5,6,3:2:0:0:
222,3,162082,1,0,3:2:0:0:
143,20,162145,1,0,3:2:0:0:
101,86,162207,1,0,3:2:0:0:
119,163,162270,1,0,3:2:0:0:
174,214,162332,1,0,3:2:0:0:
194,263,162395,1,0,3:2:0:0:
183,309,162457,1,0,3:2:0:0:
147,342,162520,5,4,3:2:0:0:
102,337,162582,1,0,3:2:0:0:
69,306,162645,1,0,3:2:0:0:
65,265,162707,1,0,3:2:0:0:
78,231,162770,6,0,P|72:194|62:160,1,55.0000016784668,2|0,3:2|0:0,0:2:0:0:
330,81,163020,5,6,3:2:0:0:
332,273,163103,1,0,3:2:0:0:
172,164,163186,1,0,3:2:0:0:
369,175,163270,5,2,3:2:0:0:
237,251,163353,1,0,3:2:0:0:
249,98,163436,1,0,3:2:0:0:
312,230,163520,5,6,3:2:0:0:
209,170,163603,1,0,3:2:0:0:
317,119,163686,1,0,3:2:0:0:
263,221,163770,5,2,3:2:0:0:
263,143,163853,1,0,3:2:0:0:
326,187,163936,1,0,3:2:0:0:
282,180,164020,5,6,3:2:0:0:
