osu file format v14

[General]
AudioFilename: audio.mp3
AudioLeadIn: 0
PreviewTime: 107270
Countdown: 0
SampleSet: Soft
StackLeniency: 0.7
Mode: 0
LetterboxInBreaks: 0
WidescreenStoryboard: 1

[Editor]
Bookmarks: 28895,30895,101520
DistanceSpacing: 0.3
BeatDivisor: 3
GridSize: 32
TimelineZoom: 3.699999

[Metadata]
Title:Enkindle feat. vally.exe
TitleUnicode:Enkindle feat. vally.exe
Artist:Zenpaku
ArtistUnicode:Zenpaku
Creator:Kujinn
Version:Expert
Source:
Tags:Reform Ermi Modding Queue Yumerios Pepekcz Kirishima- dj-jo dj jo japanese instrumental electronic artcore
BeatmapID:3617556
BeatmapSetID:1762718

[Difficulty]
HPDrainRate:5
CircleSize:4
OverallDifficulty:8.6
ApproachRate:9.3
SliderMultiplier:1.84
SliderTickRate:1

[Events]
//Background and Video events
0,0,"220216_enkindle_album_cover_OSU_Version_Smaller.jpg",0,0
//Break Periods
2,107220,110520
2,144220,147341
//Storyboard Layer 0 (Background)
//Storyboard Layer 1 (Fail)
//Storyboard Layer 2 (Pass)
//Storyboard Layer 3 (Foreground)
//Storyboard Layer 4 (Overlay)
//Storyboard Sound Samples

[TimingPoints]
520,250,4,2,1,60,1,0
520,-153.846153846153,4,2,1,60,0,0
2020,-285.714285714282,4,2,1,60,0,0
2520,-153.846153846153,4,2,1,60,0,0
6020,-285.714285714282,4,2,1,60,0,0
6520,-153.846153846153,4,2,1,60,0,0
8520,-105.263157894736,4,2,1,70,0,0
14520,-105.263157894736,4,2,2,80,0,0
16020,-133.333333333332,4,2,2,60,0,0
16520,-105.263157894736,4,2,2,80,0,0
17520,-105.263157894736,4,2,1,80,0,0
19020,250,4,2,3,60,1,0
19020,-133.333333333333,4,2,3,60,0,0
25020,-95.2380952380951,4,2,2,80,0,0
26270,-95.2380952380951,4,2,3,70,0,0
26520,-133.333333333333,4,2,3,70,0,0
27020,-117.647058823529,4,2,3,70,0,0
28520,-117.647058823529,4,2,2,70,0,0
29020,-117.647058823529,4,2,3,70,0,0
30520,-117.647058823529,4,2,2,70,0,0
31020,-117.647058823529,4,2,3,70,0,0
33020,-95.238095238095,4,2,2,80,0,0
34520,-95.238095238095,4,2,3,80,0,0
35020,-133.333333333333,4,2,4,70,0,0
35770,-117.647058823529,4,2,4,70,0,0
37020,-79.9999999999998,4,2,4,70,0,0
37770,-117.647058823529,4,2,4,70,0,0
41020,-79.9999999999998,4,2,4,70,0,0
42332,-117.647058823529,4,2,4,70,0,0
42520,-117.647058823529,4,2,3,60,0,0
43145,-117.647058823529,4,2,5,70,0,0
49020,-95.238095238095,4,2,2,80,0,0
50520,-95.238095238095,4,2,3,70,0,0
51020,-153.846153846154,4,2,1,60,0,0
52020,-95.238095238095,4,2,6,90,0,0
55520,-153.846153846154,4,2,6,90,0,0
56020,-95.2380952380953,4,2,6,90,0,0
57520,-181.818181818182,4,2,6,90,0,0
58020,-95.2380952380953,4,2,6,90,0,0
63520,-181.818181818182,4,2,6,90,0,0
64020,-95.2380952380953,4,2,6,90,0,0
66020,-117.647058823529,4,2,2,50,0,0
68020,-153.846153846153,4,2,1,60,0,0
68770,-250,4,2,1,60,0,0
69520,-153.846153846153,4,2,1,60,0,0
70020,-153.846153846153,4,2,1,60,0,0
70770,-153.846153846154,4,2,1,60,0,0
75520,-153.846153846154,4,2,1,70,0,0
76020,-105.263157894737,4,2,1,70,0,0
84020,-105.263157894737,4,2,1,60,0,0
85020,-400.000000000003,4,2,1,60,0,0
86020,-95.2380952380954,4,2,7,80,0,0
86520,-285.714285714287,4,2,7,80,0,0
87020,-80,4,2,7,80,0,0
87520,-400.000000000002,4,2,7,80,0,0
88020,-95.2380952380954,4,2,7,80,0,0
89020,-181.818181818182,4,2,7,70,0,0
90020,-95.2380952380954,4,2,7,80,0,0
90520,-181.818181818182,4,2,7,80,0,0
91020,-95.2380952380954,4,2,7,80,0,0
91520,-181.818181818182,4,2,7,80,0,0
92520,-95.2380952380952,4,2,7,80,0,0
93020,-95.2380952380952,4,2,7,70,0,0
94020,-80,4,2,7,80,0,0
95020,-95.2380952380952,4,2,7,80,0,0
95520,-181.818181818182,4,2,7,80,0,0
97020,-133.333333333334,4,2,8,70,0,0
101020,-105.263157894737,4,2,8,80,0,0
103020,-105.263157894737,4,2,6,80,0,0
105020,-105.263157894737,4,2,1,80,0,0
111520,-117.64705882353,4,2,1,80,0,0
112020,-95.2380952380956,4,2,9,90,0,0
128020,-95.2380952380956,4,2,9,100,0,0
136020,-95.2380952380956,4,2,9,70,0,0
138020,-95.2380952380956,4,2,2,100,0,0
139770,-181.818181818182,4,2,2,100,0,0
140020,-181.818181818182,4,2,1,70,0,0
148020,-105.263157894737,4,2,1,80,0,0
154020,-86.9565217391306,4,2,2,80,0,0
155520,-133.333333333333,4,2,2,80,0,0
157020,-86.9565217391306,4,2,1,90,0,0
158020,-68.9655172413793,4,2,1,90,0,0
159645,-285.714285714287,4,2,1,90,0,0
160020,-80,4,2,2,100,0,0
162770,-133.333333333333,4,2,2,80,0,0
163020,-68.9655172413793,4,2,2,100,0,0
164020,-68.9655172413793,4,2,1,100,0,0

[Colours]
Combo1 : 222,73,118
Combo2 : 112,77,215
Combo3 : 192,95,28
Combo4 : 255,189,156

[HitObjects]
3,340,520,6,0,P|32:348|72:364,1,59.7999972625734,6|2,3:2|0:2,0:2:0:0:
77,331,895,6,0,P|58:307|37:286,1,59.7999972625734,2|2,0:2|0:2,0:2:0:0:
120,222,1270,6,0,P|127:250|132:280,1,59.7999972625734,2|2,0:2|0:2,0:2:0:0:
207,313,1645,6,0,P|217:285|225:256,1,59.7999972625734,2|2,0:2|0:2,0:2:0:0:
234,254,2020,6,0,P|226:282|211:322,1,64.399998034668,2|2,0:2|0:2,0:0:0:0:
499,22,2520,6,0,P|478:31|459:86,1,59.7999972625734,2|2,0:2|0:2,0:2:0:0:
442,72,2895,6,0,P|427:47|429:18,1,59.7999972625734,2|2,0:2|0:2,0:2:0:0:
357,98,3270,6,0,P|375:111|432:100,1,59.7999972625734,2|2,0:2|0:2,0:2:0:0:
453,169,3645,6,0,P|439:195|413:209,1,59.7999972625734,2|2,0:2|0:2,0:2:0:0:
419,213,4020,6,0,P|445:199|460:174,3,59.7999972625734,2|2|2|2,0:2|0:2|0:2|0:2,0:2:0:0:
301,17,4520,6,0,L|284:96,1,59.7999972625734,2|2,0:2|0:2,0:2:0:0:
268,71,4895,6,0,L|285:150,1,59.7999972625734,2|2,0:2|0:2,0:2:0:0:
320,146,5270,6,0,L|303:225,1,59.7999972625734,2|2,0:2|0:2,0:2:0:0:
265,237,5645,6,0,L|282:316,1,59.7999972625734,2|2,0:2|0:2,0:2:0:0:
271,299,6020,6,0,L|257:232,1,64.399998034668,2|2,0:2|0:2,0:0:0:0:
7,17,6520,6,0,P|35:30|50:71,1,59.7999972625734,2|2,0:2|0:2,0:2:0:0:
77,72,6895,6,0,P|91:46|88:16,1,59.7999972625734,2|2,0:2|0:2,0:2:0:0:
158,92,7270,6,0,P|134:109|104:109,1,59.7999972625734,2|2,0:2|0:2,0:2:0:0:
58,167,7645,6,0,P|73:192|100:204,1,59.7999972625734,2|2,0:2|0:2,0:2:0:0:
95,209,8020,6,0,P|68:197|53:172,3,59.7999972625734,2|2|2|2,0:2|0:2|0:2|0:2,0:2:0:0:
143,272,8520,6,0,B|194:252|236:309|193:303|245:360|296:330,1,174.799995332337,6|8,3:2|0:2,0:2:0:0:
360,384,8895,1,2,3:2:0:0:
360,384,9020,2,0,P|368:340|386:292,1,87.3999976661683,2|0,0:0|3:2,0:0:0:0:
474,273,9270,6,0,P|414:280|367:190,1,174.799995332337,10|0,0:2|0:2,0:0:0:0:
312,116,9645,1,2,3:2:0:0:
312,116,9770,2,0,P|304:72|286:24,1,87.3999976661683,10|0,0:2|0:2,0:2:0:0:
184,165,10020,6,0,P|221:194|274:183,1,87.3999976661683,2|0,3:2|3:2,0:2:0:0:
398,105,10270,2,0,P|440:103|473:131,1,87.3999976661683,10|0,0:2|0:2,0:2:0:0:
414,173,10520,6,0,P|350:148|220:112,1,174.799995332337,2|8,3:2|0:2,0:2:0:0:
103,27,10895,1,2,3:2:0:0:
103,27,11020,2,0,P|138:39|153:103,1,87.3999976661683,2|0,0:0|3:2,0:0:0:0:
203,213,11270,6,0,P|220:133|263:11,1,174.799995332337,10|0,0:2|0:2,0:0:0:0:
329,256,11645,1,2,3:2:0:0:
329,256,11770,2,0,P|347:306|357:361,1,87.3999976661683,10|0,0:2|0:2,0:2:0:0:
284,369,12020,5,2,3:2:0:0:
416,269,12145,1,2,3:2:0:0:
281,191,12270,1,10,0:2:0:0:
289,184,12395,1,2,3:2:0:0:
433,30,12520,6,0,P|462:69|450:118,1,87.3999976661683,2|2,3:2|3:2,0:2:0:0:
417,181,12770,1,8,0:2:0:0:
409,178,12895,1,2,3:2:0:0:
341,124,13020,6,0,P|321:168|273:182,1,87.3999976661683,2|0,3:2|3:2,0:0:0:0:
202,185,13270,1,10,0:2:0:0:
200,177,13395,1,2,3:2:0:0:
117,114,13520,5,8,0:2:0:0:
216,51,13645,1,2,3:2:0:0:
219,44,13707,1,0,3:2:0:0:
222,36,13770,2,0,P|279:55|325:70,1,87.3999976661683,10|0,0:2|3:2,0:2:0:0:
14,134,14020,5,10,0:2:0:0:
113,197,14145,1,0,3:2:0:0:
116,204,14207,1,0,3:2:0:0:
119,212,14270,2,0,P|176:193|222:178,1,87.3999976661683,10|0,0:2|3:2,0:0:0:0:
438,273,14520,5,4,3:2:0:0:
421,229,14603,1,0,3:2:0:0:
382,204,14686,1,0,3:2:0:0:
335,203,14770,1,0,3:2:0:0:
303,236,14853,1,0,3:2:0:0:
297,281,14936,1,0,3:2:0:0:
320,321,15020,1,0,3:2:0:0:
83,136,15270,5,4,3:2:0:0:
100,92,15353,1,0,3:2:0:0:
139,67,15436,1,0,3:2:0:0:
186,66,15520,1,0,3:2:0:0:
218,99,15603,1,0,3:2:0:0:
224,144,15686,1,0,3:2:0:0:
201,184,15770,1,0,3:2:0:0:
36,357,16020,5,8,0:2:0:0:
89,302,16145,1,0,1:2:0:0:
89,302,16207,1,0,1:2:0:0:
89,302,16270,2,0,P|79:252|71:217,1,69.0000026321412,0|8,1:2|0:2,0:2:0:0:
3,127,16520,5,4,3:2:0:0:
45,108,16603,1,0,3:2:0:0:
89,119,16686,1,0,3:2:0:0:
125,148,16770,1,0,3:2:0:0:
163,174,16853,1,0,3:2:0:0:
209,178,16936,1,0,3:2:0:0:
251,156,17020,1,0,3:2:0:0:
510,36,17270,5,4,3:2:0:0:
468,17,17353,1,0,3:2:0:0:
424,28,17436,1,0,3:2:0:0:
386,56,17520,6,0,L|319:41,1,58.2666651107789,8|0,0:2|0:2,0:2:0:0:
502,183,17686,6,0,L|445:195,1,58.2666651107789,8|0,0:2|0:2,0:2:0:0:
376,321,17853,6,0,L|309:306,1,58.2666651107789,8|0,0:2|0:2,0:2:0:0:
109,374,19020,6,0,P|101:331|89:290,1,69.0000026321412,6|0,3:2|0:2,0:2:0:0:
186,267,19270,2,0,P|194:224|206:183,1,69.0000026321412,2|0,3:2|0:2,0:2:0:0:
18,121,19520,2,0,P|43:169|111:166,1,103.500003948212,2|0,3:2|0:2,0:2:0:0:
145,134,19770,5,2,3:2:0:0:
153,128,19895,1,2,0:2:0:0:
228,85,20020,5,2,3:2:0:0:
236,79,20145,1,2,0:2:0:0:
318,32,20270,6,0,P|357:45|401:57,1,69.0000026321412,2|2,3:2|0:2,0:2:0:0:
468,170,20520,1,2,3:2:0:0:
462,164,20645,2,0,P|423:151|379:139,1,69.0000026321412,2|0,0:2|3:2,0:0:0:0:
303,228,20895,1,2,0:2:0:0:
293,228,21020,6,0,P|281:270|273:309,1,69.0000026321412,2|0,3:2|0:2,0:2:0:0:
187,333,21270,2,0,P|199:291|207:252,1,69.0000026321412,2|0,3:2|0:2,0:2:0:0:
117,124,21520,6,0,P|129:166|137:205,1,69.0000026321412,2|0,3:2|0:0,0:2:0:0:
84,260,21770,1,2,3:2:0:0:
75,257,21895,1,2,0:2:0:0:
68,74,22020,6,0,P|108:54|186:125,1,138.000005264282,10|10,3:2|0:2,0:2:0:0:
270,64,22395,2,0,P|258:106|250:145,1,69.0000026321412,10|0,0:2|3:0,0:2:0:0:
315,194,22645,1,10,0:2:0:0:
315,194,22770,2,0,P|322:160|332:127,1,69.0000026321412,10|0,0:2|0:0,0:0:0:0:
509,43,23020,6,0,P|473:32|429:12,1,69.0000026321412,6|0,3:2|0:2,0:2:0:0:
415,85,23270,2,0,P|446:98|479:108,1,69.0000026321412,2|0,3:2|0:2,0:2:0:0:
512,188,23520,2,0,P|474:181|430:267,1,138.000005264282,2|2,3:2|3:2,0:2:0:0:
465,320,23895,1,2,0:2:0:0:
393,372,24020,5,2,3:2:0:0:
384,368,24145,1,2,0:2:0:0:
338,294,24270,5,2,3:2:0:0:
328,290,24395,1,2,0:2:0:0:
245,344,24520,6,0,P|208:329|164:318,1,69.0000026321412,10|0,3:2|0:2,0:2:0:0:
70,139,24770,6,0,P|107:154|151:165,1,69.0000026321412,10|0,3:2|0:2,0:2:0:0:
221,125,25020,5,0,3:2:0:0:
234,171,25103,1,0,3:2:0:0:
212,215,25186,1,0,3:2:0:0:
167,237,25270,1,0,3:2:0:0:
118,248,25353,1,0,3:2:0:0:
93,290,25436,1,0,3:2:0:0:
99,339,25520,1,4,3:2:0:0:
181,322,25770,5,0,3:2:0:0:
208,281,25854,1,0,3:2:0:0:
204,232,25937,1,0,3:2:0:0:
165,201,26020,1,0,3:2:0:0:
134,161,26104,1,0,3:2:0:0:
134,112,26187,1,0,3:2:0:0:
166,77,26270,1,6,3:2:0:0:
278,15,26520,6,0,P|292:66|298:107,1,69.0000026321412,2|0,0:2|0:2,0:2:0:0:
347,0,26770,2,0,P|361:51|367:92,1,69.0000026321412,2|0,0:2|0:2,0:2:0:0:
488,106,27020,6,0,P|453:114|437:169,1,78.2000014915467,6|2,3:2|0:2,0:2:0:0:
481,217,27270,1,2,3:2:0:0:
360,194,27395,2,0,P|412:188|462:276,1,156.400002983093,2|0,0:2|0:2,0:2:0:0:
414,352,27770,6,0,P|375:338|325:325,1,78.2000014915467,2|2,3:2|0:2,0:2:0:0:
247,292,28020,1,2,3:2:0:0:
209,362,28145,2,0,P|265:371|323:274,1,156.400002983093,2|0,0:2|0:2,0:2:0:0:
284,207,28520,6,0,P|230:193|195:186,1,78.2000014915467,0|0,3:2|0:0,0:0:0:0:
187,197,28707,1,0,3:2:0:0:
179,195,28770,1,0,3:2:0:0:
130,125,28895,1,0,3:2:0:0:
46,228,29020,6,0,P|57:276|66:318,1,78.2000014915467,2|2,3:2|0:2,0:2:0:0:
34,369,29270,1,2,3:2:0:0:
34,369,29395,2,0,P|45:318|72:197,1,156.400002983093,2|0,0:2|0:2,0:2:0:0:
147,48,29770,6,0,P|136:96|127:138,1,78.2000014915467,2|2,3:2|0:2,0:2:0:0:
159,189,30020,1,2,3:2:0:0:
159,189,30145,2,0,P|148:138|121:17,1,156.400002983093,2|0,0:2|0:2,0:2:0:0:
17,11,30520,5,0,3:2:0:0:
22,14,30582,1,0,3:2:0:0:
125,36,30707,5,0,3:2:0:0:
125,36,30770,1,0,3:2:0:0:
231,61,30895,5,0,3:2:0:0:
236,64,30957,1,0,3:2:0:0:
242,67,31020,6,0,P|224:119|213:160,1,78.2000014915467,6|2,3:2|0:2,0:2:0:0:
135,191,31270,1,2,3:2:0:0:
271,203,31395,2,0,P|209:179|111:146,1,156.400002983093,2|0,0:2|0:2,0:2:0:0:
30,221,31770,6,0,P|48:273|59:314,1,78.2000014915467,2|2,3:2|0:2,0:2:0:0:
137,345,32020,1,2,3:2:0:0:
1,357,32145,2,0,P|63:333|161:300,1,156.400002983093,2|0,0:2|0:2,0:2:0:0:
230,344,32520,5,6,3:2:0:0:
296,376,32645,1,2,0:2:0:0:
367,352,32770,1,6,3:2:0:0:
385,282,32895,1,2,0:2:0:0:
337,227,33020,5,0,3:2:0:0:
332,179,33103,1,0,3:2:0:0:
357,139,33186,1,0,3:2:0:0:
401,120,33270,1,0,3:2:0:0:
445,100,33353,1,0,3:2:0:0:
467,59,33436,1,0,3:2:0:0:
461,12,33520,1,4,3:2:0:0:
384,0,33770,5,0,3:2:0:0:
360,42,33853,1,0,3:2:0:0:
368,88,33936,1,0,3:2:0:0:
401,123,34020,1,0,3:2:0:0:
433,159,34103,1,0,3:2:0:0:
438,205,34186,1,0,3:2:0:0:
414,246,34270,1,4,3:2:0:0:
32,245,34520,6,0,B|12:279|26:313|26:313|78:225|179:219|179:219|133:242|140:294,1,338.099989682007,8|0,0:1|0:0,0:2:0:0:
146,100,35020,6,0,P|183:201|210:339,1,241.500009212494,6|0,3:2|0:0,0:2:0:0:
221,335,35520,1,10,0:2:0:0:
496,372,35770,6,0,P|460:360|445:326,1,78.2000014915467,2|2,0:2|0:2,0:0:0:0:
390,269,36020,2,0,P|401:228|418:178,1,78.2000014915467,2|2,3:2|0:2,0:0:0:0:
305,92,36270,2,0,P|341:103|356:137,1,78.2000014915467,2|2,0:2|0:2,0:0:0:0:
313,199,36520,5,10,0:2:0:0:
237,196,36645,1,2,0:2:0:0:
191,253,36770,1,2,0:2:0:0:
216,321,36895,1,2,0:2:0:0:
302,361,37020,6,0,P|373:375|387:282,1,172.5,2|0,3:2|0:0,0:2:0:0:
506,281,37270,6,0,P|435:295|421:202,1,172.5,2|0,0:2|0:0,0:2:0:0:
472,148,37520,6,0,P|491:241|508:356,1,172.5,10|0,0:2|0:0,0:2:0:0:
429,371,37770,5,2,0:2:0:0:
417,367,37895,1,2,0:2:0:0:
396,293,38020,5,2,3:2:0:0:
384,289,38145,1,2,0:2:0:0:
336,363,38270,5,2,0:2:0:0:
324,359,38395,1,2,0:2:0:0:
303,285,38520,5,10,0:2:0:0:
291,281,38645,1,2,0:2:0:0:
245,351,38770,5,2,3:2:0:0:
233,347,38895,1,2,0:2:0:0:
97,285,39020,6,0,P|60:291|10:318,1,78.2000014915467,6|2,3:2|0:2,0:2:0:0:
1,241,39270,2,0,P|36:224|74:217,1,78.2000014915467,2|2,0:2|0:2,0:0:0:0:
121,353,39520,6,0,P|130:288|158:189,1,156.400002983093,10|2,0:2|0:2,0:2:0:0:
218,159,39895,1,2,0:2:0:0:
300,21,40020,5,2,3:2:0:0:
297,94,40145,1,2,0:2:0:0:
323,165,40270,1,2,3:2:0:0:
366,224,40395,1,2,0:2:0:0:
442,231,40520,6,0,P|402:231|383:309,1,117.30000223732,10|0,0:2|0:0,0:2:0:0:
380,301,40770,2,0,P|367:354|312:364,1,117.30000223732,2|0,3:2|0:0,0:2:0:0:
249,300,41020,6,0,P|189:316|122:346,1,115,6|0,3:2|0:0,0:2:0:0:
205,384,41207,2,0,P|151:362|96:347,1,115,2|0,3:2|0:0,0:2:0:0:
67,184,41395,6,0,P|127:200|194:230,1,115,2|0,3:2|0:0,0:2:0:0:
111,268,41582,2,0,P|164:246|219:231,1,115,2|0,3:2|0:0,0:2:0:0:
243,35,41770,6,0,P|235:91|220:147,1,115,2|0,3:2|0:0,0:2:0:0:
344,111,41957,2,0,P|298:75|258:35,1,115,2|0,3:2|0:0,0:2:0:0:
232,160,42145,2,0,P|285:138|340:123,1,115,2|0,3:2|0:0,0:2:0:0:
418,144,42332,6,0,P|432:201|442:240,1,78.2000014915467,8|0,0:2|0:2,0:2:0:0:
485,292,42520,5,10,0:2:0:0:
473,289,42645,1,8,0:2:0:0:
417,339,42770,1,10,0:2:0:0:
405,335,42895,1,8,0:2:0:0:
337,370,43020,6,0,L|279:357,2,39.1000007457733,2|2|2,0:2|0:2|0:2,0:0:0:0:
50,359,43395,5,2,0:2:0:0:
50,359,43520,2,0,P|34:296|22:257,1,78.2000014915467,14|0,0:2|0:0,0:0:0:0:
104,206,43770,5,2,3:2:0:0:
108,194,43832,1,2,3:2:0:0:
113,183,43895,2,0,P|129:120|141:81,1,78.2000014915467,2|0,3:2|0:0,0:2:0:0:
0,72,44145,2,0,B|38:90|75:39|40:47|74:-8|128:8,1,156.400002983093,2|0,3:2|0:0,0:0:0:0:
212,55,44520,6,0,P|226:104|237:150,1,78.2000014915467,8|0,3:2|0:0,0:0:0:0:
308,134,44707,1,0,3:2:0:0:
305,125,44770,2,0,P|291:76|280:30,1,78.2000014915467,0|0,3:2|3:2,0:0:0:0:
510,32,45020,5,2,3:2:0:0:
501,28,45082,1,2,3:2:0:0:
492,24,45145,2,0,P|450:28|440:128,1,156.400002983093,2|2,3:2|3:2,0:2:0:0:
506,192,45520,2,0,P|463:202|419:221,1,78.2000014915467,10|0,0:2|0:0,0:0:0:0:
373,315,45770,5,2,3:2:0:0:
364,319,45832,1,2,3:2:0:0:
354,322,45895,2,0,P|312:318|302:218,1,156.400002983093,2|0,3:2|3:2,0:2:0:0:
361,168,46270,2,0,P|324:153|286:145,1,78.2000014915467,2|0,0:2|0:0,0:0:0:0:
234,74,46520,5,8,3:2:0:0:
229,69,46582,1,0,3:2:0:0:
151,107,46707,5,0,3:2:0:0:
146,102,46769,1,0,3:2:0:0:
67,139,46895,5,0,3:2:0:0:
62,134,46957,1,0,3:2:0:0:
56,130,47020,2,0,L|67:82,2,39.1000007457733,6|2|2,3:2|3:2|3:2,0:0:0:0:
27,285,47395,1,2,3:2:0:0:
27,285,47520,2,0,P|80:296|118:312,1,78.2000014915467,10|0,0:2|0:0,0:0:0:0:
346,371,47770,5,2,3:2:0:0:
354,368,47832,1,2,3:2:0:0:
363,364,47895,2,0,P|364:322|259:297,1,156.400002983093,2|2,3:2|3:2,0:2:0:0:
198,368,48270,2,0,P|189:323|174:271,1,78.2000014915467,2|0,0:2|0:0,0:0:0:0:
209,217,48520,5,10,0:2:0:0:
222,209,48645,1,2,3:2:0:0:
186,136,48770,5,2,3:2:0:0:
199,126,48895,1,2,3:2:0:0:
175,49,49020,5,0,3:2:0:0:
217,20,49103,1,0,3:2:0:0:
266,32,49186,1,0,3:2:0:0:
297,73,49270,1,0,3:2:0:0:
344,92,49353,1,0,3:2:0:0:
394,81,49436,1,0,3:2:0:0:
426,40,49520,1,4,3:2:0:0:
355,5,49770,5,0,3:2:0:0:
304,0,49853,1,0,3:2:0:0:
266,32,49936,1,0,3:2:0:0:
258,83,50020,1,0,3:2:0:0:
225,122,50103,1,0,3:2:0:0:
176,136,50186,1,0,3:2:0:0:
129,114,50270,1,4,3:2:0:0:
17,7,50520,6,0,P|22:31|27:55,1,48.299998526001,8|0,0:2|0:0,0:2:0:0:
25,14,50645,2,0,P|30:38|35:62,1,48.299998526001,8|0,0:2|0:0,0:0:0:0:
50,138,50770,6,0,P|45:162|41:186,1,48.299998526001,8|0,0:2|0:0,0:2:0:0:
42,146,50895,2,0,P|37:170|33:194,1,48.299998526001,8|0,0:2|0:0,0:0:0:0:
8,283,51020,5,2,0:2:0:0:
56,263,51103,1,2,0:2:0:0:
107,279,51186,1,2,0:2:0:0:
137,306,51270,1,2,0:2:0:0:
159,331,51353,1,2,0:2:0:0:
184,344,51436,1,2,0:2:0:0:
203,344,51520,2,0,P|233:336|266:333,2,39.8666648417156,2|2|2,0:2|0:2|0:2,0:2:0:0:
307,373,51770,2,0,P|337:365|370:362,2,39.8666648417156,2|2|2,0:2|0:2|0:2,0:0:0:0:
454,369,52020,6,0,P|393:368|373:276,1,144.899995578003,6|0,3:2|0:0,0:2:0:0:
419,249,52270,2,0,B|466:261|466:261|468:260|468:260|522:273,1,96.5999970520021,2|0,3:2|3:2,0:2:0:0:
512,188,52520,2,0,B|465:176|465:176|463:177|463:177|409:164,1,96.5999970520021,2|0,3:2|3:0,0:2:0:0:
345,211,52770,1,2,3:2:0:0:
243,71,52895,5,2,3:2:0:0:
237,75,52957,1,0,3:2:0:0:
231,81,53020,2,0,P|242:139|252:181,1,96.5999970520021,2|0,3:2|3:2,0:2:0:0:
178,276,53270,2,0,P|167:218|157:176,1,96.5999970520021,2|0,3:2|3:2,0:0:0:0:
21,80,53520,1,2,3:2:0:0:
21,80,53582,1,0,3:2:0:0:
21,80,53645,1,0,3:2:0:0:
21,80,53707,1,0,3:2:0:0:
21,80,53770,2,0,P|45:122|101:118,1,96.5999970520021,0|0,3:2|3:2,0:2:0:0:
185,33,54020,5,2,3:2:0:0:
194,31,54082,1,0,3:2:0:0:
203,28,54145,1,0,3:2:0:0:
212,25,54207,1,0,3:2:0:0:
221,24,54270,2,0,P|278:37|325:52,1,96.5999970520021,2|2,3:2|3:2,0:0:0:0:
443,109,54520,2,0,P|386:122|339:137,1,96.5999970520021,2|2,3:2|3:2,0:0:0:0:
212,191,54770,2,0,P|269:204|316:219,1,96.5999970520021,2|2,3:2|3:2,0:0:0:0:
487,368,55020,5,6,3:2:0:0:
437,380,55103,1,0,3:2:0:0:
390,359,55186,1,0,3:2:0:0:
376,308,55270,1,0,3:2:0:0:
405,265,55353,1,0,3:2:0:0:
455,258,55436,1,0,3:2:0:0:
498,288,55520,6,0,L|508:240,2,39.8666648417156,2|2|2,3:2|0:2|0:2,0:2:0:0:
472,186,55770,2,0,L|482:138,2,39.8666648417156,2|2|2,3:2|0:2|0:2,0:2:0:0:
441,75,56020,6,0,B|390:43|326:104|386:90|321:153|269:115,1,193.199994104004,6|2,3:2|3:2,0:2:0:0:
184,215,56395,1,0,3:2:0:0:
135,16,56520,2,0,B|163:28|163:28|183:105,1,96.5999970520021,2|0,3:2|3:0,0:2:0:0:
167,207,56770,1,2,3:2:0:0:
153,202,56832,1,0,3:2:0:0:
139,197,56895,1,0,3:2:0:0:
125,191,56957,1,0,3:2:0:0:
111,186,57020,6,0,P|62:198|5:210,1,96.5999970520021,2|2,3:2|3:2,0:0:0:0:
8,330,57270,2,0,P|57:318|114:306,1,96.5999970520021,2|2,3:2|3:2,0:0:0:0:
214,377,57520,6,0,P|197:335|304:289,1,177.100005404663,2|0,3:2|0:2,0:2:0:0:
300,277,58020,6,0,L|288:334,4,48.299998526001,6|0|2|0|2,3:2|3:2|3:2|3:2|3:2,0:2:0:0:
462,191,58520,2,0,L|474:134,4,48.299998526001,6|0|2|0|2,3:2|3:2|3:2|3:2|3:2,0:2:0:0:
361,58,59020,5,6,3:2:0:0:
352,55,59082,1,0,3:2:0:0:
342,50,59145,1,0,3:2:0:0:
225,128,59270,2,0,L|148:147,2,48.299998526001,2|0|0,3:2|3:2|3:2,0:0:0:0:
373,181,59520,5,2,3:2:0:0:
364,178,59582,1,0,3:2:0:0:
354,173,59645,1,0,3:2:0:0:
237,251,59770,2,0,L|160:270,2,48.299998526001,2|0|0,3:2|3:2|3:2,0:0:0:0:
452,381,60270,6,0,P|439:330|425:283,1,96.5999970520021,6|0,3:2|3:2,0:2:0:0:
487,233,60520,2,0,P|500:284|514:331,1,96.5999970520021,2|0,3:2|3:0,0:2:0:0:
362,209,60770,5,2,3:2:0:0:
487,136,60895,1,2,3:2:0:0:
477,134,60957,1,0,3:2:0:0:
467,133,61020,2,0,P|447:109|475:50,1,96.5999970520021,2|0,3:2|3:2,0:2:0:0:
307,137,61270,2,0,P|337:131|374:185,1,96.5999970520021,2|0,3:2|3:2,0:0:0:0:
394,6,61520,1,2,3:2:0:0:
384,4,61582,1,0,3:2:0:0:
376,3,61645,2,0,P|365:32|300:37,1,96.5999970520021,0|0,3:2|3:2,0:0:0:0:
232,0,61895,1,0,3:2:0:0:
104,69,62020,5,2,3:2:0:0:
110,72,62082,1,0,3:2:0:0:
116,75,62145,1,0,3:2:0:0:
122,78,62207,1,0,3:2:0:0:
128,80,62270,2,0,P|113:146|104:188,1,96.5999970520021,2|2,3:2|3:2,0:0:0:0:
9,217,62520,2,0,P|24:283|33:325,1,96.5999970520021,2|2,3:2|3:2,0:0:0:0:
99,371,62770,1,2,3:2:0:0:
111,364,62895,1,2,3:2:0:0:
192,313,63020,5,6,3:2:0:0:
239,294,63103,1,0,3:2:0:0:
287,310,63186,1,0,3:2:0:0:
320,350,63270,1,0,3:2:0:0:
367,370,63353,1,0,3:2:0:0:
416,357,63436,1,0,3:2:0:0:
451,324,63520,6,0,L|442:263,3,33.733334362793,2|2|2|2,3:2|0:2|0:2|3:2,0:2:0:0:
380,192,64020,5,4,3:2:0:0:
380,192,64082,1,0,3:2:0:0:
380,192,64145,2,0,L|394:126,5,48.299998526001,0|0|0|0|0|0,3:2|3:2|3:2|3:2|3:2|3:2,0:0:0:0:
310,70,64520,5,4,3:2:0:0:
310,70,64582,1,0,3:2:0:0:
310,70,64645,2,0,L|296:4,5,48.299998526001,0|0|0|0|0|0,3:2|3:2|3:2|3:2|3:2|3:2,0:0:0:0:
211,196,65020,5,4,3:2:0:0:
211,196,65082,1,0,3:2:0:0:
211,196,65145,2,0,L|225:130,5,48.299998526001,0|0|0|0|0|0,3:2|3:2|3:2|3:2|3:2|3:2,0:0:0:0:
141,74,65520,5,4,3:2:0:0:
141,74,65582,1,0,3:2:0:0:
141,74,65645,2,0,L|127:8,5,48.299998526001,0|0|0|0|0|0,3:2|3:2|3:2|3:2|3:2|3:2,0:0:0:0:
21,110,66020,6,0,P|78:96|122:175,1,156.400002983093,0|8,3:2|0:2,0:2:0:0:
61,240,66395,2,0,P|137:213|241:191,1,156.400002983093,0|8,3:2|0:2,0:2:0:0:
418,344,66770,5,8,0:2:0:0:
404,337,66853,1,8,0:2:0:0:
388,332,66936,1,8,0:2:0:0:
374,327,67020,2,0,P|385:282|398:245,1,78.2000014915467,8|0,0:2|3:2,0:0:0:0:
308,197,67270,2,0,P|297:152|284:115,1,78.2000014915467,8|0,0:2|1:2,0:0:0:0:
337,36,67520,6,0,L|385:43,2,39.1000007457733,0|0|0,1:2|1:2|1:2,0:2:0:0:
259,28,67770,1,8,0:2:0:0:
24,363,68020,6,0,P|54:365|82:349,1,59.7999972625734,6|2,3:2|0:0,0:0:0:0:
147,301,68270,1,2,0:0:0:0:
147,301,68395,2,0,P|184:312|276:346,1,119.599994525147,2|2,0:0|0:0,0:0:0:0:
418,341,68770,6,0,B|363:365|314:291|368:297|320:228|261:254,1,202.4,2|0,0:0|0:0,0:0:0:0:
257,253,69520,6,0,P|250:215|237:174,1,59.7999972625734,2|2,0:2|0:0,0:0:0:0:
327,76,69770,2,0,P|334:114|347:155,1,59.7999972625734,2|2,0:0|0:0,0:0:0:0:
500,227,70020,5,2,0:2:0:0:
500,227,70145,1,2,0:0:0:0:
392,303,70270,1,2,0:0:0:0:
392,303,70395,2,0,P|359:312|324:329,1,59.7999972625734,2|0,0:0|0:0,0:0:0:0:
176,339,70645,1,2,0:2:0:0:
176,339,70770,2,0,P|212:359|282:266,1,179.39999178772,2|2,0:0|0:0,0:0:0:0:
277,268,71207,1,2,0:0:0:0:
271,264,71270,6,0,P|264:226|255:195,1,59.7999972625734,2|2,0:2|0:0,0:0:0:0:
326,154,71520,2,0,P|333:116|342:85,1,59.7999972625734,2|2,0:0|0:0,0:0:0:0:
268,34,71770,1,2,0:0:0:0:
268,34,71895,1,2,0:0:0:0:
165,82,72020,6,0,P|108:96|34:103,1,119.599994525147,2|2,0:0|0:0,0:0:0:0:
0,193,72395,2,0,P|57:179|131:172,1,119.599994525147,2|2,0:0|0:0,0:0:0:0:
172,230,72770,6,0,P|209:222|260:289,1,119.599994525147,2|2,0:0|0:0,0:0:0:0:
354,345,73145,2,0,P|344:298|333:199,1,119.599994525147,2|2,0:0|0:0,0:0:0:0:
342,218,73457,1,2,0:0:0:0:
349,211,73520,2,0,P|394:217|426:240,1,59.7999972625734,2|2,0:2|0:0,0:0:0:0:
510,162,73770,2,0,P|465:156|433:133,1,59.7999972625734,2|2,0:0|0:0,0:0:0:0:
329,94,74020,6,0,P|340:56|354:23,1,59.7999972625734,2|2,0:2|0:0,0:0:0:0:
208,87,74270,1,2,0:0:0:0:
208,87,74395,2,0,P|251:82|295:144,1,119.599994525147,2|2,0:0|0:0,0:0:0:0:
60,214,74770,6,0,P|49:176|35:143,1,59.7999972625734,2|2,0:2|0:0,0:0:0:0:
181,207,75020,1,2,0:0:0:0:
181,207,75145,2,0,P|138:202|94:264,1,119.599994525147,2|2,0:0|0:0,0:0:0:0:
31,355,75520,5,10,0:2:0:0:
67,339,75603,1,2,0:0:0:0:
106,341,75686,1,2,0:0:0:0:
143,355,75770,1,10,0:2:0:0:
178,372,75853,1,2,0:0:0:0:
217,372,75936,1,2,0:0:0:0:
249,350,76020,6,0,P|239:297|226:256,1,87.3999976661683,6|2,3:2|0:2,0:2:0:0:
316,196,76270,1,10,0:2:0:0:
316,196,76395,2,0,B|364:177|407:242|360:237|402:297|453:274,1,174.799995332337,2|2,3:2|3:2,0:2:0:0:
224,154,76770,6,0,P|234:101|247:60,1,87.3999976661683,10|2,0:2|0:2,0:2:0:0:
157,0,77020,1,2,0:2:0:0:
157,0,77145,2,0,B|108:-18|65:46|112:41|70:101|19:78,1,174.799995332337,2|2,3:2|0:2,0:2:0:0:
154,117,77520,6,0,P|196:120|223:153,1,87.3999976661683,2|2,3:2|3:2,0:0:0:0:
316,196,77770,2,0,P|303:237|296:280,1,87.3999976661683,10|2,0:2|0:2,0:0:0:0:
204,363,78020,5,2,3:2:0:0:
213,358,78145,1,2,0:2:0:0:
123,314,78270,5,10,0:2:0:0:
132,309,78395,1,2,3:2:0:0:
44,270,78520,5,2,0:2:0:0:
35,265,78645,1,2,3:2:0:0:
125,221,78770,5,10,0:2:0:0:
116,216,78895,1,2,0:2:0:0:
203,187,79020,6,0,P|210:155|216:131,3,43.6999988330841,2|2|2|2,3:2|3:2|3:2|3:2,0:2:0:0:
182,118,79270,2,0,P|189:86|195:62,3,43.6999988330841,10|0|2|0,0:2|0:0|3:2|0:0,0:0:0:0:
222,52,79520,6,0,P|266:64|325:70,1,87.3999976661683,2|2,0:0|3:2,0:0:0:0:
113,162,79770,2,0,P|69:150|10:144,1,87.3999976661683,10|2,0:2|0:2,0:2:0:0:
207,282,80020,6,0,P|252:289|288:254,1,87.3999976661683,6|2,3:2|0:2,0:0:0:0:
397,298,80270,1,10,0:2:0:0:
292,174,80395,2,0,P|308:244|325:357,1,174.799995332337,2|2,3:2|3:2,0:2:0:0:
464,83,80770,6,0,P|451:131|441:199,1,87.3999976661683,10|2,0:2|0:2,0:2:0:0:
353,81,81020,1,10,0:2:0:0:
485,9,81145,2,0,P|461:55|351:28,1,174.799995332337,2|2,3:2|3:2,0:2:0:0:
179,20,81520,5,10,0:2:0:0:
179,20,81582,1,2,0:2:0:0:
179,20,81645,1,2,3:2:0:0:
179,20,81707,1,2,0:2:0:0:
179,20,81770,2,0,P|150:26|119:39,3,43.6999988330841,10|2|2|2,0:2|0:2|0:2|0:2,0:2:0:0:
70,10,82020,6,0,P|94:61|107:106,1,87.3999976661683,10|0,0:2|3:2,0:2:0:0:
226,177,82270,2,0,P|202:126|189:81,1,87.3999976661683,10|0,0:2|3:2,0:2:0:0:
91,242,82520,6,0,P|115:191|128:146,1,87.3999976661683,10|0,0:2|3:2,0:2:0:0:
270,70,82770,2,0,P|279:38|289:14,3,43.6999988330841,10|0|8|0,0:2|0:0|0:2|0:0,0:0:0:0:
338,18,83020,5,2,3:2:0:0:
338,18,83082,1,0,3:2:0:0:
338,18,83145,1,0,3:2:0:0:
338,18,83207,1,0,3:2:0:0:
338,18,83270,2,0,P|388:34|434:38,1,87.3999976661683,10|8,0:2|0:2,0:0:0:0:
512,197,83520,2,0,P|462:181|416:177,1,87.3999976661683,2|0,3:2|3:2,0:2:0:0:
317,258,83770,1,14,3:2:0:0:
5,372,84020,5,6,3:2:0:0:
57,359,84103,1,2,0:2:0:0:
85,314,84186,1,2,0:2:0:0:
83,271,84270,1,2,0:2:0:0:
67,244,84353,1,2,0:2:0:0:
50,227,84436,1,2,0:2:0:0:
29,215,84520,5,6,3:2:0:0:
45,241,84603,1,2,0:2:0:0:
70,251,84686,1,2,0:2:0:0:
90,249,84770,1,2,0:2:0:0:
103,242,84853,1,2,0:2:0:0:
113,237,84936,1,2,0:2:0:0:
121,232,85020,6,0,P|113:179|101:132,1,92,0|4,3:2|0:2,0:2:0:0:
324,53,86020,6,0,B|392:26|428:103|428:103|346:113|281:175|300:267,1,338.099989682007,10|0,0:2|0:0,0:0:0:0:
378,203,86520,6,0,P|354:156|297:131,1,112.699996560669,2|0,0:2|0:0,0:0:0:0:
128,261,87020,6,0,B|107:295|154:322|154:322|117:201|247:158|302:215|302:215|250:220|238:264,1,402.5,6|0,3:2|0:0,0:0:0:0:
308,288,87520,6,0,P|295:325|282:368,1,80.5,2|0,0:2|0:0,0:0:0:0:
379,370,88020,6,0,B|407:321|374:236|269:213|309:296|198:271|172:204|197:149,1,338.099989682007,10|0,0:2|0:0,0:0:0:0:
241,86,88520,6,0,B|297:95|340:175|289:270|252:186|200:287|235:351|293:367,1,338.099989682007,2|0,0:2|0:0,0:0:0:0:
315,297,89020,5,0,3:2:0:0:
184,196,89186,1,0,3:2:0:0:
317,145,89353,5,0,3:2:0:0:
326,150,89437,1,0,3:2:0:0:
336,156,89520,1,0,3:2:0:0:
329,0,89686,5,0,3:2:0:0:
460,101,89852,1,0,3:2:0:0:
186,71,90020,6,0,B|231:52|274:87|274:87|167:83|88:148|104:249,1,338.099989682007,10|0,0:2|0:0,0:0:0:0:
132,24,90520,6,0,P|168:76|196:203,1,177.100005404663,2|0,0:2|0:0,0:0:0:0:
295,230,91020,6,0,B|313:255|304:293|304:293|236:188|129:203|129:203|171:228|169:275,1,338.099989682007,6|0,3:2|0:0,0:0:0:0:
217,355,91520,6,0,P|273:313|398:302,1,177.100005404663,2|0,0:2|0:0,0:0:0:0:
453,329,92020,6,0,B|500:314|521:376|521:376|490:342|472:369|450:325,1,177.100005404663,10|0,0:2|0:0,0:0:0:0:
386,375,92520,6,0,B|336:324|371:236|436:237|440:247|445:256|502:235|538:161|471:103,1,338.099989682007,6|0,3:2|0:0,0:0:0:0:
423,63,93020,6,0,P|431:37|439:17,4,48.299998526001,0|0|0|0|2,3:2|3:2|3:2|3:2|0:2,0:0:0:0:
188,261,93520,6,0,P|196:283|203:306,4,48.299998526001,0|0|0|0|2,3:2|3:2|3:2|3:2|0:2,0:0:0:0:
4,10,94020,6,0,B|44:-18|114:0|142:81|73:57|103:142|170:160|213:131,1,287.5,10|0,0:2|0:0,0:0:0:0:
237,0,94395,6,0,B|281:20|300:90|244:155|230:83|172:151|190:218|236:241,1,287.5
351,217,94770,6,0,P|277:233|266:330,1,172.5,2|0,0:2|0:0,0:0:0:0:
334,367,95020,5,6,3:2:0:0:
334,367,95145,2,0,B|300:390|241:375|218:307|276:327|250:256|194:240|158:265,1,241.499992630005
96,307,95520,6,0,B|87:355|22:344|22:344|66:340|59:301|100:306,1,177.100005404663,2|0,0:2|0:0,0:0:0:0:
88,229,96020,6,0,B|50:197|91:146|91:146|73:187|111:200|86:233,1,177.100005404663,10|0,0:2|0:0,0:0:0:0:
161,262,96520,6,0,B|207:245|230:306|230:306|204:270|174:296|157:258,1,177.100005404663,6|0,0:2|0:0,0:0:0:0:
96,307,97020,5,6,3:2:0:0:
188,143,97270,1,0,3:2:0:0:
161,262,97520,5,10,3:2:0:0:
152,238,97645,1,8,0:2:0:0:
143,214,97770,1,8,3:2:0:0:
436,186,98020,5,2,3:2:0:0:
344,22,98270,1,0,3:2:0:0:
358,120,98520,5,10,3:2:0:0:
416,71,98645,1,8,0:2:0:0:
358,120,98770,5,8,3:2:0:0:
416,71,98895,1,10,0:2:0:0:
440,192,99020,5,2,3:2:0:0:
348,356,99270,1,0,3:2:0:0:
376,251,99520,5,10,3:2:0:0:
385,275,99645,1,8,0:2:0:0:
394,299,99770,1,8,3:2:0:0:
117,115,100020,5,2,3:2:0:0:
209,279,100270,1,0,3:2:0:0:
201,182,100395,5,2,0:0:0:0:
201,182,100457,1,8,0:2:0:0:
201,182,100520,1,10,3:2:0:0:
133,219,100645,1,8,0:2:0:0:
68,269,100770,5,8,3:2:0:0:
0,232,100895,1,10,0:2:0:0:
141,378,101020,6,0,P|183:361|251:356,1,87.3999976661683,6|0,3:2|3:2,0:2:0:0:
373,229,101270,2,0,P|331:246|263:251,1,87.3999976661683,0|2,3:2|3:2,0:2:0:0:
189,229,101520,5,2,3:2:0:0:
185,222,101645,1,0,3:2:0:0:
324,352,101770,1,0,3:2:0:0:
328,359,101895,1,2,3:2:0:0:
288,172,102020,6,0,P|301:119|315:68,1,87.3999976661683,6|0,3:2|3:2,0:2:0:0:
91,240,102270,2,0,P|102:282|113:325,1,87.3999976661683,0|2,3:2|3:2,0:2:0:0:
32,41,102520,5,2,3:2:0:0:
22,36,102645,1,0,3:2:0:0:
187,140,102770,1,0,3:2:0:0:
197,135,102895,1,2,3:2:0:0:
14,196,103020,5,14,0:2:0:0:
41,174,103103,1,8,0:2:0:0:
81,176,103186,1,8,0:2:0:0:
116,202,103270,2,0,P|125:230|131:266,2,58.2666651107789,10|8|8,0:2|0:2|0:2,0:0:0:0:
177,331,103520,5,14,0:2:0:0:
204,353,103603,1,8,0:2:0:0:
244,351,103686,1,8,0:2:0:0:
279,329,103770,2,0,P|288:301|294:265,2,58.2666651107789,10|8|8,0:2|0:2|0:2,0:0:0:0:
371,199,104020,5,14,0:2:0:0:
371,199,104082,1,8,0:2:0:0:
371,199,104145,2,0,L|361:134,5,43.6999988330841,8|8|10|8|8|8,0:2|0:2|0:2|0:2|0:2|0:2,0:0:0:0:
297,96,104520,5,14,0:2:0:0:
297,96,104582,1,8,0:2:0:0:
297,96,104645,2,0,L|307:31,5,43.6999988330841,8|8|10|8|8|8,0:2|0:2|0:2|0:2|0:2|0:2,0:0:0:0:
227,152,105020,5,6,3:2:0:0:
256,192,105082,12,0,107020,0:2:0:0:
32,356,111395,5,2,0:2:0:0:
32,356,111458,1,2,0:2:0:0:
32,356,111520,2,0,P|74:351|111:333,1,78.2000014915467,2|2,0:2|0:2,0:0:0:0:
174,282,111770,2,0,P|216:287|253:305,1,78.2000014915467,2|2,0:2|0:2,0:0:0:0:
300,374,112020,6,0,P|281:304|241:171,1,193.199994104004,6|10,3:2|0:2,0:2:0:0:
99,96,112395,2,0,P|130:139|184:133,1,96.5999970520021,2|0,0:2|3:2,0:2:0:0:
258,101,112645,1,2,0:2:0:0:
391,248,112770,6,0,P|335:262|286:283,1,96.5999970520021,10|0,0:2|0:2,0:2:0:0:
450,343,113020,1,2,3:2:0:0:
322,177,113145,2,0,P|412:213|507:237,1,193.199994104004,2|2,0:2|0:2,0:2:0:0:
505,82,113520,2,0,P|461:92|442:151,1,96.5999970520021,2|2,3:2|0:2,0:0:0:0:
296,269,113770,5,10,0:2:0:0:
296,269,113832,1,2,0:2:0:0:
296,269,113895,1,2,0:2:0:0:
296,269,113957,1,2,0:2:0:0:
296,269,114020,2,0,P|309:210|331:155,1,96.5999970520021,2|2,3:2|0:2,0:0:0:0:
226,73,114270,1,10,0:2:0:0:
372,101,114395,2,0,P|312:84|228:183,1,193.199994104004,2|2,0:2|0:2,0:2:0:0:
136,372,114770,6,0,P|123:313|101:258,1,96.5999970520021,10|0,0:2|0:2,0:2:0:0:
0,193,115020,1,2,3:2:0:0:
146,114,115145,2,0,P|111:190|71:312,1,193.199994104004,2|2,0:2|0:2,0:2:0:0:
166,350,115520,2,0,P|191:307|166:257,1,96.5999970520021,2|2,3:2|0:2,0:0:0:0:
53,141,115770,2,0,P|107:128|158:108,1,96.5999970520021,10|2,0:2|0:2,0:0:0:0:
422,100,116020,6,0,P|368:85|273:38,1,144.899995578003,2|0,3:2|0:2,0:2:0:0:
199,22,116270,6,0,P|207:55|216:94,2,64.399998034668,10|2|2,0:2|0:2|0:2,0:2:0:0:
288,147,116520,2,0,P|280:180|271:219,2,64.399998034668,2|2|2,3:2|0:2|0:2,0:2:0:0:
200,269,116770,2,0,P|208:302|217:341,2,64.399998034668,10|2|2,0:2|0:2|0:2,0:2:0:0:
355,269,117020,5,2,3:2:0:0:
370,261,117103,1,2,0:2:0:0:
385,253,117186,1,2,0:2:0:0:
403,244,117270,2,0,P|444:255|487:264,2,64.399998034668,10|2|2,0:2|0:2|0:2,0:0:0:0:
188,170,117520,5,2,3:2:0:0:
173,162,117603,1,2,0:2:0:0:
158,154,117686,1,2,0:2:0:0:
141,146,117770,2,0,P|100:157|57:166,2,64.399998034668,10|0|0,0:2|0:0|0:0,0:0:0:0:
236,14,118020,6,0,P|243:43|251:72,3,48.299998526001,6|0|2|0,3:2|3:2|3:2|3:2,0:2:0:0:
482,122,118395,6,0,P|475:151|467:180,3,48.299998526001,2|0|2|0,3:2|3:2|3:2|3:2,0:2:0:0:
277,255,118770,6,0,P|284:284|292:313,3,48.299998526001,2|0|2|0,3:2|3:2|3:2|3:2,0:2:0:0:
275,340,119020,6,0,P|224:347|181:373,1,96.5999970520021,2|2,3:2|3:2,0:2:0:0:
55,252,119270,2,0,P|106:245|149:219,1,96.5999970520021,2|2,3:2|3:2,0:2:0:0:
257,147,119520,5,10,3:2:0:0:
257,147,119582,1,0,3:2:0:0:
257,147,119645,1,10,3:2:0:0:
257,147,119707,1,0,3:2:0:0:
257,147,119770,2,0,P|264:106|268:81,3,48.299998526001,10|0|10|0,3:2|3:2|3:2|3:2,0:0:0:0:
294,61,120020,6,0,P|356:78|412:76,1,96.5999970520021,6|2,3:2|0:2,0:2:0:0:
387,78,120207,1,2,0:2:0:0:
387,78,120270,1,10,0:2:0:0:
477,235,120395,2,0,P|415:218|359:220,1,96.5999970520021,2|2,0:2|3:2,0:2:0:0:
383,217,120582,1,2,0:2:0:0:
383,217,120645,1,2,0:2:0:0:
202,282,120770,6,0,P|183:330|172:381,1,96.5999970520021,10|2,0:2|0:2,0:0:0:0:
108,239,121020,2,0,P|75:198|37:163,1,96.5999970520021,2|2,3:2|0:2,0:0:0:0:
192,179,121270,2,0,P|243:171|292:155,1,96.5999970520021,10|2,0:2|0:2,0:0:0:0:
136,21,121520,1,2,3:2:0:0:
136,21,121582,1,2,0:2:0:0:
136,21,121645,1,2,0:2:0:0:
136,21,121707,1,2,0:2:0:0:
136,21,121770,2,0,L|125:84,3,48.299998526001,10|2|2|2,0:2|0:2|3:2|0:2,0:2:0:0:
91,102,122020,6,0,P|103:166|111:213,1,96.5999970520021,2|2,3:2|0:2,0:2:0:0:
108,197,122207,1,2,0:2:0:0:
108,197,122270,1,10,0:2:0:0:
261,340,122395,2,0,P|273:276|281:229,1,96.5999970520021,2|2,0:2|3:2,0:2:0:0:
279,245,122582,1,2,0:2:0:0:
279,245,122645,1,2,0:2:0:0:
457,136,122770,6,0,P|422:102|363:108,1,96.5999970520021,10|2,0:2|0:2,0:0:0:0:
227,154,123020,1,2,3:2:0:0:
370,222,123145,1,2,0:2:0:0:
299,73,123270,1,10,0:2:0:0:
299,73,123395,1,2,0:2:0:0:
142,133,123520,5,2,3:2:0:0:
142,133,123582,1,2,0:2:0:0:
142,133,123645,1,2,0:2:0:0:
142,133,123707,1,2,0:2:0:0:
142,133,123770,2,0,P|116:125|85:119,3,48.299998526001,10|2|2|2,0:2|0:2|3:2|0:2,0:2:0:0:
63,144,124020,6,0,P|39:170|48:235,1,96.5999970520021,6|8,3:2|0:2,0:2:0:0:
99,332,124270,1,2,3:2:0:0:
226,226,124395,1,10,0:2:0:0:
226,226,124457,1,2,0:2:0:0:
226,226,124520,2,0,P|233:272|205:310,1,96.5999970520021,2|8,3:2|0:2,0:2:0:0:
146,152,124770,2,0,P|162:104|179:50,1,96.5999970520021,2|8,3:2|0:2,0:0:0:0:
387,296,125020,6,0,P|371:248|354:194,1,96.5999970520021,2|8,3:2|0:2,0:2:0:0:
449,92,125270,1,2,3:2:0:0:
271,94,125395,1,10,0:2:0:0:
271,94,125457,1,2,0:2:0:0:
271,94,125520,2,0,P|307:126|361:115,1,96.5999970520021,2|8,3:2|0:2,0:2:0:0:
305,0,125770,2,0,P|352:-5|387:26,1,96.5999970520021,2|8,3:2|0:2,0:0:0:0:
205,193,126020,5,14,0:2:0:0:
97,60,126145,1,2,3:2:0:0:
97,60,126207,1,2,3:2:0:0:
97,60,126270,2,0,P|84:122|72:174,1,96.5999970520021,10|2,0:0|3:2,0:0:0:0:
130,247,126520,5,10,0:2:0:0:
271,94,126645,1,2,3:2:0:0:
271,94,126707,1,2,3:2:0:0:
271,94,126770,2,0,P|284:156|296:208,1,96.5999970520021,10|2,0:2|3:2,0:2:0:0:
231,353,127020,5,10,0:2:0:0:
206,180,127145,1,2,3:2:0:0:
206,180,127207,1,2,3:2:0:0:
206,180,127270,2,0,P|211:216|216:243,3,48.299998526001,2|2|2|2,3:2|3:2|3:2|3:2,0:0:0:0:
236,247,127520,6,0,P|276:271|331:254,1,96.5999970520021,10|2,0:2|3:2,0:2:0:0:
338,241,127707,1,2,3:2:0:0:
338,241,127770,2,0,P|384:230|424:254,1,96.5999970520021,10|2,0:2|3:2,0:0:0:0:
496,41,128020,5,6,3:2:0:0:
496,41,128082,1,0,3:2:0:0:
496,41,128145,1,2,3:2:0:0:
496,41,128207,1,2,3:2:0:0:
496,41,128270,2,0,P|468:36|439:25,3,48.299998526001,2|0|2|0,3:2|3:2|3:2|3:2,0:2:0:0:
320,105,128520,5,2,3:2:0:0:
320,105,128582,1,2,3:2:0:0:
320,105,128645,1,2,3:2:0:0:
320,105,128707,1,2,3:2:0:0:
320,105,128770,2,0,P|348:110|377:121,3,48.299998526001,2|0|2|0,3:2|3:2|3:2|3:2,0:0:0:0:
451,180,129020,6,0,P|435:233|425:294,1,96.5999970520021,6|10,3:2|0:2,0:2:0:0:
305,216,129270,1,2,3:2:0:0:
456,367,129395,2,0,B|411:329|338:369|397:376|317:417|261:354,1,193.199994104004,10|10,0:2|0:2,0:2:0:0:
103,261,129770,1,2,3:2:0:0:
103,261,129895,1,10,0:2:0:0:
181,370,130020,6,0,P|198:312|219:267,1,96.5999970520021,2|10,3:2|0:2,0:2:0:0:
212,279,130207,1,2,0:2:0:0:
212,279,130270,1,2,3:2:0:0:
91,175,130395,1,10,0:2:0:0:
216,81,130520,2,0,P|225:111|231:138,2,48.299998526001,2|2|10,3:2|0:2|0:2,0:0:0:0:
66,13,130770,6,0,P|103:52|158:41,1,96.5999970520021,2|10,3:2|0:2,0:0:0:0:
358,167,131020,2,0,P|311:168|281:204,1,96.5999970520021,2|10,3:2|0:2,0:2:0:0:
176,320,131270,1,2,3:2:0:0:
351,290,131395,2,0,P|292:259|164:215,1,193.199994104004,10|10,0:2|0:2,0:2:0:0:
15,304,131770,1,2,3:2:0:0:
15,304,131832,1,0,3:2:0:0:
15,304,131895,1,10,0:2:0:0:
61,135,132020,6,0,P|77:192|85:237,1,96.5999970520021,6|10,3:2|0:2,0:2:0:0:
83,228,132207,1,2,0:2:0:0:
83,228,132270,1,2,3:2:0:0:
246,135,132395,1,10,0:2:0:0:
186,276,132520,2,0,P|177:305|171:339,2,48.299998526001,2|2|10,3:2|0:2|0:2,0:0:0:0:
145,79,132770,2,0,P|139:55|132:32,2,48.299998526001,2|0|10,3:2|3:2|0:2,0:2:0:0:
290,223,133020,6,0,P|342:207|398:201,1,96.5999970520021,2|10,3:2|0:2,0:2:0:0:
383,201,133207,1,2,0:2:0:0:
383,201,133270,1,2,3:2:0:0:
473,95,133395,2,0,P|421:79|365:73,1,96.5999970520021,10|2,0:2|3:2,0:2:0:0:
379,73,133582,1,2,0:2:0:0:
379,73,133645,1,10,0:2:0:0:
478,198,133770,2,0,P|471:236|464:263,2,48.299998526001,2|0|10,3:2|3:2|0:2,0:2:0:0:
292,52,134020,5,6,3:2:0:0:
292,52,134082,1,2,0:2:0:0:
292,52,134145,1,10,0:2:0:0:
292,52,134207,1,2,0:2:0:0:
292,52,134270,2,0,L|281:115,3,48.299998526001,2|2|10|2,3:2|3:2|0:2|0:2,0:2:0:0:
218,143,134520,2,0,L|229:206,3,48.299998526001,2|2|10|2,3:2|0:2|0:2|0:2,0:0:0:0:
163,239,134770,2,0,L|152:302,3,48.299998526001,2|2|10|2,3:2|3:2|0:2|0:2,0:0:0:0:
112,356,135020,6,0,P|67:343|12:342,1,96.5999970520021,10|2,0:2|3:2,0:2:0:0:
7,339,135207,1,0,3:2:0:0:
0,335,135270,2,0,P|-14:285|24:247,1,96.5999970520021,10|2,0:2|3:2,0:0:0:0:
123,134,135520,2,0,P|86:171|34:157,1,96.5999970520021,10|2,0:2|3:2,0:0:0:0:
0,13,135770,1,10,0:2:0:0:
23,18,135832,1,8,0:2:0:0:
46,23,135895,1,8,0:2:0:0:
69,29,135957,1,8,0:2:0:0:
92,36,136020,5,6,3:2:0:0:
498,366,138020,5,6,3:2:0:0:
492,347,138082,1,0,3:2:0:0:
488,327,138145,1,2,3:2:0:0:
487,307,138207,1,0,3:2:0:0:
488,287,138270,2,0,P|498:252|508:223,3,48.299998526001,2|0|2|0,3:2|3:2|3:2|3:2,0:0:0:0:
422,243,138520,2,0,P|429:219|437:197,3,48.299998526001,2|0|2|0,3:2|3:2|3:2|3:2,0:0:0:0:
358,276,138770,1,2,3:2:0:0:
8,191,139020,5,6,3:2:0:0:
14,172,139082,1,0,3:2:0:0:
18,152,139145,1,2,3:2:0:0:
19,132,139207,1,0,3:2:0:0:
18,112,139270,2,0,P|8:77|-2:48,3,48.299998526001,2|0|2|0,3:2|3:2|3:2|3:2,0:0:0:0:
83,68,139520,2,0,P|76:44|69:22,3,48.299998526001,2|0|2|0,3:2|3:2|3:2|3:2,0:0:0:0:
148,101,139770,6,0,P|194:110|240:130,1,75.9000023162843,2|0,3:2|0:0,0:0:0:0:
229,129,140020,1,6,3:2:0:0:
256,192,140082,12,2,143770,0:2:0:0:
165,271,143895,6,0,L|177:315,2,25.3000007720948,2|0|6,3:2|3:0|3:2,0:0:0:0:
481,362,147895,5,10,0:2:0:0:
481,362,147957,1,8,0:0:0:0:
481,362,148020,2,0,B|430:382|388:325|431:331|379:274|324:305,1,174.799995332337,6|8,3:2|0:2,0:2:0:0:
177,304,148395,1,2,3:2:0:0:
177,304,148520,2,0,P|227:309|257:356,1,87.3999976661683,2|0,0:0|3:2,0:0:0:0:
344,370,148770,6,0,P|328:302|290:177,1,174.799995332337,10|0,0:2|0:2,0:0:0:0:
365,123,149145,1,2,3:2:0:0:
365,123,149270,2,0,P|404:134|439:181,1,87.3999976661683,10|8,0:2|0:2,0:0:0:0:
256,92,149520,5,2,3:2:0:0:
263,89,149645,1,0,3:2:0:0:
169,86,149770,5,10,0:2:0:0:
315,16,149895,1,8,0:2:0:0:
233,164,150020,6,0,P|162:130|52:105,1,174.799995332337,2|8,3:2|0:2,0:2:0:0:
7,207,150395,1,2,3:2:0:0:
7,207,150520,2,0,P|54:209|88:177,1,87.3999976661683,2|0,0:0|3:2,0:0:0:0:
78,33,150770,6,0,P|103:94|132:223,1,174.799995332337,10|0,0:2|0:2,0:0:0:0:
69,377,151145,1,2,3:2:0:0:
69,377,151270,2,0,P|81:331|106:285,1,87.3999976661683,10|8,0:2|0:2,0:2:0:0:
203,261,151520,5,2,3:2:0:0:
212,258,151645,1,2,3:2:0:0:
300,234,151770,5,10,0:2:0:0:
309,231,151895,1,10,0:2:0:0:
410,286,152020,6,0,P|424:333|438:382,1,87.3999976661683,2|2,3:2|3:2,0:2:0:0:
493,218,152270,1,8,0:2:0:0:
498,213,152395,1,2,3:2:0:0:
343,145,152520,6,0,P|329:192|315:241,1,87.3999976661683,2|0,3:2|3:2,0:0:0:0:
260,77,152770,1,10,3:2:0:0:
255,72,152895,1,2,3:2:0:0:
487,73,153020,5,0,3:2:0:0:
466,67,153103,1,0,3:2:0:0:
438,56,153186,1,0,3:2:0:0:
410,46,153270,2,0,P|457:33|498:18,1,87.3999976661683,8|8,0:2|3:2,0:2:0:0:
318,228,153520,5,2,3:2:0:0:
339,222,153603,1,0,3:0:0:0:
367,211,153686,1,0,3:0:0:0:
395,201,153770,2,0,P|348:188|307:173,1,87.3999976661683,10|8,0:2|3:2,0:2:0:0:
117,80,154020,5,4,3:2:0:0:
104,126,154103,1,0,3:2:0:0:
126,170,154186,1,0,3:2:0:0:
171,192,154270,1,0,3:2:0:0:
220,203,154353,1,0,3:2:0:0:
245,245,154436,1,0,3:2:0:0:
239,294,154520,1,0,3:2:0:0:
157,277,154770,5,4,3:2:0:0:
130,236,154854,1,0,3:2:0:0:
134,187,154937,1,0,3:2:0:0:
173,156,155020,1,0,3:2:0:0:
204,116,155104,1,0,3:2:0:0:
204,67,155187,1,0,3:2:0:0:
172,32,155270,1,0,3:2:0:0:
21,306,155520,5,8,0:2:0:0:
89,262,155645,1,0,1:2:0:0:
89,262,155707,1,0,1:2:0:0:
89,262,155770,2,0,P|137:272|183:284,1,69.0000026321412,0|8,1:2|0:2,0:2:0:0:
468,323,156020,5,4,3:2:0:0:
419,329,156104,1,0,3:2:0:0:
377,304,156187,1,0,3:2:0:0:
366,255,156270,1,0,3:2:0:0:
343,210,156354,1,0,3:2:0:0:
299,188,156437,1,0,3:2:0:0:
254,202,156520,1,0,3:2:0:0:
264,323,156770,5,4,3:2:0:0:
313,329,156854,1,0,3:2:0:0:
355,304,156937,1,0,3:2:0:0:
366,254,157020,6,0,P|360:216|348:160,1,70.5333346786499,4|0,3:2|0:2,0:2:0:0:
387,223,157186,2,0,P|381:188|374:153,1,70.5333346786499,2|0,3:2|0:2,0:2:0:0:
410,183,157353,2,0,P|404:145|392:89,1,70.5333346786499,2|0,3:2|0:2,0:2:0:0:
123,191,157520,6,0,P|129:153|141:97,1,70.5333346786499,2|0,3:2|0:2,0:2:0:0:
90,146,157686,2,0,P|96:108|108:52,1,70.5333346786499,2|0,3:2|0:2,0:2:0:0:
68,101,157853,2,0,P|74:63|86:7,1,70.5333346786499,2|0,3:2|0:2,0:2:0:0:
250,203,158020,6,0,P|269:222|274:292,1,88.9333360473634,2|0,3:2|0:2,0:2:0:0:
255,190,158186,2,0,P|261:164|320:124,1,88.9333360473634,2|0,3:2|0:2,0:2:0:0:
235,196,158353,2,0,P|209:202|145:172,1,88.9333360473634,2|0,3:2|0:2,0:2:0:0:
164,23,158520,6,0,P|192:69|214:124,1,88.9333360473634,2|0,3:2|0:2,0:2:0:0:
149,353,158686,2,0,P|174:305|211:259,1,88.9333360473634,2|0,3:2|0:2,0:2:0:0:
432,205,158853,2,0,P|378:206|319:197,1,88.9333360473634,2|0,3:2|0:2,0:2:0:0:
22,375,159645,6,0,P|16:341|8:304,1,64.399998034668
68,244,160020,5,6,3:2:0:0:
84,248,160082,1,0,3:2:0:0:
100,252,160145,1,0,3:2:0:0:
116,256,160207,1,0,3:2:0:0:
132,260,160270,2,0,P|147:212|153:191,3,57.5,0|0|0|0,3:2|3:2|3:2|3:2,0:0:0:0:
211,162,160520,2,0,P|196:114|190:93,3,57.5,6|0|0|0,3:2|3:2|3:2|3:2,0:2:0:0:
255,61,160770,2,0,P|270:13|276:-8,3,57.5,0|0|0|0,3:2|3:2|3:2|3:2,0:2:0:0:
338,110,161020,5,6,3:2:0:0:
354,115,161082,1,0,3:2:0:0:
370,119,161145,1,0,3:2:0:0:
386,122,161207,1,0,3:2:0:0:
402,126,161270,2,0,P|432:109|448:72,3,57.5,0|0|0|0,3:2|3:2|3:2|3:2,0:0:0:0:
397,208,161520,2,0,P|426:225|466:220,3,57.5,6|0|0|0,3:2|3:2|3:2|3:2,0:2:0:0:
325,239,161770,2,0,P|324:273|348:305,3,57.5,0|0|0|0,3:2|3:2|3:2|3:2,0:2:0:0:
275,358,162020,5,6,3:2:0:0:
258,352,162082,1,0,3:2:0:0:
241,346,162145,1,0,3:2:0:0:
224,340,162207,1,0,3:2:0:0:
208,332,162270,2,0,L|138:344,3,57.5,0|0|0|0,3:2|3:2|3:2|3:2,0:0:0:0:
160,262,162520,2,0,L|90:274,3,57.5,4|0|0|0,3:2|3:2|3:2|3:2,0:0:0:0:
41,222,162770,6,0,L|63:126,1,69.0000026321412,2|0,3:2|0:0,0:2:0:0:
110,38,163020,5,6,3:2:0:0:
156,22,163103,1,0,3:2:0:0:
204,44,163186,1,0,3:2:0:0:
223,90,163270,1,2,3:2:0:0:
230,138,163353,1,0,3:2:0:0:
257,175,163436,1,0,3:2:0:0:
292,190,163520,1,6,3:2:0:0:
321,187,163603,1,0,3:2:0:0:
342,174,163686,1,0,3:2:0:0:
355,156,163770,1,2,3:2:0:0:
357,140,163853,1,0,3:2:0:0:
352,129,163936,1,0,3:2:0:0:
347,118,164020,5,6,3:2:0:0:
