osu file format v14

[General]
AudioFilename: audio.mp3
AudioLeadIn: 0
PreviewTime: 31609
Countdown: 0
SampleSet: Normal
StackLeniency: 0.7
Mode: 1
LetterboxInBreaks: 0
WidescreenStoryboard: 1

[Editor]
DistanceSpacing: 0.7
BeatDivisor: 4
GridSize: 32
TimelineZoom: 1.099999

[Metadata]
Title:Effluxion feat. Ririsya
TitleUnicode:Effluxion feat. 凛々咲
Artist:Zenpaku
ArtistUnicode:Zenpaku
Creator:dtn
Version:Kantan
Source:
Tags:Dtnt0r dj-jo dj jo japanese instrumental Drum and Bass Hardcore Artcore Electronic ririsha d'n'b dnb featured artist fa
BeatmapID:3665699
BeatmapSetID:1788969

[Difficulty]
HPDrainRate:8
CircleSize:5
OverallDifficulty:3
ApproachRate:5
SliderMultiplier:1.4
SliderTickRate:1

[Events]
//Background and Video events
0,0,"effluxion.jpg",0,120
//Break Periods
2,52020,59462
//Storyboard Layer 0 (Background)
//Storyboard Layer 1 (Fail)
//Storyboard Layer 2 (Pass)
//Storyboard Layer 3 (Foreground)
//Storyboard Layer 4 (Overlay)
//Storyboard Sound Samples

[TimingPoints]
31,315.789473684211,4,1,0,50,1,8
1294,315.789473684211,4,1,0,50,1,0
1294,-100,4,1,0,50,0,0
10842,-100,4,1,0,100,0,0
31609,-100,4,1,0,100,0,1
51820,-100,4,1,0,50,0,0
61925,-100,4,1,0,75,0,0
72030,-100,4,1,0,100,0,0
92241,-100,4,1,0,100,0,1
130451,-100,4,1,0,60,0,0
135149,-100,4,1,0,50,0,0

[HitObjects]
256,192,1294,5,0,0:0:0:0:
256,192,1609,1,8,0:0:0:0:
256,192,1925,1,8,0:0:0:0:
256,192,2557,1,8,0:0:0:0:
256,192,3188,1,0,0:0:0:0:
256,192,3820,1,0,0:0:0:0:
256,192,4136,1,8,0:0:0:0:
256,192,4451,1,8,0:0:0:0:
256,192,5083,1,8,0:0:0:0:
256,192,5715,1,0,0:0:0:0:
256,192,6346,1,0,0:0:0:0:
256,192,6662,1,8,0:0:0:0:
256,192,6978,1,8,0:0:0:0:
256,192,7609,1,8,0:0:0:0:
256,192,8241,1,0,0:0:0:0:
256,192,8557,1,8,0:0:0:0:
256,192,8872,1,0,0:0:0:0:
256,192,9188,1,8,0:0:0:0:
256,192,9504,1,8,0:0:0:0:
256,192,10136,1,8,0:0:0:0:
256,192,11399,1,4,0:0:0:0:
256,192,11715,1,8,0:0:0:0:
256,192,12346,1,8,0:0:0:0:
256,192,12978,1,8,0:0:0:0:
256,192,13609,1,8,0:0:0:0:
256,192,13925,1,0,0:0:0:0:
256,192,14241,1,8,0:0:0:0:
256,192,14872,1,8,0:0:0:0:
256,192,15504,1,8,0:0:0:0:
256,192,15820,1,0,0:0:0:0:
256,192,16451,1,0,0:0:0:0:
256,192,17399,1,8,0:0:0:0:
256,192,18030,1,8,0:0:0:0:
256,192,18662,1,8,0:0:0:0:
256,192,18978,1,0,0:0:0:0:
256,192,19294,1,8,0:0:0:0:
256,192,19925,1,8,0:0:0:0:
256,192,20557,1,0,0:0:0:0:
256,192,20872,1,8,0:0:0:0:
256,192,21504,1,0,0:0:0:0:
256,192,22767,1,0,0:0:0:0:
256,192,23083,1,8,0:0:0:0:
256,192,23715,1,8,0:0:0:0:
256,192,24030,1,8,0:0:0:0:
256,192,24346,1,0,0:0:0:0:
256,192,24978,1,0,0:0:0:0:
256,192,25294,1,8,0:0:0:0:
256,192,25925,1,8,0:0:0:0:
256,192,26241,1,8,0:0:0:0:
256,192,26557,1,0,0:0:0:0:
256,192,27504,1,8,0:0:0:0:
256,192,27820,1,8,0:0:0:0:
256,192,28451,1,8,0:0:0:0:
256,192,29083,1,4,0:0:0:0:
256,192,29399,1,12,0:0:0:0:
256,192,30030,1,0,0:0:0:0:
256,192,30346,1,8,0:0:0:0:
256,192,31609,1,0,0:0:0:0:
256,192,31925,1,8,0:0:0:0:
256,192,32399,1,8,0:0:0:0:
256,192,32872,1,0,0:0:0:0:
256,192,33188,1,8,0:0:0:0:
256,192,34136,1,0,0:0:0:0:
256,192,34451,1,8,0:0:0:0:
256,192,34925,1,8,0:0:0:0:
256,192,35399,1,0,0:0:0:0:
256,192,35715,1,0,0:0:0:0:
256,192,36030,1,8,0:0:0:0:
256,192,36662,1,0,0:0:0:0:
256,192,36978,1,8,0:0:0:0:
256,192,37451,1,8,0:0:0:0:
256,192,37925,1,0,0:0:0:0:
256,192,38241,1,8,0:0:0:0:
256,192,39188,1,0,0:0:0:0:
256,192,39504,1,8,0:0:0:0:
256,192,39978,1,8,0:0:0:0:
256,192,40451,1,0,0:0:0:0:
256,192,40767,1,0,0:0:0:0:
256,192,41083,1,8,0:0:0:0:
256,192,42030,1,8,0:0:0:0:
256,192,42504,1,8,0:0:0:0:
256,192,42978,1,0,0:0:0:0:
256,192,43294,1,8,0:0:0:0:
256,192,44241,1,0,0:0:0:0:
256,192,44557,1,8,0:0:0:0:
256,192,45030,1,8,0:0:0:0:
256,192,45504,1,0,0:0:0:0:
256,192,46136,1,8,0:0:0:0:
256,192,46767,1,0,0:0:0:0:
256,192,47083,1,8,0:0:0:0:
256,192,47557,1,8,0:0:0:0:
256,192,48030,1,0,0:0:0:0:
256,192,48346,1,8,0:0:0:0:
256,192,49294,1,0,0:0:0:0:
256,192,49609,1,8,0:0:0:0:
256,192,50083,1,8,0:0:0:0:
256,192,50557,1,0,0:0:0:0:
256,192,51346,1,8,0:0:0:0:
256,192,51820,1,4,0:0:0:0:
256,192,60662,12,8,61609,0:0:0:0:
256,192,61925,5,4,0:0:0:0:
256,192,62241,1,8,0:0:0:0:
256,192,64451,1,8,0:0:0:0:
256,192,64767,1,8,0:0:0:0:
256,192,66346,1,8,0:0:0:0:
256,192,66662,1,8,0:0:0:0:
256,192,66978,1,0,0:0:0:0:
256,192,67294,1,8,0:0:0:0:
256,192,69504,1,8,0:0:0:0:
256,192,69820,1,8,0:0:0:0:
256,192,71399,1,0,0:0:0:0:
256,192,71715,1,8,0:0:0:0:
256,192,72030,1,4,0:0:0:0:
256,192,72978,1,8,0:0:0:0:
256,192,73609,1,8,0:0:0:0:
256,192,74241,1,8,0:0:0:0:
256,192,74557,1,0,0:0:0:0:
256,192,74872,1,8,0:0:0:0:
256,192,75504,1,8,0:0:0:0:
256,192,75820,1,0,0:0:0:0:
256,192,76136,1,0,0:0:0:0:
256,192,76451,1,8,0:0:0:0:
256,192,77083,1,0,0:0:0:0:
256,192,78030,1,8,0:0:0:0:
256,192,78662,1,8,0:0:0:0:
256,192,79294,1,8,0:0:0:0:
256,192,79609,1,0,0:0:0:0:
256,192,79925,1,8,0:0:0:0:
256,192,80557,1,8,0:0:0:0:
256,192,80872,1,0,0:0:0:0:
256,192,81820,1,8,0:0:0:0:
256,192,82136,1,0,0:0:0:0:
256,192,82767,1,12,0:0:0:0:
256,192,83399,1,0,0:0:0:0:
256,192,84030,1,12,0:0:0:0:
256,192,84662,1,0,0:0:0:0:
256,192,85294,1,12,0:0:0:0:
256,192,85925,1,0,0:0:0:0:
256,192,86557,1,12,0:0:0:0:
256,192,87188,1,0,0:0:0:0:
256,192,87504,1,0,0:0:0:0:
256,192,87820,1,8,0:0:0:0:
256,192,88451,1,8,0:0:0:0:
256,192,88767,1,8,0:0:0:0:
256,192,89083,1,8,0:0:0:0:
256,192,89715,1,8,0:0:0:0:
256,192,90346,1,8,0:0:0:0:
256,192,92241,1,0,0:0:0:0:
256,192,92557,1,8,0:0:0:0:
256,192,92872,1,0,0:0:0:0:
256,192,93504,1,0,0:0:0:0:
256,192,93820,1,0,0:0:0:0:
256,192,94136,1,8,0:0:0:0:
256,192,94767,1,0,0:0:0:0:
256,192,95399,1,0,0:0:0:0:
256,192,95715,1,8,0:0:0:0:
256,192,96030,1,0,0:0:0:0:
256,192,96662,1,0,0:0:0:0:
256,192,97294,1,0,0:0:0:0:
256,192,97609,1,8,0:0:0:0:
256,192,98241,1,8,0:0:0:0:
256,192,98557,1,0,0:0:0:0:
256,192,98872,1,8,0:0:0:0:
256,192,99504,1,0,0:0:0:0:
256,192,99820,1,8,0:0:0:0:
256,192,100136,1,0,0:0:0:0:
256,192,100767,1,8,0:0:0:0:
256,192,101083,1,0,0:0:0:0:
256,192,102030,1,8,0:0:0:0:
256,192,102346,1,0,0:0:0:0:
256,192,102662,1,8,0:0:0:0:
256,192,102978,1,0,0:0:0:0:
256,192,103609,1,0,0:0:0:0:
256,192,103925,1,0,0:0:0:0:
256,192,104241,1,8,0:0:0:0:
256,192,104872,1,0,0:0:0:0:
256,192,105188,1,8,0:0:0:0:
256,192,105504,1,0,0:0:0:0:
256,192,105820,1,8,0:0:0:0:
256,192,106136,1,8,0:0:0:0:
256,192,106767,1,8,0:0:0:0:
256,192,107399,1,0,0:0:0:0:
256,192,107715,1,0,0:0:0:0:
256,192,108030,1,0,0:0:0:0:
256,192,108662,1,0,0:0:0:0:
256,192,108978,1,8,0:0:0:0:
256,192,109294,1,0,0:0:0:0:
256,192,109609,1,8,0:0:0:0:
256,192,110241,1,8,0:0:0:0:
256,192,110872,1,8,0:0:0:0:
256,192,111188,1,0,0:0:0:0:
256,192,111504,1,0,0:0:0:0:
256,192,111820,1,8,0:0:0:0:
256,192,112451,1,12,0:0:0:0:
256,192,113399,1,0,0:0:0:0:
256,192,113872,1,8,0:0:0:0:
256,192,114346,1,8,0:0:0:0:
256,192,114978,1,0,0:0:0:0:
256,192,115925,1,0,0:0:0:0:
256,192,116399,1,8,0:0:0:0:
256,192,116872,1,0,0:0:0:0:
256,192,117504,1,0,0:0:0:0:
256,192,118451,1,0,0:0:0:0:
256,192,118925,1,0,0:0:0:0:
256,192,119399,1,8,0:0:0:0:
256,192,120030,1,4,0:0:0:0:
256,192,120346,1,4,0:0:0:0:
256,192,120662,1,4,0:0:0:0:
256,192,121294,1,4,0:0:0:0:
256,192,121609,1,8,0:0:0:0:
256,192,121925,1,8,0:0:0:0:
256,192,122557,1,4,0:0:0:0:
256,192,122872,1,0,0:0:0:0:
256,192,123188,1,0,0:0:0:0:
256,192,123820,1,8,0:0:0:0:
256,192,124136,1,8,0:0:0:0:
256,192,124451,1,8,0:0:0:0:
256,192,125083,1,0,0:0:0:0:
256,192,125399,1,0,0:0:0:0:
256,192,125715,1,0,0:0:0:0:
256,192,126346,1,8,0:0:0:0:
256,192,126662,1,8,0:0:0:0:
256,192,126978,1,8,0:0:0:0:
256,192,127609,1,0,0:0:0:0:
256,192,128872,1,8,0:0:0:0:
256,192,129188,1,8,0:0:0:0:
256,192,129504,1,8,0:0:0:0:
256,192,129820,1,0,0:0:0:0:
256,192,130451,1,12,0:0:0:0:
256,192,130609,8,0,132662,0:0:0:0:
256,192,135188,5,0,0:0:0:0:
256,192,135504,1,8,0:0:0:0:
256,192,135820,1,8,0:0:0:0:
256,192,136451,1,8,0:0:0:0:
256,192,137083,1,8,0:0:0:0:
256,192,137715,1,0,0:0:0:0:
256,192,138030,1,8,0:0:0:0:
256,192,138346,1,8,0:0:0:0:
256,192,138978,1,8,0:0:0:0:
256,192,139294,1,8,0:0:0:0:
256,192,139609,1,0,0:0:0:0:
