osu file format v14

[General]
AudioFilename: audio.mp3
AudioLeadIn: 0
PreviewTime: 31609
Countdown: 0
SampleSet: Normal
StackLeniency: 0.7
Mode: 1
LetterboxInBreaks: 0
WidescreenStoryboard: 0

[Editor]
DistanceSpacing: 0.5
BeatDivisor: 6
GridSize: 32
TimelineZoom: 3.299998

[Metadata]
Title:Effluxion feat. Ririsya
TitleUnicode:Effluxion feat. 凛々咲
Artist:Zenpaku
ArtistUnicode:Zenpaku
Creator:dtn
Version:Inner Oni
Source:
Tags:Dtnt0r dj-jo dj jo japanese instrumental Drum and Bass Hardcore Artcore Electronic ririsha d'n'b dnb featured artist fa
BeatmapID:3665525
BeatmapSetID:1788969

[Difficulty]
HPDrainRate:6
CircleSize:5
OverallDifficulty:6.5
ApproachRate:5
SliderMultiplier:1.4
SliderTickRate:1

[Events]
//Background and Video events
0,0,"effluxion.jpg",0,120
//Break Periods
2,52020,59462
//Storyboard Layer 0 (Background)
//Storyboard Layer 1 (Fail)
//Storyboard Layer 2 (Pass)
//Storyboard Layer 3 (Foreground)
//Storyboard Layer 4 (Overlay)
//Storyboard Sound Samples

[TimingPoints]
31,315.789473684211,4,1,0,50,1,8
1294,315.789473684211,4,1,0,50,1,0
1294,-125,4,1,0,50,0,0
1412,-126.582954849052,4,1,0,50,0,0
1570,-128.206515856694,4,1,0,50,0,0
1728,-129.872265774903,4,1,0,50,0,0
1886,-131.581870695401,4,1,0,50,0,0
2044,-133.33708560815,4,1,0,50,0,0
2202,-135.139760410725,4,1,0,50,0,0
2360,-136.991846411843,4,1,0,50,0,0
2517,-138.883189212956,4,1,0,50,0,0
2675,-140.840046371986,4,1,0,50,0,0
2833,-142.852835649893,4,1,0,50,0,0
2991,-144.923989844921,4,1,0,50,0,0
3149,-147.056084918837,4,1,0,50,0,0
3307,-149.251850685147,4,1,0,50,0,0
3465,-151.514182469381,4,1,0,50,0,0
3623,-153.846153846154,4,1,0,50,0,0
3780,-125,4,1,0,50,0,0
3938,-126.582954849052,4,1,0,50,0,0
4096,-128.206515856694,4,1,0,50,0,0
4254,-129.872265774903,4,1,0,50,0,0
4412,-131.581870695401,4,1,0,50,0,0
4570,-133.33708560815,4,1,0,50,0,0
4728,-135.139760410725,4,1,0,50,0,0
4886,-136.991846411843,4,1,0,50,0,0
5043,-138.883189212956,4,1,0,50,0,0
5201,-140.840046371986,4,1,0,50,0,0
5359,-142.852835649893,4,1,0,50,0,0
5517,-144.923989844921,4,1,0,50,0,0
5675,-147.056084918837,4,1,0,50,0,0
5833,-149.251850685147,4,1,0,50,0,0
5991,-151.514182469381,4,1,0,50,0,0
6070,-153.846153846154,4,1,0,50,0,0
6149,-156.25,4,1,0,50,0,0
6307,-125,4,1,0,50,0,0
6465,-126.582954849052,4,1,0,50,0,0
6623,-128.206515856694,4,1,0,50,0,0
6781,-129.872265774903,4,1,0,50,0,0
6939,-131.581870695401,4,1,0,50,0,0
7097,-133.33708560815,4,1,0,50,0,0
7255,-135.139760410725,4,1,0,50,0,0
7413,-136.991846411843,4,1,0,50,0,0
7570,-138.883189212956,4,1,0,50,0,0
7728,-140.840046371986,4,1,0,50,0,0
7886,-142.852835649893,4,1,0,50,0,0
8044,-144.923989844921,4,1,0,50,0,0
8202,-147.056084918837,4,1,0,50,0,0
8360,-149.251850685147,4,1,0,50,0,0
8518,-151.514182469381,4,1,0,50,0,0
8676,-153.846153846154,4,1,0,50,0,0
8833,-125,4,1,0,50,0,0
8991,-126.582954849052,4,1,0,50,0,0
9149,-128.206515856694,4,1,0,50,0,0
9307,-129.872265774903,4,1,0,50,0,0
9465,-131.581870695401,4,1,0,50,0,0
9623,-133.33708560815,4,1,0,50,0,0
9781,-135.139760410725,4,1,0,50,0,0
9939,-136.991846411843,4,1,0,50,0,0
10096,-138.883189212956,4,1,0,50,0,0
10254,-140.840046371986,4,1,0,50,0,0
10412,-142.852835649893,4,1,0,50,0,0
10570,-144.923989844921,4,1,0,50,0,0
10728,-147.056084918837,4,1,0,50,0,0
10886,-76.923076923077,4,1,0,100,0,0
11359,-100,4,1,0,100,0,0
11675,-101.010101010101,4,1,0,100,0,0
11832,-102.475532527346,4,1,0,100,0,0
12148,-103.092783505155,4,1,0,100,0,0
12306,-104.166666666667,4,1,0,100,0,0
12622,-105.263157894737,4,1,0,100,0,0
12780,-106.382978723404,4,1,0,100,0,0
13096,-107.52688172043,4,1,0,100,0,0
13254,-108.695652173913,4,1,0,100,0,0
13569,-109.89010989011,4,1,0,100,0,0
13727,-111.111111111111,4,1,0,100,0,0
13885,-112.359550561798,4,1,0,100,0,0
14043,-113.636363636364,4,1,0,100,0,0
14359,-114.942528735632,4,1,0,100,0,0
14517,-116.279069767442,4,1,0,100,0,0
14832,-117.647058823529,4,1,0,100,0,0
14990,-119.047619047619,4,1,0,100,0,0
15148,-120.481927710843,4,1,0,100,0,0
15306,-121.951219512195,4,1,0,100,0,0
15622,-123.456790123457,4,1,0,100,0,0
15780,-125,4,1,0,100,0,0
15938,-126.582278481013,4,1,0,100,0,0
16096,-128.205128205128,4,1,0,100,0,0
16175,-129.87012987013,4,1,0,100,0,0
16254,-131.578947368421,4,1,0,100,0,0
16412,-100,4,1,0,100,0,0
16728,-101.010101010101,4,1,0,100,0,0
16885,-102.475532527346,4,1,0,100,0,0
17201,-103.092783505155,4,1,0,100,0,0
17359,-104.166666666667,4,1,0,100,0,0
17675,-105.263157894737,4,1,0,100,0,0
17833,-106.382978723404,4,1,0,100,0,0
18149,-107.52688172043,4,1,0,100,0,0
18307,-108.695652173913,4,1,0,100,0,0
18622,-109.89010989011,4,1,0,100,0,0
18780,-111.111111111111,4,1,0,100,0,0
18938,-112.359550561798,4,1,0,100,0,0
19096,-113.636363636364,4,1,0,100,0,0
19412,-114.942528735632,4,1,0,100,0,0
19570,-116.279069767442,4,1,0,100,0,0
19885,-117.647058823529,4,1,0,100,0,0
20043,-119.047619047619,4,1,0,100,0,0
20201,-120.481927710843,4,1,0,100,0,0
20359,-121.951219512195,4,1,0,100,0,0
20675,-123.456790123457,4,1,0,100,0,0
20833,-125,4,1,0,100,0,0
20991,-126.582278481013,4,1,0,100,0,0
21149,-128.205128205128,4,1,0,100,0,0
21228,-129.87012987013,4,1,0,100,0,0
21307,-131.578947368421,4,1,0,100,0,0
21465,-100,4,1,0,100,0,0
26517,-99.009900990099,4,1,0,100,0,0
26675,-97.7825494487344,4,1,0,100,0,0
26832,-97.0873786407767,4,1,0,100,0,0
26990,-96.1538461538461,4,1,0,100,0,0
27148,-95.2380952380952,4,1,0,100,0,0
27227,-94.3396226415094,4,1,0,100,0,0
27306,-93.1700234892331,4,1,0,100,0,0
27464,-92.5925925925926,4,1,0,100,0,0
27622,-91.743119266055,4,1,0,100,0,0
27780,-90.9090909090909,4,1,0,100,0,0
27859,-90.0900900900901,4,1,0,100,0,0
27938,-88.9667013566671,4,1,0,100,0,0
28096,-88.4955752212389,4,1,0,100,0,0
28175,-87.4866073077918,4,1,0,100,0,0
28254,-87.0041260824996,4,1,0,100,0,0
28411,-86.0608968068791,4,1,0,100,0,0
28490,-85.5939708300952,4,1,0,100,0,0
28569,-84.7457627118644,4,1,0,100,0,0
28727,-84.2231058692977,4,1,0,100,0,0
28806,-83.3333333333333,4,1,0,100,0,0
28885,-82.6446280991736,4,1,0,100,0,0
29044,-74.0740740740741,4,1,0,100,0,0
29359,-50,4,1,0,100,0,0
29991,-111.111111111111,4,1,0,100,0,0
30307,-66.6666666666667,4,1,0,100,0,0
30399,-71.4285714285714,4,1,0,100,0,0
30504,-76.9230769230769,4,1,0,100,0,0
30609,-83.3333333333333,4,1,0,100,0,0
30715,-90.9090909090909,4,1,0,100,0,0
30820,-100,4,1,0,100,0,0
30925,-111.111111111111,4,1,0,100,0,0
31609,-76.9230769230769,4,1,0,100,0,1
31728,-79.3650793650794,4,1,0,100,0,1
31886,-81.9672131147541,4,1,0,100,0,1
32044,-92.5925925925926,4,1,0,100,0,1
32123,-96.1538461538461,4,1,0,100,0,1
32202,-100,4,1,0,100,0,1
32281,-104.166666666667,4,1,0,100,0,1
32360,-108.695652173913,4,1,0,100,0,1
32518,-113.636363636364,4,1,0,100,0,1
32597,-119.047619047619,4,1,0,100,0,1
32676,-125,4,1,0,100,0,1
32833,-76.9230769230769,4,1,0,100,0,1
32991,-79.3650793650794,4,1,0,100,0,1
33149,-81.9672131147541,4,1,0,100,0,1
33307,-92.5925925925926,4,1,0,100,0,1
33386,-96.1538461538461,4,1,0,100,0,1
33465,-100,4,1,0,100,0,1
33622,-104.166666666667,4,1,0,100,0,1
33780,-108.695652173913,4,1,0,100,0,1
33859,-113.636363636364,4,1,0,100,0,1
34096,-76.9230769230769,4,1,0,100,0,1
34254,-79.3650793650794,4,1,0,100,0,1
34412,-81.9672131147541,4,1,0,100,0,1
34570,-92.5925925925926,4,1,0,100,0,1
34649,-96.1538461538461,4,1,0,100,0,1
34728,-100,4,1,0,100,0,1
34807,-104.166666666667,4,1,0,100,0,1
34886,-108.695652173913,4,1,0,100,0,1
35044,-113.636363636364,4,1,0,100,0,1
35123,-119.047619047619,4,1,0,100,0,1
35202,-125,4,1,0,100,0,1
35359,-100,4,1,0,100,0,1
35675,-111.111111111111,4,1,0,100,0,1
35991,-66.6666666666667,4,1,0,100,0,1
36622,-76.9230769230769,4,1,0,100,0,1
36780,-79.3650793650794,4,1,0,100,0,1
36938,-81.9672131147541,4,1,0,100,0,1
37096,-92.5925925925926,4,1,0,100,0,1
37175,-96.1538461538461,4,1,0,100,0,1
37254,-100,4,1,0,100,0,1
37333,-104.166666666667,4,1,0,100,0,1
37412,-108.695652173913,4,1,0,100,0,1
37570,-113.636363636364,4,1,0,100,0,1
37649,-119.047619047619,4,1,0,100,0,1
37728,-125,4,1,0,100,0,1
37885,-76.9230769230769,4,1,0,100,0,1
38043,-79.3650793650794,4,1,0,100,0,1
38201,-81.9672131147541,4,1,0,100,0,1
38359,-92.5925925925926,4,1,0,100,0,1
38438,-96.1538461538461,4,1,0,100,0,1
38517,-100,4,1,0,100,0,1
38596,-104.166666666667,4,1,0,100,0,1
38675,-108.695652173913,4,1,0,100,0,1
38754,-113.636363636364,4,1,0,100,0,1
38833,-119.047619047619,4,1,0,100,0,1
38991,-125,4,1,0,100,0,1
39070,-131.578947368421,4,1,0,100,0,1
39148,-76.9230769230769,4,1,0,100,0,1
39306,-79.3650793650794,4,1,0,100,0,1
39464,-81.9672131147541,4,1,0,100,0,1
39622,-92.5925925925926,4,1,0,100,0,1
39701,-96.1538461538461,4,1,0,100,0,1
39780,-100,4,1,0,100,0,1
39859,-104.166666666667,4,1,0,100,0,1
39938,-108.695652173913,4,1,0,100,0,1
40096,-113.636363636364,4,1,0,100,0,1
40175,-119.047619047619,4,1,0,100,0,1
40254,-125,4,1,0,100,0,1
40412,-100,4,1,0,100,0,1
40688,-111.111111111111,4,1,0,100,0,1
41004,-94.3396226415094,4,1,0,100,0,1
41162,-90.9090909090909,4,1,0,100,0,1
41320,-87.719298245614,4,1,0,100,0,1
41530,-84.7457627118644,4,1,0,100,0,1
41583,-81.9672131147541,4,1,0,100,0,1
41636,-79.3650793650794,4,1,0,100,0,1
41675,-76.9230769230769,4,1,0,100,0,1
41833,-79.3650793650794,4,1,0,100,0,1
41991,-81.9672131147541,4,1,0,100,0,1
42149,-92.5925925925926,4,1,0,100,0,1
42228,-96.1538461538461,4,1,0,100,0,1
42307,-100,4,1,0,100,0,1
42386,-104.166666666667,4,1,0,100,0,1
42465,-108.695652173913,4,1,0,100,0,1
42623,-113.636363636364,4,1,0,100,0,1
42702,-119.047619047619,4,1,0,100,0,1
42781,-125,4,1,0,100,0,1
42938,-76.9230769230769,4,1,0,100,0,1
43096,-79.3650793650794,4,1,0,100,0,1
43254,-81.9672131147541,4,1,0,100,0,1
43412,-92.5925925925926,4,1,0,100,0,1
43491,-96.1538461538461,4,1,0,100,0,1
43570,-100,4,1,0,100,0,1
43727,-104.166666666667,4,1,0,100,0,1
43885,-108.695652173913,4,1,0,100,0,1
43964,-113.636363636364,4,1,0,100,0,1
44201,-76.9230769230769,4,1,0,100,0,1
44359,-79.3650793650794,4,1,0,100,0,1
44517,-81.9672131147541,4,1,0,100,0,1
44675,-92.5925925925926,4,1,0,100,0,1
44754,-96.1538461538461,4,1,0,100,0,1
44833,-100,4,1,0,100,0,1
44912,-104.166666666667,4,1,0,100,0,1
44991,-108.695652173913,4,1,0,100,0,1
45149,-113.636363636364,4,1,0,100,0,1
45228,-119.047619047619,4,1,0,100,0,1
45307,-125,4,1,0,100,0,1
45464,-100,4,1,0,100,0,1
45622,-90.9090909090909,4,1,0,100,0,1
45780,-99.9999999999999,4,1,0,100,0,1
45938,-83.3333333333333,4,1,0,100,0,1
46096,-66.6666666666667,4,1,0,100,0,1
46727,-76.9230769230769,4,1,0,100,0,1
46885,-79.3650793650794,4,1,0,100,0,1
47043,-81.9672131147541,4,1,0,100,0,1
47201,-92.5925925925926,4,1,0,100,0,1
47280,-96.1538461538461,4,1,0,100,0,1
47359,-100,4,1,0,100,0,1
47438,-104.166666666667,4,1,0,100,0,1
47517,-108.695652173913,4,1,0,100,0,1
47675,-113.636363636364,4,1,0,100,0,1
47754,-119.047619047619,4,1,0,100,0,1
47833,-125,4,1,0,100,0,1
47990,-76.9230769230769,4,1,0,100,0,1
48148,-79.3650793650794,4,1,0,100,0,1
48306,-81.9672131147541,4,1,0,100,0,1
48464,-92.5925925925926,4,1,0,100,0,1
48543,-96.1538461538461,4,1,0,100,0,1
48622,-100,4,1,0,100,0,1
48701,-104.166666666667,4,1,0,100,0,1
48780,-108.695652173913,4,1,0,100,0,1
48859,-113.636363636364,4,1,0,100,0,1
48938,-119.047619047619,4,1,0,100,0,1
49096,-125,4,1,0,100,0,1
49175,-131.578947368421,4,1,0,100,0,1
49253,-76.9230769230769,4,1,0,100,0,1
49411,-79.3650793650794,4,1,0,100,0,1
49569,-81.9672131147541,4,1,0,100,0,1
49727,-92.5925925925926,4,1,0,100,0,1
49806,-96.1538461538461,4,1,0,100,0,1
49885,-100,4,1,0,100,0,1
49964,-104.166666666667,4,1,0,100,0,1
50043,-108.695652173913,4,1,0,100,0,1
50201,-113.636363636364,4,1,0,100,0,1
50280,-119.047619047619,4,1,0,100,0,1
50359,-125,4,1,0,100,0,1
50517,-86.9565217391304,4,1,0,100,0,1
50754,-76.9230769230769,4,1,0,100,0,1
50991,-68.9655172413793,4,1,0,100,0,1
51149,-62.5,4,1,0,100,0,1
51267,-50,4,1,0,100,0,1
51820,-33.3333333333333,4,1,0,50,0,0
53083,-35.7142857142857,4,1,0,50,0,0
54346,-38.4615384615385,4,1,0,50,0,0
55609,-41.6666666666667,4,1,0,50,0,0
56872,-45.4545454545455,4,1,0,50,0,0
58136,-50,4,1,0,50,0,0
59399,-55.5555555555556,4,1,0,50,0,0
61886,-100,4,1,0,75,0,0
62044,-100.780715985736,4,1,0,75,0,0
62202,-101.573718241353,4,1,0,75,0,0
62360,-103.092783505155,4,1,0,75,0,0
62676,-104.029413014834,4,1,0,75,0,0
62833,-104.869186669295,4,1,0,75,0,0
63149,-106.601217801859,4,1,0,75,0,0
63307,-107.488866832383,4,1,0,75,0,0
63623,-108.695652173913,4,1,0,75,0,0
63781,-110.242781856673,4,1,0,75,0,0
64097,-111.111111111111,4,1,0,75,0,0
64255,-112.359550561798,4,1,0,75,0,0
64412,-114.135554332721,4,1,0,75,0,0
64570,-115.153710795984,4,1,0,75,0,0
64728,-116.190195873646,4,1,0,75,0,0
64886,-118.320167847854,4,1,0,75,0,0
65044,-119.047619047619,4,1,0,75,0,0
65360,-120.529690439373,4,1,0,75,0,0
65518,-121.665689032938,4,1,0,75,0,0
65676,-122.823305063482,4,1,0,75,0,0
65833,-125,4,1,0,75,0,0
66149,-125,4,1,0,75,0,0
66307,-126.582278481013,4,1,0,75,0,0
66465,-128.950169123613,4,1,0,75,0,0
66623,-130.251295860696,4,1,0,75,0,0
66781,-131.578947368421,4,1,0,75,0,0
66938,-100,4,1,0,75,0,0
67096,-100.780715985736,4,1,0,75,0,0
67254,-101.573718241353,4,1,0,75,0,0
67412,-103.092783505155,4,1,0,75,0,0
67728,-104.029413014834,4,1,0,75,0,0
67885,-104.869186669295,4,1,0,75,0,0
68201,-106.601217801859,4,1,0,75,0,0
68359,-107.488866832383,4,1,0,75,0,0
68675,-108.695652173913,4,1,0,75,0,0
68833,-110.242781856673,4,1,0,75,0,0
69149,-111.111111111111,4,1,0,75,0,0
69307,-112.359550561798,4,1,0,75,0,0
69464,-114.135554332721,4,1,0,75,0,0
69622,-115.153710795984,4,1,0,75,0,0
69780,-116.190195873646,4,1,0,75,0,0
69938,-118.320167847854,4,1,0,75,0,0
70096,-119.047619047619,4,1,0,75,0,0
70412,-120.529690439373,4,1,0,75,0,0
70570,-121.665689032938,4,1,0,75,0,0
70728,-122.823305063482,4,1,0,75,0,0
70885,-125,4,1,0,75,0,0
71201,-125,4,1,0,75,0,0
71359,-126.582278481013,4,1,0,75,0,0
71517,-128.950169123613,4,1,0,75,0,0
71675,-130.251295860696,4,1,0,75,0,0
71833,-131.578947368421,4,1,0,75,0,0
71991,-90.9090909090909,4,1,0,100,0,0
72149,-91.7980031355722,4,1,0,100,0,0
72307,-92.7044706470564,4,1,0,100,0,0
72465,-93.6290186837233,4,1,0,100,0,0
72623,-94.5721936498491,4,1,0,100,0,0
72781,-95.5345641906398,4,1,0,100,0,0
72939,-96.5167223354878,4,1,0,100,0,0
73097,-97.5192847124825,4,1,0,100,0,0
73255,-98.0392156862745,4,1,0,100,0,0
73412,-99.009900990099,4,1,0,100,0,0
73570,-100,4,1,0,100,0,0
73728,-101.010101010101,4,1,0,100,0,0
73886,-102.040816326531,4,1,0,100,0,0
74044,-103.092783505155,4,1,0,100,0,0
74202,-104.166666666667,4,1,0,100,0,0
74360,-105.263157894737,4,1,0,100,0,0
74518,-106.382978723404,4,1,0,100,0,0
74676,-107.52688172043,4,1,0,100,0,0
74833,-108.695652173913,4,1,0,100,0,0
74991,-109.89010989011,4,1,0,100,0,0
75149,-111.111111111111,4,1,0,100,0,0
75307,-112.359550561798,4,1,0,100,0,0
75465,-113.636363636364,4,1,0,100,0,0
75623,-114.942528735632,4,1,0,100,0,0
75781,-116.279069767442,4,1,0,100,0,0
75939,-117.647058823529,4,1,0,100,0,0
76097,-119.047619047619,4,1,0,100,0,0
76255,-120.481927710843,4,1,0,100,0,0
76412,-121.951219512195,4,1,0,100,0,0
76570,-123.456790123457,4,1,0,100,0,0
76728,-125,4,1,0,100,0,0
76807,-126.582278481013,4,1,0,100,0,0
76886,-128.205128205128,4,1,0,100,0,0
77044,-90.9090909090909,4,1,0,100,0,0
77202,-91.7980031355722,4,1,0,100,0,0
77360,-92.7044706470564,4,1,0,100,0,0
77518,-93.6290186837233,4,1,0,100,0,0
77676,-94.5721936498491,4,1,0,100,0,0
77834,-95.5345641906398,4,1,0,100,0,0
77992,-96.5167223354878,4,1,0,100,0,0
78150,-97.5192847124825,4,1,0,100,0,0
78308,-98.0392156862745,4,1,0,100,0,0
78465,-99.009900990099,4,1,0,100,0,0
78623,-100,4,1,0,100,0,0
78781,-101.010101010101,4,1,0,100,0,0
78939,-102.040816326531,4,1,0,100,0,0
79097,-103.092783505155,4,1,0,100,0,0
79255,-104.166666666667,4,1,0,100,0,0
79413,-105.263157894737,4,1,0,100,0,0
79571,-106.382978723404,4,1,0,100,0,0
79729,-107.52688172043,4,1,0,100,0,0
79886,-108.695652173913,4,1,0,100,0,0
80044,-109.89010989011,4,1,0,100,0,0
80202,-111.111111111111,4,1,0,100,0,0
80360,-112.359550561798,4,1,0,100,0,0
80518,-113.636363636364,4,1,0,100,0,0
80676,-114.942528735632,4,1,0,100,0,0
80834,-116.279069767442,4,1,0,100,0,0
80992,-117.647058823529,4,1,0,100,0,0
81150,-119.047619047619,4,1,0,100,0,0
81308,-120.481927710843,4,1,0,100,0,0
81465,-121.951219512195,4,1,0,100,0,0
81623,-123.456790123457,4,1,0,100,0,0
81781,-125,4,1,0,100,0,0
81860,-126.582278481013,4,1,0,100,0,0
81939,-128.205128205128,4,1,0,100,0,0
82096,-90.9090909090909,4,1,0,100,0,0
82728,-66.6666666666667,4,1,0,100,0,0
83359,-90.9090909090909,4,1,0,100,0,0
83991,-66.6666666666667,4,1,0,100,0,0
84622,-90.9090909090909,4,1,0,100,0,0
85254,-71.4285714285714,4,1,0,100,0,0
85346,-74.0740740740741,4,1,0,100,0,0
85451,-76.9230769230769,4,1,0,100,0,0
85557,-80,4,1,0,100,0,0
85886,-90.9090909090909,4,1,0,100,0,0
86518,-66.6666666666667,4,1,0,100,0,0
86636,-71.4285714285714,4,1,0,100,0,0
86794,-76.9230769230769,4,1,0,100,0,0
86951,-83.3333333333333,4,1,0,100,0,0
87149,-90.9090909090909,4,1,0,100,0,0
87228,-90.245420853477,4,1,0,100,0,0
87307,-89.5913706441598,4,1,0,100,0,0
87386,-88.4955752212389,4,1,0,100,0,0
87465,-87.719298245614,4,1,0,100,0,0
87544,-86.9565217391304,4,1,0,100,0,0
87623,-86.2068965517241,4,1,0,100,0,0
87702,-85.4700854700855,4,1,0,100,0,0
87781,-84.7457627118644,4,1,0,100,0,0
87860,-84.0336134453781,4,1,0,100,0,0
87939,-83.3333333333333,4,1,0,100,0,0
88018,-82.6446280991736,4,1,0,100,0,0
88097,-81.9672131147541,4,1,0,100,0,0
88176,-81.3008130081301,4,1,0,100,0,0
88255,-80.6451612903226,4,1,0,100,0,0
88333,-80,4,1,0,100,0,0
88412,-79.3650793650794,4,1,0,100,0,0
88491,-78.7401574803149,4,1,0,100,0,0
88570,-78.125,4,1,0,100,0,0
88649,-77.5193798449612,4,1,0,100,0,0
88728,-76.9230769230769,4,1,0,100,0,0
88807,-76.3358778625954,4,1,0,100,0,0
88886,-75.7575757575758,4,1,0,100,0,0
88965,-75.187969924812,4,1,0,100,0,0
89044,-74.6268656716418,4,1,0,100,0,0
89123,-74.0740740740741,4,1,0,100,0,0
89202,-73.5294117647059,4,1,0,100,0,0
89281,-72.992700729927,4,1,0,100,0,0
89360,-72.463768115942,4,1,0,100,0,0
89439,-71.9424460431655,4,1,0,100,0,0
89518,-71.4285714285714,4,1,0,100,0,0
89597,-70.9219858156028,4,1,0,100,0,0
89676,-70.4225352112676,4,1,0,100,0,0
89755,-69.9300699300699,4,1,0,100,0,0
89833,-69.4444444444444,4,1,0,100,0,0
89912,-68.9655172413793,4,1,0,100,0,0
89991,-68.4931506849315,4,1,0,100,0,0
90070,-68.0272108843537,4,1,0,100,0,0
90149,-67.5675675675676,4,1,0,100,0,0
90228,-67.1140939597315,4,1,0,100,0,0
90307,-66.6666666666667,4,1,0,100,0,0
90386,-66.2251655629139,4,1,0,100,0,0
90465,-65.7894736842105,4,1,0,100,0,0
90544,-65.359477124183,4,1,0,100,0,0
90623,-64.9350649350649,4,1,0,100,0,0
90702,-64.5161290322581,4,1,0,100,0,0
90781,-64.1025641025641,4,1,0,100,0,0
90860,-63.6942675159236,4,1,0,100,0,0
92241,-71.4285714285714,4,1,0,100,0,1
92320,-74.0740740740741,4,1,0,100,0,1
92399,-76.9230769230769,4,1,0,100,0,1
92478,-80,4,1,0,100,0,1
92517,-71.4285714285714,4,1,0,100,0,1
92596,-74.0740740740741,4,1,0,100,0,1
92675,-76.9230769230769,4,1,0,100,0,1
92754,-80,4,1,0,100,0,1
92833,-71.4285714285714,4,1,0,100,0,1
92912,-74.0740740740741,4,1,0,100,0,1
92991,-76.9230769230769,4,1,0,100,0,1
93070,-80,4,1,0,100,0,1
93149,-71.4285714285714,4,1,0,100,0,1
93228,-74.0740740740741,4,1,0,100,0,1
93307,-76.9230769230769,4,1,0,100,0,1
93386,-80,4,1,0,100,0,1
93465,-71.4285714285714,4,1,0,100,0,1
93544,-74.0740740740741,4,1,0,100,0,1
93623,-76.9230769230769,4,1,0,100,0,1
93702,-80,4,1,0,100,0,1
93780,-71.4285714285714,4,1,0,100,0,1
93859,-74.0740740740741,4,1,0,100,0,1
93938,-76.9230769230769,4,1,0,100,0,1
94017,-80,4,1,0,100,0,1
94096,-71.4285714285714,4,1,0,100,0,1
94175,-74.0740740740741,4,1,0,100,0,1
94254,-76.9230769230769,4,1,0,100,0,1
94333,-80,4,1,0,100,0,1
94412,-71.4285714285714,4,1,0,100,0,1
94491,-74.0740740740741,4,1,0,100,0,1
94570,-76.9230769230769,4,1,0,100,0,1
94649,-80,4,1,0,100,0,1
94728,-71.4285714285714,4,1,0,100,0,1
94807,-74.0740740740741,4,1,0,100,0,1
94886,-76.9230769230769,4,1,0,100,0,1
94965,-80,4,1,0,100,0,1
95044,-71.4285714285714,4,1,0,100,0,1
95123,-74.0740740740741,4,1,0,100,0,1
95202,-76.9230769230769,4,1,0,100,0,1
95281,-80,4,1,0,100,0,1
95359,-71.4285714285714,4,1,0,100,0,1
95438,-74.0740740740741,4,1,0,100,0,1
95517,-76.9230769230769,4,1,0,100,0,1
95596,-80,4,1,0,100,0,1
95675,-71.4285714285714,4,1,0,100,0,1
95754,-74.0740740740741,4,1,0,100,0,1
95833,-76.9230769230769,4,1,0,100,0,1
95912,-80,4,1,0,100,0,1
95991,-83.3333333333333,4,1,0,100,0,1
96070,-80,4,1,0,100,0,1
96149,-76.9230769230769,4,1,0,100,0,1
96228,-74.0740740740741,4,1,0,100,0,1
96307,-71.4285714285714,4,1,0,100,0,1
96386,-74.0740740740741,4,1,0,100,0,1
96465,-76.9230769230769,4,1,0,100,0,1
96544,-80,4,1,0,100,0,1
96623,-76.9230769230769,4,1,0,100,0,1
96702,-74.0740740740741,4,1,0,100,0,1
96781,-71.4285714285714,4,1,0,100,0,1
96860,-68.9655172413793,4,1,0,100,0,1
96938,-74.0740740740741,4,1,0,100,0,1
97017,-76.9230769230769,4,1,0,100,0,1
97096,-80,4,1,0,100,0,1
97175,-83.3333333333333,4,1,0,100,0,1
97254,-71.4285714285714,4,1,0,100,0,1
97333,-74.0740740740741,4,1,0,100,0,1
97412,-76.9230769230769,4,1,0,100,0,1
97491,-80,4,1,0,100,0,1
97570,-71.4285714285714,4,1,0,100,0,1
97649,-74.0740740740741,4,1,0,100,0,1
97728,-76.9230769230769,4,1,0,100,0,1
97807,-80,4,1,0,100,0,1
97886,-71.4285714285714,4,1,0,100,0,1
97965,-74.0740740740741,4,1,0,100,0,1
98044,-76.9230769230769,4,1,0,100,0,1
98123,-80,4,1,0,100,0,1
98202,-71.4285714285714,4,1,0,100,0,1
98281,-74.0740740740741,4,1,0,100,0,1
98360,-76.9230769230769,4,1,0,100,0,1
98439,-80,4,1,0,100,0,1
98517,-71.4285714285714,4,1,0,100,0,1
98596,-74.0740740740741,4,1,0,100,0,1
98675,-76.9230769230769,4,1,0,100,0,1
98754,-80,4,1,0,100,0,1
98833,-71.4285714285714,4,1,0,100,0,1
98912,-74.0740740740741,4,1,0,100,0,1
98991,-76.9230769230769,4,1,0,100,0,1
99070,-80,4,1,0,100,0,1
99149,-71.4285714285714,4,1,0,100,0,1
99228,-74.0740740740741,4,1,0,100,0,1
99307,-76.9230769230769,4,1,0,100,0,1
99386,-80,4,1,0,100,0,1
99465,-71.4285714285714,4,1,0,100,0,1
99544,-74.0740740740741,4,1,0,100,0,1
99623,-76.9230769230769,4,1,0,100,0,1
99702,-80,4,1,0,100,0,1
99781,-71.4285714285714,4,1,0,100,0,1
99860,-74.0740740740741,4,1,0,100,0,1
99939,-76.9230769230769,4,1,0,100,0,1
100018,-80,4,1,0,100,0,1
100096,-71.4285714285714,4,1,0,100,0,1
100175,-74.0740740740741,4,1,0,100,0,1
100254,-76.9230769230769,4,1,0,100,0,1
100333,-80,4,1,0,100,0,1
100412,-71.4285714285714,4,1,0,100,0,1
100491,-74.0740740740741,4,1,0,100,0,1
100570,-76.9230769230769,4,1,0,100,0,1
100649,-80,4,1,0,100,0,1
100728,-71.4285714285714,4,1,0,100,0,1
100807,-74.0740740740741,4,1,0,100,0,1
100886,-76.9230769230769,4,1,0,100,0,1
100965,-80,4,1,0,100,0,1
101044,-71.4285714285714,4,1,0,100,0,1
102307,-71.4285714285714,4,1,0,100,0,1
102386,-74.0740740740741,4,1,0,100,0,1
102465,-76.9230769230769,4,1,0,100,0,1
102544,-80,4,1,0,100,0,1
102622,-71.4285714285714,4,1,0,100,0,1
102701,-74.0740740740741,4,1,0,100,0,1
102780,-76.9230769230769,4,1,0,100,0,1
102859,-80,4,1,0,100,0,1
102938,-71.4285714285714,4,1,0,100,0,1
103017,-74.0740740740741,4,1,0,100,0,1
103096,-76.9230769230769,4,1,0,100,0,1
103175,-80,4,1,0,100,0,1
103254,-71.4285714285714,4,1,0,100,0,1
103333,-74.0740740740741,4,1,0,100,0,1
103412,-76.9230769230769,4,1,0,100,0,1
103491,-80,4,1,0,100,0,1
103570,-71.4285714285714,4,1,0,100,0,1
103649,-74.0740740740741,4,1,0,100,0,1
103728,-76.9230769230769,4,1,0,100,0,1
103807,-80,4,1,0,100,0,1
103885,-71.4285714285714,4,1,0,100,0,1
103964,-74.0740740740741,4,1,0,100,0,1
104043,-76.9230769230769,4,1,0,100,0,1
104122,-80,4,1,0,100,0,1
104201,-71.4285714285714,4,1,0,100,0,1
104280,-74.0740740740741,4,1,0,100,0,1
104359,-76.9230769230769,4,1,0,100,0,1
104438,-80,4,1,0,100,0,1
104517,-71.4285714285714,4,1,0,100,0,1
104596,-74.0740740740741,4,1,0,100,0,1
104675,-76.9230769230769,4,1,0,100,0,1
104754,-80,4,1,0,100,0,1
104833,-71.4285714285714,4,1,0,100,0,1
104912,-74.0740740740741,4,1,0,100,0,1
104991,-76.9230769230769,4,1,0,100,0,1
105070,-80,4,1,0,100,0,1
105149,-71.4285714285714,4,1,0,100,0,1
105228,-74.0740740740741,4,1,0,100,0,1
105307,-76.9230769230769,4,1,0,100,0,1
105386,-80,4,1,0,100,0,1
105464,-71.4285714285714,4,1,0,100,0,1
105543,-74.0740740740741,4,1,0,100,0,1
105622,-76.9230769230769,4,1,0,100,0,1
105701,-80,4,1,0,100,0,1
105780,-71.4285714285714,4,1,0,100,0,1
105859,-74.0740740740741,4,1,0,100,0,1
105938,-76.9230769230769,4,1,0,100,0,1
106017,-80,4,1,0,100,0,1
106096,-83.3333333333333,4,1,0,100,0,1
106175,-80,4,1,0,100,0,1
106254,-76.9230769230769,4,1,0,100,0,1
106333,-74.0740740740741,4,1,0,100,0,1
106412,-71.4285714285714,4,1,0,100,0,1
106491,-74.0740740740741,4,1,0,100,0,1
106570,-76.9230769230769,4,1,0,100,0,1
106649,-80,4,1,0,100,0,1
106728,-76.9230769230769,4,1,0,100,0,1
106807,-74.0740740740741,4,1,0,100,0,1
106886,-71.4285714285714,4,1,0,100,0,1
106965,-68.9655172413793,4,1,0,100,0,1
107043,-74.0740740740741,4,1,0,100,0,1
107122,-76.9230769230769,4,1,0,100,0,1
107201,-80,4,1,0,100,0,1
107280,-83.3333333333333,4,1,0,100,0,1
107359,-71.4285714285714,4,1,0,100,0,1
107438,-74.0740740740741,4,1,0,100,0,1
107517,-76.9230769230769,4,1,0,100,0,1
107596,-80,4,1,0,100,0,1
107675,-71.4285714285714,4,1,0,100,0,1
107754,-74.0740740740741,4,1,0,100,0,1
107833,-76.9230769230769,4,1,0,100,0,1
107912,-80,4,1,0,100,0,1
107991,-71.4285714285714,4,1,0,100,0,1
108070,-74.0740740740741,4,1,0,100,0,1
108149,-76.9230769230769,4,1,0,100,0,1
108228,-80,4,1,0,100,0,1
108307,-71.4285714285714,4,1,0,100,0,1
108386,-74.0740740740741,4,1,0,100,0,1
108465,-76.9230769230769,4,1,0,100,0,1
108544,-80,4,1,0,100,0,1
108622,-71.4285714285714,4,1,0,100,0,1
108701,-74.0740740740741,4,1,0,100,0,1
108780,-76.9230769230769,4,1,0,100,0,1
108859,-80,4,1,0,100,0,1
108938,-71.4285714285714,4,1,0,100,0,1
109017,-74.0740740740741,4,1,0,100,0,1
109096,-76.9230769230769,4,1,0,100,0,1
109175,-80,4,1,0,100,0,1
109254,-71.4285714285714,4,1,0,100,0,1
109333,-74.0740740740741,4,1,0,100,0,1
109412,-76.9230769230769,4,1,0,100,0,1
109491,-80,4,1,0,100,0,1
109570,-71.4285714285714,4,1,0,100,0,1
109662,-70.4225352112676,4,1,0,100,0,1
109715,-69.4444444444444,4,1,0,100,0,1
109767,-68.4931506849315,4,1,0,100,0,1
109820,-67.5675675675676,4,1,0,100,0,1
109872,-66.6666666666667,4,1,0,100,0,1
110057,-67.7966101694915,4,1,0,100,0,1
110110,-68.9655172413793,4,1,0,100,0,1
110162,-70.1754385964912,4,1,0,100,0,1
110215,-71.4285714285714,4,1,0,100,0,1
110280,-74.0740740740741,4,1,0,100,0,1
110359,-76.9230769230769,4,1,0,100,0,1
110438,-80,4,1,0,100,0,1
110517,-71.4285714285714,4,1,0,100,0,1
110596,-74.0740740740741,4,1,0,100,0,1
110675,-76.9230769230769,4,1,0,100,0,1
110754,-80,4,1,0,100,0,1
110833,-71.4285714285714,4,1,0,100,0,1
110912,-74.0740740740741,4,1,0,100,0,1
110991,-76.9230769230769,4,1,0,100,0,1
111070,-80,4,1,0,100,0,1
111149,-71.4285714285714,4,1,0,100,0,1
111780,-68.9655172413793,4,1,0,100,0,1
111859,-68.0272108843537,4,1,0,100,0,1
111938,-66.6666666666667,4,1,0,100,0,1
112017,-65.7894736842105,4,1,0,100,0,1
112096,-64.5161290322581,4,1,0,100,0,1
112175,-64.2260757867694,4,1,0,100,0,1
112254,-62.5,4,1,0,100,0,1
112333,-61.7283950617284,4,1,0,100,0,1
112412,-58.8235294117647,4,1,0,100,0,1
112747,-70.4225352112676,4,1,0,100,0,1
112787,-69.4444444444444,4,1,0,100,0,1
112826,-68.4931506849315,4,1,0,100,0,1
112866,-67.5675675675676,4,1,0,100,0,1
112905,-66.6666666666667,4,1,0,100,0,1
113221,-70.4225352112676,4,1,0,100,0,1
113261,-69.4444444444444,4,1,0,100,0,1
113300,-68.4931506849315,4,1,0,100,0,1
113340,-67.5675675675676,4,1,0,100,0,1
113379,-66.6666666666667,4,1,0,100,0,1
113695,-70.4225352112676,4,1,0,100,0,1
113735,-69.4444444444444,4,1,0,100,0,1
113774,-68.4931506849315,4,1,0,100,0,1
113814,-67.5675675675676,4,1,0,100,0,1
113853,-66.6666666666667,4,1,0,100,0,1
114169,-70.4225352112676,4,1,0,100,0,1
114209,-69.4444444444444,4,1,0,100,0,1
114248,-68.4931506849315,4,1,0,100,0,1
114288,-67.5675675675676,4,1,0,100,0,1
114327,-66.6666666666667,4,1,0,100,0,1
115274,-70.4225352112676,4,1,0,100,0,1
115314,-69.4444444444444,4,1,0,100,0,1
115353,-68.4931506849315,4,1,0,100,0,1
115393,-67.5675675675676,4,1,0,100,0,1
115432,-66.6666666666667,4,1,0,100,0,1
115747,-70.4225352112676,4,1,0,100,0,1
115787,-69.4444444444444,4,1,0,100,0,1
115826,-68.4931506849315,4,1,0,100,0,1
115866,-67.5675675675676,4,1,0,100,0,1
115905,-66.6666666666667,4,1,0,100,0,1
116221,-70.4225352112676,4,1,0,100,0,1
116261,-69.4444444444444,4,1,0,100,0,1
116300,-68.4931506849315,4,1,0,100,0,1
116340,-67.5675675675676,4,1,0,100,0,1
116379,-66.6666666666667,4,1,0,100,0,1
116438,-67.5675675675676,4,1,0,100,0,1
116517,-68.4931506849315,4,1,0,100,0,1
116596,-69.4444444444444,4,1,0,100,0,1
116695,-70.4225352112676,4,1,0,100,0,1
116735,-69.4444444444444,4,1,0,100,0,1
116774,-68.4931506849315,4,1,0,100,0,1
116814,-67.5675675675676,4,1,0,100,0,1
116853,-66.6666666666667,4,1,0,100,0,1
116925,-68.0272108843537,4,1,0,100,0,1
117030,-69.4444444444444,4,1,0,100,0,1
117136,-70.9219858156028,4,1,0,100,0,1
117241,-72.463768115942,4,1,0,100,0,1
117346,-74.0740740740741,4,1,0,100,0,1
117451,-66.6666666666667,4,1,0,100,0,1
117800,-70.4225352112676,4,1,0,100,0,1
117840,-69.4444444444444,4,1,0,100,0,1
117879,-68.4931506849315,4,1,0,100,0,1
117919,-67.5675675675676,4,1,0,100,0,1
117958,-66.6666666666667,4,1,0,100,0,1
118057,-71.4285714285714,4,1,0,100,0,1
118274,-70.4225352112676,4,1,0,100,0,1
118314,-69.4444444444444,4,1,0,100,0,1
118353,-68.4931506849315,4,1,0,100,0,1
118393,-67.5675675675676,4,1,0,100,0,1
118432,-66.6666666666667,4,1,0,100,0,1
118530,-71.4285714285714,4,1,0,100,0,1
118747,-70.4225352112676,4,1,0,100,0,1
118787,-69.4444444444444,4,1,0,100,0,1
118826,-68.4931506849315,4,1,0,100,0,1
118866,-67.5675675675676,4,1,0,100,0,1
118905,-66.6666666666667,4,1,0,100,0,1
119004,-71.4285714285714,4,1,0,100,0,1
119215,-70.9219858156028,4,1,0,100,0,1
119267,-69.4444444444444,4,1,0,100,0,1
119320,-68.0272108843537,4,1,0,100,0,1
119372,-66.6666666666667,4,1,0,100,0,1
119438,-65.7894736842105,4,1,0,100,0,1
119517,-64.9350649350649,4,1,0,100,0,1
119675,-70.4225352112676,4,1,0,100,0,1
119754,-69.4444444444444,4,1,0,100,0,1
119833,-68.4931506849315,4,1,0,100,0,1
119912,-67.5675675675676,4,1,0,100,0,1
119991,-66.6666666666667,4,1,0,100,0,1
120149,-62.5,4,1,0,100,0,1
120228,-64.5161290322581,4,1,0,100,0,1
120307,-66.6666666666667,4,1,0,100,0,1
120465,-62.5,4,1,0,100,0,1
120544,-64.5161290322581,4,1,0,100,0,1
120623,-66.6666666666667,4,1,0,100,0,1
120780,-62.5,4,1,0,100,0,1
120859,-64.5161290322581,4,1,0,100,0,1
120938,-66.6666666666667,4,1,0,100,0,1
121096,-62.5,4,1,0,100,0,1
121175,-64.5161290322581,4,1,0,100,0,1
121254,-66.6666666666667,4,1,0,100,0,1
121372,-71.4285714285714,4,1,0,100,0,1
122201,-76.9230769230769,4,1,0,100,0,1
122517,-66.6666666666667,4,1,0,100,0,1
123780,-71.4285714285714,4,1,0,100,0,1
125044,-66.6666666666667,4,1,0,100,0,1
126307,-71.4285714285714,4,1,0,100,0,1
127570,-74.0740740740741,4,1,0,100,0,1
127649,-71.4285714285714,4,1,0,100,0,1
127728,-68.9655172413793,4,1,0,100,0,1
127886,-74.0740740740741,4,1,0,100,0,1
127965,-71.4285714285714,4,1,0,100,0,1
128044,-68.9655172413793,4,1,0,100,0,1
128201,-74.0740740740741,4,1,0,100,0,1
128280,-71.4285714285714,4,1,0,100,0,1
128359,-68.9655172413793,4,1,0,100,0,1
128517,-74.0740740740741,4,1,0,100,0,1
128596,-71.4285714285714,4,1,0,100,0,1
128675,-68.9655172413793,4,1,0,100,0,1
129465,-70.9219858156028,4,1,0,100,0,1
129544,-70.4225352112676,4,1,0,100,0,1
129622,-69.9300699300699,4,1,0,100,0,1
129701,-69.4444444444444,4,1,0,100,0,1
129780,-68.4931506849315,4,1,0,100,0,1
129846,-67.5675675675676,4,1,0,100,0,1
129899,-66.6666666666667,4,1,0,100,0,1
129951,-65.7894736842105,4,1,0,100,0,1
130004,-64.9350649350649,4,1,0,100,0,1
130057,-64.1025641025641,4,1,0,100,0,1
130451,-58.8235294117647,4,1,0,60,0,0
130609,-62.5,4,1,0,60,0,0
131399,-71.4285714285714,4,1,0,60,0,0
132662,-83.3333333333333,4,1,0,60,0,0
133925,-100,4,1,0,60,0,0
135149,-125,4,1,0,50,0,0
135307,-126.582954849052,4,1,0,50,0,0
135465,-128.206515856694,4,1,0,50,0,0
135623,-129.872265774903,4,1,0,50,0,0
135781,-131.581870695401,4,1,0,50,0,0
135939,-133.33708560815,4,1,0,50,0,0
136097,-135.139760410725,4,1,0,50,0,0
136255,-136.991846411843,4,1,0,50,0,0
136412,-138.883189212956,4,1,0,50,0,0
136570,-140.840046371986,4,1,0,50,0,0
136728,-142.852835649893,4,1,0,50,0,0
136886,-144.923989844921,4,1,0,50,0,0
137044,-147.056084918837,4,1,0,50,0,0
137202,-149.251850685147,4,1,0,50,0,0
137360,-151.514182469381,4,1,0,50,0,0
137518,-153.846153846154,4,1,0,50,0,0
137675,-142.852835649893,4,1,0,50,0,0
137833,-144.923989844921,4,1,0,50,0,0
137991,-147.056084918837,4,1,0,50,0,0
138149,-149.251850685147,4,1,0,50,0,0
138307,-151.514182469381,4,1,0,50,0,0
138465,-153.846153846154,4,1,0,50,0,0
138622,-156.25,4,1,0,50,0,0
138780,-158.730158730159,4,1,0,50,0,0
138938,-161.290322580645,4,1,0,50,0,0
139096,-163.934426229508,4,1,0,50,0,0
139254,-166.666666666667,4,1,0,50,0,0
139412,-169.491525423729,4,1,0,50,0,0
139570,-172.413793103448,4,1,0,50,0,0

[HitObjects]
256,192,1294,5,0,0:0:0:0:
256,192,1451,1,0,0:0:0:0:
256,192,1609,1,8,0:0:0:0:
256,192,1767,1,0,0:0:0:0:
256,192,1925,1,8,0:0:0:0:
256,192,2083,1,8,0:0:0:0:
256,192,2241,1,0,0:0:0:0:
256,192,2399,1,8,0:0:0:0:
256,192,2557,1,8,0:0:0:0:
256,192,2715,1,0,0:0:0:0:
256,192,2872,1,8,0:0:0:0:
256,192,3030,1,8,0:0:0:0:
256,192,3188,1,0,0:0:0:0:
256,192,3346,1,8,0:0:0:0:
256,192,3504,1,8,0:0:0:0:
256,192,3662,1,8,0:0:0:0:
256,192,3820,1,0,0:0:0:0:
256,192,3978,1,0,0:0:0:0:
256,192,4136,1,8,0:0:0:0:
256,192,4294,1,0,0:0:0:0:
256,192,4451,1,8,0:0:0:0:
256,192,4609,1,8,0:0:0:0:
256,192,4767,1,0,0:0:0:0:
256,192,4925,1,8,0:0:0:0:
256,192,5083,1,8,0:0:0:0:
256,192,5241,1,0,0:0:0:0:
256,192,5399,1,8,0:0:0:0:
256,192,5557,1,8,0:0:0:0:
256,192,5715,1,0,0:0:0:0:
256,192,5872,1,8,0:0:0:0:
256,192,6030,1,0,0:0:0:0:
256,192,6109,1,8,0:0:0:0:
256,192,6188,1,8,0:0:0:0:
256,192,6346,1,0,0:0:0:0:
256,192,6504,1,0,0:0:0:0:
256,192,6662,1,8,0:0:0:0:
256,192,6820,1,0,0:0:0:0:
256,192,6978,1,8,0:0:0:0:
256,192,7136,1,8,0:0:0:0:
256,192,7294,1,0,0:0:0:0:
256,192,7451,1,8,0:0:0:0:
256,192,7609,1,8,0:0:0:0:
256,192,7767,1,0,0:0:0:0:
256,192,7925,1,8,0:0:0:0:
256,192,8083,1,8,0:0:0:0:
256,192,8241,1,0,0:0:0:0:
256,192,8399,1,8,0:0:0:0:
256,192,8557,1,8,0:0:0:0:
256,192,8715,1,8,0:0:0:0:
256,192,8872,1,0,0:0:0:0:
256,192,9030,1,0,0:0:0:0:
256,192,9188,1,8,0:0:0:0:
256,192,9346,1,0,0:0:0:0:
256,192,9504,1,8,0:0:0:0:
256,192,9662,1,8,0:0:0:0:
256,192,9820,1,0,0:0:0:0:
256,192,9978,1,8,0:0:0:0:
256,192,10136,1,8,0:0:0:0:
256,192,10294,1,0,0:0:0:0:
256,192,10451,1,8,0:0:0:0:
256,192,10609,1,8,0:0:0:0:
256,192,10767,1,0,0:0:0:0:
256,192,10925,1,12,0:0:0:0:
256,192,11399,1,4,0:0:0:0:
256,192,11715,1,8,0:0:0:0:
256,192,11872,1,8,0:0:0:0:
256,192,12188,1,8,0:0:0:0:
256,192,12346,1,8,0:0:0:0:
256,192,12662,1,0,0:0:0:0:
256,192,12820,1,8,0:0:0:0:
256,192,13136,1,0,0:0:0:0:
256,192,13294,1,8,0:0:0:0:
256,192,13609,1,8,0:0:0:0:
256,192,13767,1,8,0:0:0:0:
256,192,13925,1,0,0:0:0:0:
256,192,14083,1,8,0:0:0:0:
256,192,14399,1,8,0:0:0:0:
256,192,14557,1,8,0:0:0:0:
256,192,14872,1,8,0:0:0:0:
256,192,15030,1,8,0:0:0:0:
256,192,15188,1,0,0:0:0:0:
256,192,15346,1,0,0:0:0:0:
256,192,15662,1,8,0:0:0:0:
256,192,15820,1,8,0:0:0:0:
256,192,15978,1,0,0:0:0:0:
256,192,16136,1,8,0:0:0:0:
256,192,16215,1,8,0:0:0:0:
256,192,16294,1,8,0:0:0:0:
256,192,16451,1,0,0:0:0:0:
256,192,16767,1,8,0:0:0:0:
256,192,16925,1,8,0:0:0:0:
256,192,17241,1,0,0:0:0:0:
256,192,17399,1,8,0:0:0:0:
256,192,17715,1,0,0:0:0:0:
256,192,17872,1,8,0:0:0:0:
256,192,18188,1,0,0:0:0:0:
256,192,18346,1,8,0:0:0:0:
256,192,18662,1,8,0:0:0:0:
256,192,18820,1,8,0:0:0:0:
256,192,18978,1,0,0:0:0:0:
256,192,19136,1,8,0:0:0:0:
256,192,19451,1,8,0:0:0:0:
256,192,19609,1,8,0:0:0:0:
256,192,19925,1,8,0:0:0:0:
256,192,20083,1,8,0:0:0:0:
256,192,20241,1,0,0:0:0:0:
256,192,20399,1,0,0:0:0:0:
256,192,20715,1,8,0:0:0:0:
256,192,20872,1,8,0:0:0:0:
256,192,21030,1,0,0:0:0:0:
256,192,21188,1,8,0:0:0:0:
256,192,21267,1,8,0:0:0:0:
256,192,21346,1,8,0:0:0:0:
256,192,21504,1,0,0:0:0:0:
256,192,21662,1,0,0:0:0:0:
256,192,21820,1,8,0:0:0:0:
256,192,21978,1,0,0:0:0:0:
256,192,22057,1,0,0:0:0:0:
256,192,22136,1,8,0:0:0:0:
256,192,22215,1,0,0:0:0:0:
256,192,22294,1,8,0:0:0:0:
256,192,22451,1,0,0:0:0:0:
256,192,22530,1,8,0:0:0:0:
256,192,22609,1,0,0:0:0:0:
256,192,22688,1,0,0:0:0:0:
256,192,22767,1,8,0:0:0:0:
256,192,22925,1,0,0:0:0:0:
256,192,23083,1,8,0:0:0:0:
256,192,23241,1,0,0:0:0:0:
256,192,23320,1,0,0:0:0:0:
256,192,23399,1,8,0:0:0:0:
256,192,23478,1,0,0:0:0:0:
256,192,23557,1,8,0:0:0:0:
256,192,23715,1,0,0:0:0:0:
256,192,23794,1,8,0:0:0:0:
256,192,23872,1,0,0:0:0:0:
256,192,23951,1,0,0:0:0:0:
256,192,24030,1,8,0:0:0:0:
256,192,24188,1,0,0:0:0:0:
256,192,24346,1,8,0:0:0:0:
256,192,24504,1,0,0:0:0:0:
256,192,24583,1,0,0:0:0:0:
256,192,24662,1,8,0:0:0:0:
256,192,24741,1,8,0:0:0:0:
256,192,24820,1,8,0:0:0:0:
256,192,24978,1,0,0:0:0:0:
256,192,25057,1,8,0:0:0:0:
256,192,25136,1,8,0:0:0:0:
256,192,25215,1,0,0:0:0:0:
256,192,25294,1,8,0:0:0:0:
256,192,25451,1,0,0:0:0:0:
256,192,25609,1,8,0:0:0:0:
256,192,25767,1,0,0:0:0:0:
256,192,25846,1,0,0:0:0:0:
256,192,25925,1,8,0:0:0:0:
256,192,26004,1,0,0:0:0:0:
256,192,26083,1,8,0:0:0:0:
256,192,26241,1,0,0:0:0:0:
256,192,26320,1,8,0:0:0:0:
256,192,26399,1,8,0:0:0:0:
256,192,26557,1,0,0:0:0:0:
256,192,26715,1,0,0:0:0:0:
256,192,26872,1,8,0:0:0:0:
256,192,27030,1,0,0:0:0:0:
256,192,27188,1,8,0:0:0:0:
256,192,27267,1,0,0:0:0:0:
256,192,27346,1,8,0:0:0:0:
256,192,27504,1,0,0:0:0:0:
256,192,27662,1,0,0:0:0:0:
256,192,27820,1,8,0:0:0:0:
256,192,27899,1,0,0:0:0:0:
256,192,27978,1,0,0:0:0:0:
256,192,28136,1,8,0:0:0:0:
256,192,28215,1,8,0:0:0:0:
256,192,28294,1,0,0:0:0:0:
256,192,28451,1,8,0:0:0:0:
256,192,28530,1,0,0:0:0:0:
256,192,28609,1,8,0:0:0:0:
256,192,28767,1,0,0:0:0:0:
256,192,28846,1,0,0:0:0:0:
256,192,28925,1,8,0:0:0:0:
256,192,29083,1,4,0:0:0:0:
256,192,29399,1,12,0:0:0:0:
256,192,30030,1,0,0:0:0:0:
256,192,30346,1,8,0:0:0:0:
256,192,30451,1,8,0:0:0:0:
256,192,30557,1,8,0:0:0:0:
256,192,30662,1,8,0:0:0:0:
256,192,30767,1,8,0:0:0:0:
256,192,30872,1,8,0:0:0:0:
256,192,30978,1,8,0:0:0:0:
256,192,31609,1,0,0:0:0:0:
256,192,31767,1,0,0:0:0:0:
256,192,31925,1,8,0:0:0:0:
256,192,32083,1,0,0:0:0:0:
256,192,32162,1,8,0:0:0:0:
256,192,32241,1,8,0:0:0:0:
256,192,32320,1,0,0:0:0:0:
256,192,32399,1,8,0:0:0:0:
256,192,32557,1,0,0:0:0:0:
256,192,32636,1,8,0:0:0:0:
256,192,32715,1,8,0:0:0:0:
256,192,32872,1,0,0:0:0:0:
256,192,33030,1,0,0:0:0:0:
256,192,33188,1,8,0:0:0:0:
256,192,33346,1,0,0:0:0:0:
256,192,33425,1,8,0:0:0:0:
256,192,33504,1,0,0:0:0:0:
256,192,33662,1,8,0:0:0:0:
256,192,33820,1,0,0:0:0:0:
256,192,33899,1,8,0:0:0:0:
256,192,34136,1,0,0:0:0:0:
256,192,34294,1,0,0:0:0:0:
256,192,34451,1,8,0:0:0:0:
256,192,34609,1,0,0:0:0:0:
256,192,34688,1,8,0:0:0:0:
256,192,34767,1,8,0:0:0:0:
256,192,34846,1,0,0:0:0:0:
256,192,34925,1,8,0:0:0:0:
256,192,35083,1,0,0:0:0:0:
256,192,35162,1,8,0:0:0:0:
256,192,35241,1,8,0:0:0:0:
256,192,35399,1,0,0:0:0:0:
256,192,35715,1,0,0:0:0:0:
256,192,36030,1,8,0:0:0:0:
256,192,36188,1,8,0:0:0:0:
256,192,36346,1,8,0:0:0:0:
256,192,36662,1,0,0:0:0:0:
256,192,36820,1,0,0:0:0:0:
256,192,36978,1,8,0:0:0:0:
256,192,37136,1,0,0:0:0:0:
256,192,37215,1,8,0:0:0:0:
256,192,37294,1,8,0:0:0:0:
256,192,37372,1,0,0:0:0:0:
256,192,37451,1,8,0:0:0:0:
256,192,37609,1,0,0:0:0:0:
256,192,37688,1,8,0:0:0:0:
256,192,37767,1,8,0:0:0:0:
256,192,37925,1,0,0:0:0:0:
256,192,38083,1,0,0:0:0:0:
256,192,38241,1,8,0:0:0:0:
256,192,38399,1,0,0:0:0:0:
256,192,38478,1,8,0:0:0:0:
256,192,38557,1,0,0:0:0:0:
256,192,38636,1,0,0:0:0:0:
256,192,38715,1,0,0:0:0:0:
256,192,38794,1,0,0:0:0:0:
256,192,38872,1,8,0:0:0:0:
256,192,39030,1,0,0:0:0:0:
256,192,39109,1,8,0:0:0:0:
256,192,39188,1,0,0:0:0:0:
256,192,39346,1,0,0:0:0:0:
256,192,39504,1,8,0:0:0:0:
256,192,39662,1,0,0:0:0:0:
256,192,39741,1,8,0:0:0:0:
256,192,39820,1,8,0:0:0:0:
256,192,39899,1,0,0:0:0:0:
256,192,39978,1,8,0:0:0:0:
256,192,40136,1,0,0:0:0:0:
256,192,40215,1,8,0:0:0:0:
256,192,40294,1,8,0:0:0:0:
256,192,40451,1,0,0:0:0:0:
256,192,40767,1,0,0:0:0:0:
256,192,41083,1,8,0:0:0:0:
256,192,41241,1,0,0:0:0:0:
256,192,41399,1,0,0:0:0:0:
256,192,41557,1,8,0:0:0:0:
256,192,41609,1,8,0:0:0:0:
256,192,41662,1,8,0:0:0:0:
256,192,41715,1,0,0:0:0:0:
256,192,41872,1,0,0:0:0:0:
256,192,42030,1,8,0:0:0:0:
256,192,42188,1,0,0:0:0:0:
256,192,42267,1,8,0:0:0:0:
256,192,42346,1,8,0:0:0:0:
256,192,42425,1,0,0:0:0:0:
256,192,42504,1,8,0:0:0:0:
256,192,42662,1,0,0:0:0:0:
256,192,42741,1,8,0:0:0:0:
256,192,42820,1,8,0:0:0:0:
256,192,42978,1,0,0:0:0:0:
256,192,43136,1,0,0:0:0:0:
256,192,43294,1,8,0:0:0:0:
256,192,43451,1,0,0:0:0:0:
256,192,43530,1,8,0:0:0:0:
256,192,43609,1,0,0:0:0:0:
256,192,43767,1,8,0:0:0:0:
256,192,43925,1,0,0:0:0:0:
256,192,44004,1,8,0:0:0:0:
256,192,44241,1,0,0:0:0:0:
256,192,44399,1,0,0:0:0:0:
256,192,44557,1,8,0:0:0:0:
256,192,44715,1,0,0:0:0:0:
256,192,44794,1,8,0:0:0:0:
256,192,44872,1,8,0:0:0:0:
256,192,44951,1,0,0:0:0:0:
256,192,45030,1,8,0:0:0:0:
256,192,45188,1,0,0:0:0:0:
256,192,45267,1,8,0:0:0:0:
256,192,45346,1,8,0:0:0:0:
256,192,45504,1,0,0:0:0:0:
256,192,45662,1,8,0:0:0:0:
256,192,45701,1,8,0:0:0:0:
256,192,45820,1,0,0:0:0:0:
256,192,45978,1,8,0:0:0:0:
256,192,46017,1,8,0:0:0:0:
256,192,46136,1,8,0:0:0:0:
256,192,46294,1,8,0:0:0:0:
256,192,46451,1,8,0:0:0:0:
256,192,46767,1,0,0:0:0:0:
256,192,46925,1,0,0:0:0:0:
256,192,47083,1,8,0:0:0:0:
256,192,47241,1,0,0:0:0:0:
256,192,47320,1,8,0:0:0:0:
256,192,47399,1,8,0:0:0:0:
256,192,47478,1,0,0:0:0:0:
256,192,47557,1,8,0:0:0:0:
256,192,47715,1,0,0:0:0:0:
256,192,47794,1,8,0:0:0:0:
256,192,47872,1,8,0:0:0:0:
256,192,48030,1,0,0:0:0:0:
256,192,48188,1,0,0:0:0:0:
256,192,48346,1,8,0:0:0:0:
256,192,48504,1,0,0:0:0:0:
256,192,48583,1,8,0:0:0:0:
256,192,48662,1,0,0:0:0:0:
256,192,48741,1,0,0:0:0:0:
256,192,48820,1,0,0:0:0:0:
256,192,48899,1,0,0:0:0:0:
256,192,48978,1,8,0:0:0:0:
256,192,49136,1,0,0:0:0:0:
256,192,49215,1,8,0:0:0:0:
256,192,49294,1,0,0:0:0:0:
256,192,49451,1,0,0:0:0:0:
256,192,49609,1,8,0:0:0:0:
256,192,49767,1,0,0:0:0:0:
256,192,49846,1,8,0:0:0:0:
256,192,49925,1,8,0:0:0:0:
256,192,50004,1,0,0:0:0:0:
256,192,50083,1,8,0:0:0:0:
256,192,50241,1,0,0:0:0:0:
256,192,50320,1,8,0:0:0:0:
256,192,50399,1,8,0:0:0:0:
256,192,50557,1,0,0:0:0:0:
256,192,50794,1,0,0:0:0:0:
256,192,51030,1,0,0:0:0:0:
256,192,51188,1,0,0:0:0:0:
256,192,51346,1,8,0:0:0:0:
256,192,51820,1,4,0:0:0:0:
256,192,60662,12,8,61609,0:0:0:0:
256,192,61925,5,4,0:0:0:0:
256,192,62083,1,0,0:0:0:0:
256,192,62241,1,0,0:0:0:0:
256,192,62399,1,8,0:0:0:0:
256,192,62715,1,8,0:0:0:0:
256,192,62872,1,8,0:0:0:0:
256,192,63188,1,0,0:0:0:0:
256,192,63346,1,8,0:0:0:0:
256,192,63662,1,0,0:0:0:0:
256,192,63820,1,8,0:0:0:0:
256,192,64136,1,8,0:0:0:0:
256,192,64294,1,8,0:0:0:0:
256,192,64451,1,0,0:0:0:0:
256,192,64609,1,8,0:0:0:0:
256,192,64767,1,8,0:0:0:0:
256,192,64925,1,0,0:0:0:0:
256,192,65083,1,8,0:0:0:0:
256,192,65399,1,8,0:0:0:0:
256,192,65557,1,8,0:0:0:0:
256,192,65715,1,0,0:0:0:0:
256,192,65872,1,8,0:0:0:0:
256,192,66188,1,8,0:0:0:0:
256,192,66346,1,8,0:0:0:0:
256,192,66504,1,0,0:0:0:0:
256,192,66662,1,8,0:0:0:0:
256,192,66820,1,8,0:0:0:0:
256,192,66978,1,0,0:0:0:0:
256,192,67136,1,0,0:0:0:0:
256,192,67294,1,0,0:0:0:0:
256,192,67451,1,8,0:0:0:0:
256,192,67767,1,8,0:0:0:0:
256,192,67925,1,8,0:0:0:0:
256,192,68241,1,0,0:0:0:0:
256,192,68399,1,8,0:0:0:0:
256,192,68715,1,0,0:0:0:0:
256,192,68872,1,8,0:0:0:0:
256,192,69188,1,8,0:0:0:0:
256,192,69346,1,8,0:0:0:0:
256,192,69504,1,0,0:0:0:0:
256,192,69662,1,8,0:0:0:0:
256,192,69820,1,0,0:0:0:0:
256,192,69978,1,8,0:0:0:0:
256,192,70136,1,8,0:0:0:0:
256,192,70451,1,8,0:0:0:0:
256,192,70609,1,8,0:0:0:0:
256,192,70767,1,0,0:0:0:0:
256,192,70925,1,0,0:0:0:0:
256,192,71241,1,8,0:0:0:0:
256,192,71399,1,8,0:0:0:0:
256,192,71557,1,0,0:0:0:0:
256,192,71715,1,8,0:0:0:0:
256,192,71872,1,8,0:0:0:0:
256,192,72030,1,4,0:0:0:0:
256,192,72188,1,8,0:0:0:0:
256,192,72346,1,0,0:0:0:0:
256,192,72504,1,8,0:0:0:0:
256,192,72662,1,0,0:0:0:0:
256,192,72820,1,8,0:0:0:0:
256,192,72978,1,8,0:0:0:0:
256,192,73136,1,0,0:0:0:0:
256,192,73294,1,8,0:0:0:0:
256,192,73451,1,8,0:0:0:0:
256,192,73609,1,0,0:0:0:0:
256,192,73767,1,8,0:0:0:0:
256,192,73925,1,8,0:0:0:0:
256,192,74083,1,0,0:0:0:0:
256,192,74241,1,8,0:0:0:0:
256,192,74399,1,8,0:0:0:0:
256,192,74557,1,0,0:0:0:0:
256,192,74715,1,8,0:0:0:0:
256,192,74872,1,0,0:0:0:0:
256,192,75030,1,8,0:0:0:0:
256,192,75188,1,8,0:0:0:0:
256,192,75346,1,0,0:0:0:0:
256,192,75504,1,8,0:0:0:0:
256,192,75662,1,8,0:0:0:0:
256,192,75820,1,0,0:0:0:0:
256,192,75978,1,8,0:0:0:0:
256,192,76136,1,0,0:0:0:0:
256,192,76294,1,8,0:0:0:0:
256,192,76451,1,8,0:0:0:0:
256,192,76609,1,0,0:0:0:0:
256,192,76767,1,8,0:0:0:0:
256,192,76846,1,8,0:0:0:0:
256,192,76925,1,8,0:0:0:0:
256,192,77083,1,0,0:0:0:0:
256,192,77241,1,0,0:0:0:0:
256,192,77399,1,0,0:0:0:0:
256,192,77557,1,8,0:0:0:0:
256,192,77715,1,0,0:0:0:0:
256,192,77872,1,8,0:0:0:0:
256,192,78030,1,8,0:0:0:0:
256,192,78188,1,0,0:0:0:0:
256,192,78346,1,8,0:0:0:0:
256,192,78504,1,8,0:0:0:0:
256,192,78662,1,0,0:0:0:0:
256,192,78820,1,8,0:0:0:0:
256,192,78978,1,8,0:0:0:0:
256,192,79136,1,0,0:0:0:0:
256,192,79294,1,8,0:0:0:0:
256,192,79451,1,8,0:0:0:0:
256,192,79609,1,0,0:0:0:0:
256,192,79767,1,8,0:0:0:0:
256,192,79925,1,0,0:0:0:0:
256,192,80083,1,8,0:0:0:0:
256,192,80241,1,8,0:0:0:0:
256,192,80399,1,0,0:0:0:0:
256,192,80557,1,8,0:0:0:0:
256,192,80715,1,0,0:0:0:0:
256,192,80872,1,8,0:0:0:0:
256,192,81030,1,8,0:0:0:0:
256,192,81188,1,0,0:0:0:0:
256,192,81346,1,8,0:0:0:0:
256,192,81504,1,8,0:0:0:0:
256,192,81662,1,0,0:0:0:0:
256,192,81820,1,8,0:0:0:0:
256,192,81899,1,8,0:0:0:0:
256,192,81978,1,8,0:0:0:0:
256,192,82136,1,0,0:0:0:0:
256,192,82294,1,0,0:0:0:0:
256,192,82609,1,0,0:0:0:0:
256,192,82767,1,12,0:0:0:0:
256,192,83399,1,8,0:0:0:0:
256,192,83478,1,8,0:0:0:0:
256,192,83557,1,0,0:0:0:0:
256,192,83872,1,0,0:0:0:0:
256,192,84030,1,12,0:0:0:0:
256,192,84662,1,0,0:0:0:0:
256,192,84741,1,8,0:0:0:0:
256,192,84820,1,0,0:0:0:0:
256,192,84899,1,0,0:0:0:0:
256,192,85136,1,0,0:0:0:0:
256,192,85294,1,12,0:0:0:0:
256,192,85399,1,0,0:0:0:0:
256,192,85504,1,0,0:0:0:0:
256,192,85609,1,8,0:0:0:0:
256,192,85925,1,8,0:0:0:0:
256,192,86004,1,8,0:0:0:0:
256,192,86083,1,8,0:0:0:0:
256,192,86162,1,0,0:0:0:0:
256,192,86241,1,8,0:0:0:0:
256,192,86399,1,0,0:0:0:0:
256,192,86557,1,12,0:0:0:0:
256,192,86715,1,0,0:0:0:0:
256,192,86872,1,8,0:0:0:0:
256,192,87030,1,8,0:0:0:0:
256,192,87188,1,0,0:0:0:0:
256,192,87267,1,0,0:0:0:0:
256,192,87346,1,8,0:0:0:0:
256,192,87425,1,8,0:0:0:0:
256,192,87504,1,0,0:0:0:0:
256,192,87583,1,0,0:0:0:0:
256,192,87662,1,8,0:0:0:0:
256,192,87741,1,0,0:0:0:0:
256,192,87820,1,8,0:0:0:0:
256,192,87899,1,0,0:0:0:0:
256,192,87978,1,0,0:0:0:0:
256,192,88057,1,8,0:0:0:0:
256,192,88136,1,0,0:0:0:0:
256,192,88215,1,8,0:0:0:0:
256,192,88294,1,0,0:0:0:0:
256,192,88372,1,0,0:0:0:0:
256,192,88451,1,8,0:0:0:0:
256,192,88530,1,0,0:0:0:0:
256,192,88609,1,8,0:0:0:0:
256,192,88688,1,0,0:0:0:0:
256,192,88767,1,0,0:0:0:0:
256,192,88846,1,0,0:0:0:0:
256,192,88925,1,8,0:0:0:0:
256,192,89004,1,0,0:0:0:0:
256,192,89083,1,8,0:0:0:0:
256,192,89162,1,0,0:0:0:0:
256,192,89241,1,0,0:0:0:0:
256,192,89320,1,8,0:0:0:0:
256,192,89399,1,0,0:0:0:0:
256,192,89478,1,8,0:0:0:0:
256,192,89557,1,0,0:0:0:0:
256,192,89636,1,0,0:0:0:0:
256,192,89715,1,8,0:0:0:0:
256,192,89794,1,8,0:0:0:0:
256,192,89872,1,0,0:0:0:0:
256,192,89951,1,8,0:0:0:0:
256,192,90030,1,0,0:0:0:0:
256,192,90109,1,8,0:0:0:0:
256,192,90188,1,0,0:0:0:0:
256,192,90267,1,0,0:0:0:0:
256,192,90346,1,8,0:0:0:0:
256,192,90425,1,8,0:0:0:0:
256,192,90504,1,0,0:0:0:0:
256,192,90583,1,8,0:0:0:0:
256,192,90662,1,0,0:0:0:0:
256,192,90741,1,8,0:0:0:0:
256,192,90820,1,0,0:0:0:0:
256,192,90899,1,0,0:0:0:0:
256,192,92241,1,0,0:0:0:0:
256,192,92320,1,0,0:0:0:0:
256,192,92399,1,8,0:0:0:0:
256,192,92478,1,8,0:0:0:0:
256,192,92557,1,0,0:0:0:0:
256,192,92636,1,0,0:0:0:0:
256,192,92715,1,8,0:0:0:0:
256,192,92794,1,8,0:0:0:0:
256,192,92872,1,0,0:0:0:0:
256,192,92951,1,0,0:0:0:0:
256,192,93030,1,8,0:0:0:0:
256,192,93109,1,8,0:0:0:0:
256,192,93188,1,0,0:0:0:0:
256,192,93267,1,0,0:0:0:0:
256,192,93346,1,8,0:0:0:0:
256,192,93425,1,8,0:0:0:0:
256,192,93504,1,0,0:0:0:0:
256,192,93583,1,8,0:0:0:0:
256,192,93662,1,8,0:0:0:0:
256,192,93741,1,8,0:0:0:0:
256,192,93820,1,0,0:0:0:0:
256,192,93899,1,8,0:0:0:0:
256,192,93978,1,8,0:0:0:0:
256,192,94057,1,8,0:0:0:0:
256,192,94136,1,0,0:0:0:0:
256,192,94215,1,8,0:0:0:0:
256,192,94294,1,8,0:0:0:0:
256,192,94372,1,8,0:0:0:0:
256,192,94451,1,0,0:0:0:0:
256,192,94530,1,8,0:0:0:0:
256,192,94609,1,0,0:0:0:0:
256,192,94688,1,0,0:0:0:0:
256,192,94767,1,8,0:0:0:0:
256,192,94846,1,0,0:0:0:0:
256,192,94925,1,8,0:0:0:0:
256,192,95004,1,8,0:0:0:0:
256,192,95083,1,0,0:0:0:0:
256,192,95162,1,0,0:0:0:0:
256,192,95241,1,8,0:0:0:0:
256,192,95320,1,8,0:0:0:0:
256,192,95399,1,0,0:0:0:0:
256,192,95478,1,0,0:0:0:0:
256,192,95557,1,8,0:0:0:0:
256,192,95636,1,8,0:0:0:0:
256,192,95715,1,0,0:0:0:0:
256,192,95794,1,0,0:0:0:0:
256,192,95872,1,8,0:0:0:0:
256,192,95951,1,8,0:0:0:0:
256,192,96030,1,0,0:0:0:0:
256,192,96109,1,8,0:0:0:0:
256,192,96188,1,8,0:0:0:0:
256,192,96267,1,0,0:0:0:0:
256,192,96346,1,8,0:0:0:0:
256,192,96425,1,0,0:0:0:0:
256,192,96504,1,0,0:0:0:0:
256,192,96583,1,8,0:0:0:0:
256,192,96662,1,0,0:0:0:0:
256,192,96741,1,8,0:0:0:0:
256,192,96820,1,8,0:0:0:0:
256,192,96899,1,0,0:0:0:0:
256,192,96978,1,8,0:0:0:0:
256,192,97057,1,0,0:0:0:0:
256,192,97136,1,8,0:0:0:0:
256,192,97215,1,8,0:0:0:0:
256,192,97294,1,0,0:0:0:0:
256,192,97372,1,0,0:0:0:0:
256,192,97451,1,8,0:0:0:0:
256,192,97530,1,8,0:0:0:0:
256,192,97609,1,0,0:0:0:0:
256,192,97688,1,0,0:0:0:0:
256,192,97767,1,8,0:0:0:0:
256,192,97846,1,8,0:0:0:0:
256,192,97925,1,0,0:0:0:0:
256,192,98004,1,0,0:0:0:0:
256,192,98083,1,8,0:0:0:0:
256,192,98162,1,8,0:0:0:0:
256,192,98241,1,0,0:0:0:0:
256,192,98320,1,0,0:0:0:0:
256,192,98399,1,8,0:0:0:0:
256,192,98478,1,8,0:0:0:0:
256,192,98557,1,0,0:0:0:0:
256,192,98636,1,8,0:0:0:0:
256,192,98715,1,8,0:0:0:0:
256,192,98794,1,8,0:0:0:0:
256,192,98872,1,0,0:0:0:0:
256,192,98951,1,8,0:0:0:0:
256,192,99030,1,8,0:0:0:0:
256,192,99109,1,8,0:0:0:0:
256,192,99188,1,0,0:0:0:0:
256,192,99267,1,0,0:0:0:0:
256,192,99346,1,8,0:0:0:0:
256,192,99425,1,8,0:0:0:0:
256,192,99504,1,0,0:0:0:0:
256,192,99583,1,8,0:0:0:0:
256,192,99662,1,0,0:0:0:0:
256,192,99741,1,0,0:0:0:0:
256,192,99820,1,8,0:0:0:0:
256,192,99899,1,0,0:0:0:0:
256,192,99978,1,8,0:0:0:0:
256,192,100057,1,8,0:0:0:0:
256,192,100136,1,0,0:0:0:0:
256,192,100215,1,0,0:0:0:0:
256,192,100294,1,8,0:0:0:0:
256,192,100372,1,8,0:0:0:0:
256,192,100451,1,0,0:0:0:0:
256,192,100530,1,0,0:0:0:0:
256,192,100609,1,8,0:0:0:0:
256,192,100688,1,8,0:0:0:0:
256,192,100767,1,0,0:0:0:0:
256,192,100846,1,0,0:0:0:0:
256,192,100925,1,8,0:0:0:0:
256,192,101004,1,8,0:0:0:0:
256,192,101083,1,0,0:0:0:0:
256,192,101241,1,0,0:0:0:0:
256,192,101399,1,8,0:0:0:0:
256,192,101478,1,0,0:0:0:0:
256,192,101557,1,8,0:0:0:0:
256,192,101636,1,0,0:0:0:0:
256,192,101715,1,8,0:0:0:0:
256,192,101794,1,8,0:0:0:0:
256,192,101872,1,8,0:0:0:0:
256,192,101951,1,0,0:0:0:0:
256,192,102030,1,8,0:0:0:0:
256,192,102070,1,8,0:0:0:0:
256,192,102109,1,0,0:0:0:0:
256,192,102188,1,8,0:0:0:0:
256,192,102228,1,8,0:0:0:0:
256,192,102267,1,8,0:0:0:0:
256,192,102346,1,0,0:0:0:0:
256,192,102425,1,0,0:0:0:0:
256,192,102504,1,8,0:0:0:0:
256,192,102583,1,8,0:0:0:0:
256,192,102662,1,0,0:0:0:0:
256,192,102741,1,0,0:0:0:0:
256,192,102820,1,8,0:0:0:0:
256,192,102899,1,8,0:0:0:0:
256,192,102978,1,0,0:0:0:0:
256,192,103057,1,0,0:0:0:0:
256,192,103136,1,8,0:0:0:0:
256,192,103215,1,8,0:0:0:0:
256,192,103294,1,0,0:0:0:0:
256,192,103372,1,0,0:0:0:0:
256,192,103451,1,8,0:0:0:0:
256,192,103530,1,8,0:0:0:0:
256,192,103609,1,0,0:0:0:0:
256,192,103688,1,8,0:0:0:0:
256,192,103767,1,8,0:0:0:0:
256,192,103846,1,8,0:0:0:0:
256,192,103925,1,0,0:0:0:0:
256,192,104004,1,8,0:0:0:0:
256,192,104083,1,8,0:0:0:0:
256,192,104162,1,8,0:0:0:0:
256,192,104241,1,0,0:0:0:0:
256,192,104320,1,8,0:0:0:0:
256,192,104399,1,8,0:0:0:0:
256,192,104478,1,8,0:0:0:0:
256,192,104557,1,0,0:0:0:0:
256,192,104636,1,8,0:0:0:0:
256,192,104715,1,0,0:0:0:0:
256,192,104794,1,0,0:0:0:0:
256,192,104872,1,8,0:0:0:0:
256,192,104951,1,0,0:0:0:0:
256,192,105030,1,8,0:0:0:0:
256,192,105109,1,8,0:0:0:0:
256,192,105188,1,0,0:0:0:0:
256,192,105267,1,0,0:0:0:0:
256,192,105346,1,8,0:0:0:0:
256,192,105425,1,8,0:0:0:0:
256,192,105504,1,0,0:0:0:0:
256,192,105583,1,0,0:0:0:0:
256,192,105662,1,8,0:0:0:0:
256,192,105741,1,8,0:0:0:0:
256,192,105820,1,0,0:0:0:0:
256,192,105899,1,0,0:0:0:0:
256,192,105978,1,8,0:0:0:0:
256,192,106057,1,8,0:0:0:0:
256,192,106136,1,0,0:0:0:0:
256,192,106215,1,8,0:0:0:0:
256,192,106294,1,8,0:0:0:0:
256,192,106372,1,0,0:0:0:0:
256,192,106451,1,8,0:0:0:0:
256,192,106530,1,0,0:0:0:0:
256,192,106609,1,0,0:0:0:0:
256,192,106688,1,8,0:0:0:0:
256,192,106767,1,0,0:0:0:0:
256,192,106846,1,8,0:0:0:0:
256,192,106925,1,8,0:0:0:0:
256,192,107004,1,0,0:0:0:0:
256,192,107083,1,8,0:0:0:0:
256,192,107162,1,0,0:0:0:0:
256,192,107241,1,8,0:0:0:0:
256,192,107320,1,8,0:0:0:0:
256,192,107399,1,0,0:0:0:0:
256,192,107478,1,0,0:0:0:0:
256,192,107557,1,8,0:0:0:0:
256,192,107636,1,8,0:0:0:0:
256,192,107715,1,0,0:0:0:0:
256,192,107794,1,0,0:0:0:0:
256,192,107872,1,8,0:0:0:0:
256,192,107951,1,8,0:0:0:0:
256,192,108030,1,0,0:0:0:0:
256,192,108109,1,0,0:0:0:0:
256,192,108188,1,8,0:0:0:0:
256,192,108267,1,8,0:0:0:0:
256,192,108346,1,0,0:0:0:0:
256,192,108425,1,0,0:0:0:0:
256,192,108504,1,8,0:0:0:0:
256,192,108583,1,8,0:0:0:0:
256,192,108662,1,0,0:0:0:0:
256,192,108741,1,8,0:0:0:0:
256,192,108820,1,8,0:0:0:0:
256,192,108899,1,8,0:0:0:0:
256,192,108978,1,0,0:0:0:0:
256,192,109057,1,8,0:0:0:0:
256,192,109136,1,8,0:0:0:0:
256,192,109215,1,8,0:0:0:0:
256,192,109294,1,0,0:0:0:0:
256,192,109372,1,0,0:0:0:0:
256,192,109451,1,0,0:0:0:0:
256,192,109530,1,0,0:0:0:0:
256,192,109609,1,8,0:0:0:0:
256,192,109662,1,8,0:0:0:0:
256,192,109715,1,0,0:0:0:0:
256,192,109767,1,0,0:0:0:0:
256,192,109820,1,8,0:0:0:0:
256,192,109872,1,8,0:0:0:0:
256,192,110083,1,0,0:0:0:0:
256,192,110136,1,0,0:0:0:0:
256,192,110188,1,0,0:0:0:0:
256,192,110241,1,8,0:0:0:0:
256,192,110320,1,8,0:0:0:0:
256,192,110399,1,0,0:0:0:0:
256,192,110478,1,0,0:0:0:0:
256,192,110557,1,8,0:0:0:0:
256,192,110636,1,8,0:0:0:0:
256,192,110715,1,0,0:0:0:0:
256,192,110794,1,0,0:0:0:0:
256,192,110872,1,8,0:0:0:0:
256,192,110951,1,8,0:0:0:0:
256,192,111030,1,0,0:0:0:0:
256,192,111109,1,0,0:0:0:0:
256,192,111188,1,8,0:0:0:0:
256,192,111346,1,8,0:0:0:0:
256,192,111504,1,0,0:0:0:0:
256,192,111662,1,0,0:0:0:0:
256,192,111820,1,8,0:0:0:0:
256,192,111859,1,8,0:0:0:0:
256,192,111978,1,8,0:0:0:0:
256,192,112017,1,8,0:0:0:0:
256,192,112136,1,0,0:0:0:0:
256,192,112175,1,0,0:0:0:0:
256,192,112294,1,0,0:0:0:0:
256,192,112333,1,0,0:0:0:0:
256,192,112451,1,12,0:0:0:0:
256,192,112767,1,0,0:0:0:0:
256,192,112807,1,0,0:0:0:0:
256,192,112846,1,0,0:0:0:0:
256,192,112886,1,0,0:0:0:0:
256,192,112925,1,8,0:0:0:0:
256,192,113241,1,0,0:0:0:0:
256,192,113280,1,0,0:0:0:0:
256,192,113320,1,0,0:0:0:0:
256,192,113359,1,0,0:0:0:0:
256,192,113399,1,8,0:0:0:0:
256,192,113715,1,8,0:0:0:0:
256,192,113754,1,8,0:0:0:0:
256,192,113794,1,0,0:0:0:0:
256,192,113833,1,0,0:0:0:0:
256,192,113872,1,8,0:0:0:0:
256,192,114030,1,0,0:0:0:0:
256,192,114188,1,8,0:0:0:0:
256,192,114228,1,8,0:0:0:0:
256,192,114267,1,0,0:0:0:0:
256,192,114307,1,0,0:0:0:0:
256,192,114346,1,8,0:0:0:0:
256,192,114425,1,8,0:0:0:0:
256,192,114504,1,0,0:0:0:0:
256,192,114583,1,0,0:0:0:0:
256,192,114662,1,8,0:0:0:0:
256,192,114741,1,8,0:0:0:0:
256,192,114820,1,0,0:0:0:0:
256,192,114899,1,8,0:0:0:0:
256,192,114978,1,0,0:0:0:0:
256,192,115294,1,0,0:0:0:0:
256,192,115333,1,0,0:0:0:0:
256,192,115372,1,0,0:0:0:0:
256,192,115412,1,0,0:0:0:0:
256,192,115451,1,8,0:0:0:0:
256,192,115767,1,0,0:0:0:0:
256,192,115807,1,0,0:0:0:0:
256,192,115846,1,0,0:0:0:0:
256,192,115886,1,0,0:0:0:0:
256,192,115925,1,8,0:0:0:0:
256,192,116241,1,8,0:0:0:0:
256,192,116280,1,8,0:0:0:0:
256,192,116320,1,0,0:0:0:0:
256,192,116359,1,0,0:0:0:0:
256,192,116399,1,8,0:0:0:0:
256,192,116478,1,8,0:0:0:0:
256,192,116557,1,0,0:0:0:0:
256,192,116636,1,8,0:0:0:0:
256,192,116715,1,0,0:0:0:0:
256,192,116754,1,0,0:0:0:0:
256,192,116794,1,0,0:0:0:0:
256,192,116833,1,0,0:0:0:0:
256,192,116872,1,8,0:0:0:0:
256,192,116978,1,8,0:0:0:0:
256,192,117083,1,0,0:0:0:0:
256,192,117188,1,8,0:0:0:0:
256,192,117294,1,8,0:0:0:0:
256,192,117399,1,8,0:0:0:0:
256,192,117504,1,0,0:0:0:0:
256,192,117662,1,0,0:0:0:0:
256,192,117820,1,8,0:0:0:0:
256,192,117859,1,8,0:0:0:0:
256,192,117899,1,8,0:0:0:0:
256,192,117938,1,8,0:0:0:0:
256,192,117978,1,0,0:0:0:0:
256,192,118136,1,0,0:0:0:0:
256,192,118294,1,0,0:0:0:0:
256,192,118333,1,0,0:0:0:0:
256,192,118372,1,8,0:0:0:0:
256,192,118412,1,8,0:0:0:0:
256,192,118451,1,0,0:0:0:0:
256,192,118609,1,0,0:0:0:0:
256,192,118767,1,8,0:0:0:0:
256,192,118807,1,8,0:0:0:0:
256,192,118846,1,0,0:0:0:0:
256,192,118886,1,0,0:0:0:0:
256,192,118925,1,8,0:0:0:0:
256,192,119083,1,0,0:0:0:0:
256,192,119241,1,0,0:0:0:0:
256,192,119294,1,0,0:0:0:0:
256,192,119346,1,0,0:0:0:0:
256,192,119399,1,8,0:0:0:0:
256,192,119478,1,8,0:0:0:0:
256,192,119557,1,8,0:0:0:0:
256,192,119715,1,0,0:0:0:0:
256,192,119794,1,0,0:0:0:0:
256,192,119872,1,8,0:0:0:0:
256,192,119951,1,8,0:0:0:0:
256,192,120030,1,4,0:0:0:0:
250,203,120188,1,0,0:0:0:0:
256,192,120267,1,8,0:0:0:0:
256,192,120346,1,4,0:0:0:0:
256,192,120504,1,8,0:0:0:0:
256,192,120583,1,8,0:0:0:0:
256,192,120662,1,4,0:0:0:0:
256,192,120820,1,0,0:0:0:0:
256,192,120899,1,8,0:0:0:0:
256,192,120978,1,4,0:0:0:0:
256,192,121136,1,8,0:0:0:0:
256,192,121215,1,8,0:0:0:0:
256,192,121294,1,4,0:0:0:0:
256,192,121451,1,8,0:0:0:0:
256,192,121530,1,8,0:0:0:0:
256,192,121609,1,0,0:0:0:0:
256,192,121688,1,8,0:0:0:0:
256,192,121767,1,0,0:0:0:0:
256,192,121846,1,0,0:0:0:0:
256,192,121925,1,8,0:0:0:0:
256,192,122241,1,8,0:0:0:0:
256,192,122557,1,4,0:0:0:0:
256,192,122715,1,0,0:0:0:0:
256,192,122794,1,0,0:0:0:0:
256,192,122872,1,0,0:0:0:0:
256,192,122951,1,0,0:0:0:0:
256,192,123030,1,0,0:0:0:0:
256,192,123188,1,0,0:0:0:0:
256,192,123241,1,0,0:0:0:0:
256,192,123294,1,0,0:0:0:0:
256,192,123346,1,0,0:0:0:0:
256,192,123504,1,0,0:0:0:0:
256,192,123662,1,0,0:0:0:0:
256,192,123820,1,8,0:0:0:0:
256,192,123899,1,8,0:0:0:0:
256,192,123978,1,8,0:0:0:0:
256,192,124136,1,8,0:0:0:0:
256,192,124215,1,8,0:0:0:0:
256,192,124294,1,8,0:0:0:0:
256,192,124372,1,8,0:0:0:0:
256,192,124451,1,8,0:0:0:0:
256,192,124557,1,8,0:0:0:0:
256,192,124662,1,8,0:0:0:0:
256,192,124767,1,8,0:0:0:0:
256,192,124925,1,8,0:0:0:0:
256,192,125083,1,0,0:0:0:0:
256,192,125241,1,0,0:0:0:0:
256,192,125320,1,0,0:0:0:0:
256,192,125399,1,0,0:0:0:0:
256,192,125478,1,0,0:0:0:0:
256,192,125557,1,0,0:0:0:0:
256,192,125715,1,0,0:0:0:0:
256,192,125767,1,0,0:0:0:0:
256,192,125820,1,0,0:0:0:0:
256,192,125872,1,0,0:0:0:0:
256,192,126030,1,0,0:0:0:0:
256,192,126188,1,0,0:0:0:0:
256,192,126346,1,8,0:0:0:0:
256,192,126425,1,8,0:0:0:0:
256,192,126504,1,8,0:0:0:0:
256,192,126662,1,8,0:0:0:0:
256,192,126741,1,8,0:0:0:0:
256,192,126820,1,8,0:0:0:0:
256,192,126899,1,8,0:0:0:0:
256,192,126978,1,8,0:0:0:0:
256,192,127083,1,8,0:0:0:0:
256,192,127188,1,8,0:0:0:0:
256,192,127294,1,8,0:0:0:0:
256,192,127451,1,8,0:0:0:0:
256,192,127609,1,0,0:0:0:0:
288,192,127688,1,0,0:0:0:0:
256,192,127767,1,8,0:0:0:0:
256,192,127925,1,0,0:0:0:0:
256,192,128004,1,0,0:0:0:0:
256,192,128083,1,8,0:0:0:0:
256,192,128241,1,0,0:0:0:0:
256,192,128320,1,0,0:0:0:0:
256,192,128399,1,8,0:0:0:0:
256,192,128557,1,0,0:0:0:0:
256,192,128636,1,8,0:0:0:0:
256,192,128715,1,0,0:0:0:0:
256,192,128872,1,8,0:0:0:0:
256,192,129030,1,8,0:0:0:0:
256,192,129188,1,8,0:0:0:0:
256,192,129346,1,8,0:0:0:0:
256,192,129504,1,8,0:0:0:0:
256,192,129583,1,8,0:0:0:0:
256,192,129662,1,8,0:0:0:0:
256,192,129741,1,8,0:0:0:0:
256,192,129820,1,0,0:0:0:0:
256,192,129872,1,0,0:0:0:0:
256,192,129925,1,8,0:0:0:0:
256,192,129978,1,8,0:0:0:0:
256,192,130030,1,8,0:0:0:0:
256,192,130083,1,8,0:0:0:0:
256,192,130451,1,12,0:0:0:0:
256,192,130609,8,0,132662,0:0:0:0:
256,192,135188,5,0,0:0:0:0:
256,192,135346,1,0,0:0:0:0:
256,192,135504,1,8,0:0:0:0:
256,192,135662,1,0,0:0:0:0:
256,192,135820,1,8,0:0:0:0:
256,192,135978,1,8,0:0:0:0:
256,192,136136,1,0,0:0:0:0:
256,192,136294,1,8,0:0:0:0:
256,192,136451,1,8,0:0:0:0:
256,192,136609,1,0,0:0:0:0:
256,192,136767,1,8,0:0:0:0:
256,192,136925,1,8,0:0:0:0:
256,192,137083,1,0,0:0:0:0:
256,192,137241,1,8,0:0:0:0:
256,192,137399,1,8,0:0:0:0:
256,192,137557,1,8,0:0:0:0:
256,192,137715,1,0,0:0:0:0:
256,192,137872,1,0,0:0:0:0:
256,192,138030,1,8,0:0:0:0:
256,192,138188,1,0,0:0:0:0:
256,192,138346,1,8,0:0:0:0:
256,192,138504,1,8,0:0:0:0:
256,192,138662,1,0,0:0:0:0:
256,192,138820,1,8,0:0:0:0:
256,192,138978,1,8,0:0:0:0:
256,192,139136,1,0,0:0:0:0:
256,192,139294,1,8,0:0:0:0:
256,192,139451,1,8,0:0:0:0:
256,192,139609,1,0,0:0:0:0:
