osu file format v14

[General]
AudioFilename: audio.mp3
AudioLeadIn: 0
PreviewTime: 31609
Countdown: 0
SampleSet: Normal
StackLeniency: 0.7
Mode: 1
LetterboxInBreaks: 0
WidescreenStoryboard: 1

[Editor]
DistanceSpacing: 0.7
BeatDivisor: 6
GridSize: 32
TimelineZoom: 2.499999

[Metadata]
Title:Effluxion feat. Ririsya
TitleUnicode:Effluxion feat. 凛々咲
Artist:Zenpaku
ArtistUnicode:Zenpaku
Creator:dtn
Version:Futsuu
Source:
Tags:Dtnt0r dj-jo dj jo japanese instrumental Drum and Bass Hardcore Artcore Electronic ririsha d'n'b dnb featured artist fa
BeatmapID:3665698
BeatmapSetID:1788969

[Difficulty]
HPDrainRate:7
CircleSize:5
OverallDifficulty:4
ApproachRate:5
SliderMultiplier:1.4
SliderTickRate:1

[Events]
//Background and Video events
0,0,"effluxion.jpg",0,120
//Break Periods
2,52020,59462
//Storyboard Layer 0 (Background)
//Storyboard Layer 1 (Fail)
//Storyboard Layer 2 (Pass)
//Storyboard Layer 3 (Foreground)
//Storyboard Layer 4 (Overlay)
//Storyboard Sound Samples

[TimingPoints]
31,315.789473684211,4,1,0,50,1,8
1294,315.789473684211,4,1,0,50,1,0
1294,-100,4,1,0,50,0,0
10886,-100,4,1,0,100,0,0
31609,-100,4,1,0,100,0,1
51820,-100,4,1,0,50,0,0
61925,-100,4,1,0,75,0,0
72030,-100,4,1,0,100,0,0
92241,-100,4,1,0,100,0,1
130451,-100,4,1,0,60,0,0
135149,-100,4,1,0,50,0,0

[HitObjects]
256,192,1294,5,0,0:0:0:0:
256,192,1451,1,0,0:0:0:0:
256,192,1609,1,8,0:0:0:0:
256,192,1925,1,8,0:0:0:0:
256,192,2083,1,8,0:0:0:0:
256,192,2399,1,8,0:0:0:0:
256,192,2557,1,8,0:0:0:0:
256,192,2872,1,8,0:0:0:0:
256,192,3030,1,8,0:0:0:0:
256,192,3188,1,0,0:0:0:0:
256,192,3504,1,8,0:0:0:0:
256,192,3820,1,0,0:0:0:0:
256,192,3978,1,0,0:0:0:0:
256,192,4136,1,8,0:0:0:0:
256,192,4451,1,8,0:0:0:0:
256,192,4609,1,8,0:0:0:0:
256,192,4925,1,8,0:0:0:0:
256,192,5083,1,8,0:0:0:0:
256,192,5399,1,8,0:0:0:0:
256,192,5557,1,8,0:0:0:0:
256,192,5872,1,8,0:0:0:0:
256,192,6346,1,0,0:0:0:0:
256,192,6820,1,0,0:0:0:0:
256,192,6978,1,8,0:0:0:0:
256,192,7136,1,8,0:0:0:0:
256,192,7451,1,8,0:0:0:0:
256,192,7609,1,8,0:0:0:0:
256,192,7925,1,8,0:0:0:0:
256,192,8083,1,8,0:0:0:0:
256,192,8399,1,8,0:0:0:0:
256,192,8557,1,8,0:0:0:0:
256,192,8715,1,8,0:0:0:0:
256,192,8872,1,0,0:0:0:0:
256,192,9188,1,8,0:0:0:0:
256,192,9504,1,8,0:0:0:0:
256,192,9662,1,8,0:0:0:0:
256,192,9978,1,8,0:0:0:0:
256,192,10136,1,8,0:0:0:0:
256,192,10451,1,8,0:0:0:0:
256,192,10609,1,8,0:0:0:0:
256,192,11399,1,4,0:0:0:0:
256,192,11715,1,8,0:0:0:0:
256,192,11872,1,8,0:0:0:0:
256,192,12188,1,8,0:0:0:0:
256,192,12346,1,8,0:0:0:0:
256,192,12662,1,0,0:0:0:0:
256,192,12820,1,8,0:0:0:0:
256,192,13136,1,0,0:0:0:0:
256,192,13294,1,8,0:0:0:0:
256,192,13609,1,8,0:0:0:0:
256,192,13767,1,8,0:0:0:0:
256,192,13925,1,0,0:0:0:0:
256,192,14083,1,8,0:0:0:0:
256,192,14399,1,8,0:0:0:0:
256,192,14557,1,8,0:0:0:0:
256,192,14872,1,8,0:0:0:0:
256,192,15030,1,8,0:0:0:0:
256,192,15188,1,0,0:0:0:0:
256,192,15346,1,0,0:0:0:0:
256,192,15662,1,8,0:0:0:0:
256,192,15820,1,8,0:0:0:0:
256,192,16451,1,0,0:0:0:0:
256,192,16925,1,8,0:0:0:0:
256,192,17241,1,0,0:0:0:0:
256,192,17399,1,8,0:0:0:0:
256,192,17715,1,0,0:0:0:0:
256,192,17872,1,8,0:0:0:0:
256,192,18188,1,0,0:0:0:0:
256,192,18346,1,8,0:0:0:0:
256,192,18662,1,8,0:0:0:0:
256,192,18820,1,8,0:0:0:0:
256,192,18978,1,0,0:0:0:0:
256,192,19136,1,8,0:0:0:0:
256,192,19451,1,8,0:0:0:0:
256,192,19609,1,8,0:0:0:0:
256,192,19925,1,8,0:0:0:0:
256,192,20083,1,8,0:0:0:0:
256,192,20241,1,0,0:0:0:0:
256,192,20399,1,0,0:0:0:0:
256,192,20715,1,8,0:0:0:0:
256,192,20872,1,8,0:0:0:0:
256,192,21504,1,0,0:0:0:0:
256,192,21978,1,0,0:0:0:0:
256,192,22294,1,8,0:0:0:0:
256,192,22451,1,0,0:0:0:0:
256,192,22767,1,8,0:0:0:0:
256,192,22925,1,8,0:0:0:0:
256,192,23241,1,0,0:0:0:0:
256,192,23399,1,8,0:0:0:0:
256,192,23715,1,0,0:0:0:0:
256,192,23872,1,0,0:0:0:0:
256,192,24030,1,8,0:0:0:0:
256,192,24188,1,8,0:0:0:0:
256,192,24504,1,0,0:0:0:0:
256,192,24662,1,8,0:0:0:0:
256,192,24978,1,0,0:0:0:0:
256,192,25136,1,0,0:0:0:0:
256,192,25294,1,8,0:0:0:0:
256,192,25451,1,0,0:0:0:0:
256,192,25767,1,0,0:0:0:0:
256,192,25925,1,8,0:0:0:0:
256,192,26557,1,8,0:0:0:0:
256,192,27030,1,0,0:0:0:0:
256,192,27346,1,8,0:0:0:0:
256,192,27504,1,0,0:0:0:0:
256,192,27820,1,8,0:0:0:0:
256,192,27978,1,0,0:0:0:0:
256,192,28294,1,8,0:0:0:0:
256,192,28451,1,8,0:0:0:0:
256,192,28767,1,0,0:0:0:0:
256,192,28925,1,8,0:0:0:0:
256,192,29083,1,4,0:0:0:0:
256,192,29399,1,12,0:0:0:0:
256,192,30030,1,0,0:0:0:0:
256,192,30346,1,8,0:0:0:0:
256,192,30662,1,8,0:0:0:0:
256,192,30978,1,8,0:0:0:0:
256,192,31609,1,0,0:0:0:0:
256,192,31925,1,8,0:0:0:0:
256,192,32399,1,0,0:0:0:0:
256,192,32636,1,8,0:0:0:0:
256,192,32872,1,0,0:0:0:0:
256,192,33188,1,8,0:0:0:0:
256,192,33504,1,0,0:0:0:0:
256,192,33662,1,8,0:0:0:0:
256,192,33899,1,8,0:0:0:0:
256,192,34136,1,0,0:0:0:0:
256,192,34451,1,8,0:0:0:0:
256,192,34925,1,0,0:0:0:0:
256,192,35162,1,8,0:0:0:0:
256,192,35399,1,0,0:0:0:0:
256,192,35715,1,0,0:0:0:0:
256,192,36030,1,8,0:0:0:0:
256,192,36662,1,0,0:0:0:0:
256,192,36978,1,8,0:0:0:0:
256,192,37451,1,0,0:0:0:0:
256,192,37688,1,8,0:0:0:0:
256,192,37925,1,0,0:0:0:0:
256,192,38241,1,8,0:0:0:0:
256,192,38557,1,0,0:0:0:0:
256,192,38715,1,0,0:0:0:0:
256,192,38872,1,8,0:0:0:0:
256,192,39188,1,0,0:0:0:0:
256,192,39504,1,8,0:0:0:0:
256,192,39978,1,0,0:0:0:0:
256,192,40215,1,8,0:0:0:0:
256,192,40451,1,0,0:0:0:0:
256,192,40767,1,0,0:0:0:0:
256,192,41083,1,8,0:0:0:0:
256,192,41399,1,0,0:0:0:0:
256,192,41557,1,8,0:0:0:0:
256,192,42030,1,8,0:0:0:0:
256,192,42504,1,0,0:0:0:0:
256,192,42741,1,8,0:0:0:0:
256,192,42978,1,0,0:0:0:0:
256,192,43294,1,8,0:0:0:0:
256,192,43609,1,0,0:0:0:0:
256,192,43767,1,8,0:0:0:0:
256,192,44004,1,0,0:0:0:0:
256,192,44241,1,0,0:0:0:0:
256,192,44557,1,8,0:0:0:0:
256,192,45030,1,0,0:0:0:0:
256,192,45267,1,8,0:0:0:0:
256,192,45504,1,0,0:0:0:0:
256,192,45820,1,0,0:0:0:0:
256,192,46136,1,8,0:0:0:0:
256,192,46767,1,0,0:0:0:0:
256,192,47083,1,8,0:0:0:0:
256,192,47557,1,0,0:0:0:0:
256,192,47794,1,8,0:0:0:0:
256,192,48030,1,0,0:0:0:0:
256,192,48346,1,8,0:0:0:0:
256,192,48662,1,0,0:0:0:0:
256,192,48820,1,0,0:0:0:0:
256,192,48978,1,8,0:0:0:0:
256,192,49294,1,0,0:0:0:0:
256,192,49609,1,8,0:0:0:0:
256,192,50083,1,0,0:0:0:0:
256,192,50320,1,8,0:0:0:0:
256,192,50557,1,0,0:0:0:0:
256,192,50794,1,0,0:0:0:0:
256,192,51030,1,0,0:0:0:0:
256,192,51188,1,0,0:0:0:0:
256,192,51346,1,8,0:0:0:0:
256,192,51820,1,4,0:0:0:0:
256,192,60662,12,8,61609,0:0:0:0:
256,192,61925,5,4,0:0:0:0:
256,192,62241,1,0,0:0:0:0:
256,192,62399,1,8,0:0:0:0:
256,192,62715,1,8,0:0:0:0:
256,192,62872,1,8,0:0:0:0:
256,192,63188,1,0,0:0:0:0:
256,192,63346,1,8,0:0:0:0:
256,192,63662,1,0,0:0:0:0:
256,192,63820,1,8,0:0:0:0:
256,192,64136,1,8,0:0:0:0:
256,192,64294,1,8,0:0:0:0:
256,192,64451,1,0,0:0:0:0:
256,192,64609,1,8,0:0:0:0:
256,192,64925,1,0,0:0:0:0:
256,192,65083,1,8,0:0:0:0:
256,192,65399,1,8,0:0:0:0:
256,192,65557,1,8,0:0:0:0:
256,192,65715,1,0,0:0:0:0:
256,192,65872,1,8,0:0:0:0:
256,192,66188,1,8,0:0:0:0:
256,192,66346,1,8,0:0:0:0:
256,192,66978,1,0,0:0:0:0:
256,192,67451,1,8,0:0:0:0:
256,192,67767,1,8,0:0:0:0:
256,192,67925,1,8,0:0:0:0:
256,192,68241,1,0,0:0:0:0:
256,192,68399,1,8,0:0:0:0:
256,192,68715,1,0,0:0:0:0:
256,192,68872,1,8,0:0:0:0:
256,192,69188,1,8,0:0:0:0:
256,192,69346,1,8,0:0:0:0:
256,192,69504,1,0,0:0:0:0:
256,192,69662,1,8,0:0:0:0:
256,192,69978,1,8,0:0:0:0:
256,192,70136,1,8,0:0:0:0:
256,192,70451,1,8,0:0:0:0:
256,192,70609,1,8,0:0:0:0:
256,192,70767,1,0,0:0:0:0:
256,192,70925,1,0,0:0:0:0:
256,192,71241,1,8,0:0:0:0:
256,192,71399,1,8,0:0:0:0:
256,192,72030,1,4,0:0:0:0:
256,192,72504,1,8,0:0:0:0:
256,192,72820,1,8,0:0:0:0:
256,192,72978,1,8,0:0:0:0:
256,192,73294,1,8,0:0:0:0:
256,192,73451,1,8,0:0:0:0:
256,192,73767,1,8,0:0:0:0:
256,192,73925,1,8,0:0:0:0:
256,192,74241,1,8,0:0:0:0:
256,192,74399,1,8,0:0:0:0:
256,192,74557,1,0,0:0:0:0:
256,192,74715,1,8,0:0:0:0:
256,192,75030,1,8,0:0:0:0:
256,192,75188,1,8,0:0:0:0:
256,192,75504,1,8,0:0:0:0:
256,192,75662,1,8,0:0:0:0:
256,192,75820,1,0,0:0:0:0:
256,192,75978,1,8,0:0:0:0:
256,192,76294,1,8,0:0:0:0:
256,192,76451,1,8,0:0:0:0:
256,192,77083,1,0,0:0:0:0:
256,192,77557,1,8,0:0:0:0:
256,192,77715,1,0,0:0:0:0:
256,192,77872,1,8,0:0:0:0:
256,192,78030,1,8,0:0:0:0:
256,192,78346,1,8,0:0:0:0:
256,192,78504,1,8,0:0:0:0:
256,192,78820,1,8,0:0:0:0:
256,192,78978,1,8,0:0:0:0:
256,192,79294,1,8,0:0:0:0:
256,192,79451,1,8,0:0:0:0:
256,192,79609,1,0,0:0:0:0:
256,192,79767,1,8,0:0:0:0:
256,192,80083,1,8,0:0:0:0:
256,192,80241,1,8,0:0:0:0:
256,192,80557,1,8,0:0:0:0:
256,192,80715,1,0,0:0:0:0:
256,192,80872,1,8,0:0:0:0:
256,192,81030,1,8,0:0:0:0:
256,192,81346,1,8,0:0:0:0:
256,192,81504,1,8,0:0:0:0:
256,192,82136,1,0,0:0:0:0:
256,192,82294,1,0,0:0:0:0:
256,192,82609,1,0,0:0:0:0:
256,192,82767,1,12,0:0:0:0:
256,192,83399,1,8,0:0:0:0:
256,192,83557,1,8,0:0:0:0:
256,192,83872,1,0,0:0:0:0:
256,192,84030,1,12,0:0:0:0:
256,192,84662,1,0,0:0:0:0:
256,192,84820,1,0,0:0:0:0:
256,192,85136,1,0,0:0:0:0:
256,192,85294,1,12,0:0:0:0:
256,192,85925,1,8,0:0:0:0:
256,192,86083,1,8,0:0:0:0:
256,192,86399,1,0,0:0:0:0:
256,192,86557,1,12,0:0:0:0:
256,192,86872,1,8,0:0:0:0:
256,192,87188,1,0,0:0:0:0:
256,192,87504,1,0,0:0:0:0:
256,192,87820,1,8,0:0:0:0:
256,192,88057,1,8,0:0:0:0:
256,192,88215,1,8,0:0:0:0:
256,192,88451,1,8,0:0:0:0:
256,192,88767,1,8,0:0:0:0:
256,192,88925,1,0,0:0:0:0:
256,192,89083,1,8,0:0:0:0:
256,192,89320,1,8,0:0:0:0:
256,192,89478,1,8,0:0:0:0:
256,192,89715,1,8,0:0:0:0:
256,192,89951,1,8,0:0:0:0:
256,192,90109,1,8,0:0:0:0:
256,192,90346,1,8,0:0:0:0:
256,192,90583,1,8,0:0:0:0:
256,192,90741,1,8,0:0:0:0:
256,192,92241,1,0,0:0:0:0:
256,192,92557,1,8,0:0:0:0:
256,192,92715,1,8,0:0:0:0:
256,192,92872,1,0,0:0:0:0:
256,192,93188,1,8,0:0:0:0:
256,192,93504,1,0,0:0:0:0:
256,192,93820,1,0,0:0:0:0:
256,192,93978,1,8,0:0:0:0:
256,192,94136,1,0,0:0:0:0:
256,192,94451,1,0,0:0:0:0:
256,192,94767,1,8,0:0:0:0:
256,192,94925,1,8,0:0:0:0:
256,192,95083,1,8,0:0:0:0:
256,192,95399,1,0,0:0:0:0:
256,192,95557,1,8,0:0:0:0:
256,192,95715,1,8,0:0:0:0:
256,192,95872,1,8,0:0:0:0:
256,192,96188,1,8,0:0:0:0:
256,192,96820,1,8,0:0:0:0:
256,192,96978,1,0,0:0:0:0:
256,192,97294,1,0,0:0:0:0:
256,192,97609,1,8,0:0:0:0:
256,192,97767,1,8,0:0:0:0:
256,192,97925,1,0,0:0:0:0:
256,192,98241,1,8,0:0:0:0:
256,192,98557,1,0,0:0:0:0:
256,192,98872,1,0,0:0:0:0:
256,192,99030,1,8,0:0:0:0:
256,192,99188,1,0,0:0:0:0:
256,192,99504,1,0,0:0:0:0:
256,192,99820,1,8,0:0:0:0:
256,192,99978,1,8,0:0:0:0:
256,192,100136,1,0,0:0:0:0:
256,192,100451,1,0,0:0:0:0:
256,192,100767,1,8,0:0:0:0:
256,192,101083,1,0,0:0:0:0:
256,192,101399,1,8,0:0:0:0:
256,192,101557,1,8,0:0:0:0:
256,192,101715,1,8,0:0:0:0:
256,192,102346,1,0,0:0:0:0:
256,192,102662,1,8,0:0:0:0:
256,192,102820,1,8,0:0:0:0:
256,192,102978,1,0,0:0:0:0:
256,192,103294,1,8,0:0:0:0:
256,192,103609,1,0,0:0:0:0:
256,192,103925,1,0,0:0:0:0:
256,192,104083,1,8,0:0:0:0:
256,192,104241,1,0,0:0:0:0:
256,192,104557,1,0,0:0:0:0:
256,192,104872,1,8,0:0:0:0:
256,192,105030,1,8,0:0:0:0:
256,192,105188,1,8,0:0:0:0:
256,192,105504,1,0,0:0:0:0:
256,192,105662,1,8,0:0:0:0:
256,192,105820,1,8,0:0:0:0:
256,192,105978,1,8,0:0:0:0:
256,192,106294,1,8,0:0:0:0:
256,192,106925,1,8,0:0:0:0:
256,192,107083,1,0,0:0:0:0:
256,192,107399,1,0,0:0:0:0:
256,192,107557,1,8,0:0:0:0:
256,192,107715,1,0,0:0:0:0:
256,192,108030,1,0,0:0:0:0:
256,192,108346,1,8,0:0:0:0:
256,192,108504,1,8,0:0:0:0:
256,192,108662,1,0,0:0:0:0:
256,192,108978,1,8,0:0:0:0:
256,192,109294,1,0,0:0:0:0:
256,192,109451,1,0,0:0:0:0:
256,192,109609,1,8,0:0:0:0:
256,192,110241,1,8,0:0:0:0:
256,192,110557,1,8,0:0:0:0:
256,192,110715,1,8,0:0:0:0:
256,192,110872,1,8,0:0:0:0:
256,192,111188,1,0,0:0:0:0:
256,192,111504,1,0,0:0:0:0:
256,192,111820,1,8,0:0:0:0:
256,192,112136,1,0,0:0:0:0:
256,192,112451,1,12,0:0:0:0:
256,192,112767,1,0,0:0:0:0:
256,192,112925,1,0,0:0:0:0:
256,192,113241,1,0,0:0:0:0:
256,192,113399,1,0,0:0:0:0:
256,192,113715,1,8,0:0:0:0:
256,192,113872,1,8,0:0:0:0:
256,192,114188,1,8,0:0:0:0:
256,192,114346,1,8,0:0:0:0:
256,192,114978,1,0,0:0:0:0:
256,192,115294,1,0,0:0:0:0:
256,192,115451,1,0,0:0:0:0:
256,192,115767,1,0,0:0:0:0:
256,192,115925,1,0,0:0:0:0:
256,192,116241,1,0,0:0:0:0:
256,192,116399,1,8,0:0:0:0:
256,192,116557,1,0,0:0:0:0:
256,192,116872,1,0,0:0:0:0:
256,192,117188,1,8,0:0:0:0:
256,192,117504,1,0,0:0:0:0:
256,192,117820,1,8,0:0:0:0:
256,192,117978,1,8,0:0:0:0:
256,192,118294,1,0,0:0:0:0:
256,192,118451,1,0,0:0:0:0:
256,192,118767,1,8,0:0:0:0:
256,192,118925,1,8,0:0:0:0:
256,192,119241,1,0,0:0:0:0:
256,192,119399,1,0,0:0:0:0:
256,192,120030,1,4,0:0:0:0:
256,192,120346,1,4,0:0:0:0:
256,192,120662,1,4,0:0:0:0:
256,192,120978,1,4,0:0:0:0:
256,192,121294,1,4,0:0:0:0:
256,192,121609,1,8,0:0:0:0:
256,192,121767,1,0,0:0:0:0:
256,192,121925,1,8,0:0:0:0:
256,192,122557,1,4,0:0:0:0:
256,192,122872,1,0,0:0:0:0:
256,192,123030,1,0,0:0:0:0:
256,192,123188,1,0,0:0:0:0:
256,192,123504,1,0,0:0:0:0:
256,192,123820,1,8,0:0:0:0:
256,192,123978,1,8,0:0:0:0:
256,192,124136,1,8,0:0:0:0:
256,192,124451,1,8,0:0:0:0:
256,192,124767,1,8,0:0:0:0:
256,192,125083,1,0,0:0:0:0:
256,192,125399,1,0,0:0:0:0:
256,192,125557,1,0,0:0:0:0:
256,192,125715,1,0,0:0:0:0:
256,192,126030,1,0,0:0:0:0:
256,192,126346,1,8,0:0:0:0:
256,192,126504,1,8,0:0:0:0:
256,192,126662,1,8,0:0:0:0:
256,192,126978,1,8,0:0:0:0:
256,192,127609,1,0,0:0:0:0:
256,192,127767,1,8,0:0:0:0:
256,192,127925,1,0,0:0:0:0:
256,192,128241,1,0,0:0:0:0:
256,192,128557,1,0,0:0:0:0:
256,192,128872,1,8,0:0:0:0:
256,192,129030,1,8,0:0:0:0:
256,192,129188,1,8,0:0:0:0:
256,192,129504,1,8,0:0:0:0:
256,192,129662,1,8,0:0:0:0:
256,192,129820,1,0,0:0:0:0:
256,192,129978,1,0,0:0:0:0:
256,192,130451,1,12,0:0:0:0:
256,192,130609,8,0,132662,0:0:0:0:
256,192,135188,5,0,0:0:0:0:
256,192,135346,1,0,0:0:0:0:
256,192,135504,1,8,0:0:0:0:
256,192,135820,1,8,0:0:0:0:
256,192,135978,1,8,0:0:0:0:
256,192,136294,1,8,0:0:0:0:
256,192,136451,1,8,0:0:0:0:
256,192,136767,1,8,0:0:0:0:
256,192,136925,1,8,0:0:0:0:
256,192,137241,1,8,0:0:0:0:
256,192,137399,1,8,0:0:0:0:
256,192,137715,1,0,0:0:0:0:
256,192,137872,1,0,0:0:0:0:
256,192,138030,1,8,0:0:0:0:
256,192,138346,1,8,0:0:0:0:
256,192,138504,1,8,0:0:0:0:
256,192,138820,1,8,0:0:0:0:
256,192,138978,1,8,0:0:0:0:
256,192,139294,1,8,0:0:0:0:
256,192,139451,1,8,0:0:0:0:
256,192,139609,1,0,0:0:0:0:
