osu file format v14

[General]
AudioFilename: audio.mp3
AudioLeadIn: 0
PreviewTime: -1
Countdown: 0
SampleSet: None
StackLeniency: 0.7
Mode: 3
LetterboxInBreaks: 0
SpecialStyle: 0
WidescreenStoryboard: 0

[Editor]
DistanceSpacing: 1.5
BeatDivisor: 4
GridSize: 8
TimelineZoom: 1.5

[Metadata]
Title:Baka oppai theme
TitleUnicode:Baka oppai theme
Artist:Zenpaku
ArtistUnicode:Zenpaku
Creator:Verald
Version:Oppai
Source:
Tags:
BeatmapID:1568807
BeatmapSetID:743996

[Difficulty]
HPDrainRate:9
CircleSize:4
OverallDifficulty:9
ApproachRate:5
SliderMultiplier:1.4
SliderTickRate:1

[Events]
//Background and Video events
0,0,"baka.png",0,0
//Break Periods
//Storyboard Layer 0 (Background)
//Storyboard Layer 1 (Fail)
//Storyboard Layer 2 (Pass)
//Storyboard Layer 3 (Foreground)
//Storyboard Sound Samples

[TimingPoints]
2625,333.425951653237,4,3,0,100,1,0
12627,-20,4,3,0,100,0,0
12961,-250,4,3,0,100,0,0
13044,-333.333333333333,4,3,0,100,0,0
13127,-500,4,3,0,100,0,0
13211,-10000,4,3,0,100,0,0
13294,-100,4,3,0,100,0,0

[HitObjects]
460,192,2625,5,0,0:0:0:0:
64,192,2625,1,0,0:0:0:0:
192,192,2625,1,0,0:0:0:0:
320,192,2791,1,0,0:0:0:0:
448,192,2958,1,0,0:0:0:0:
192,192,3125,1,0,0:0:0:0:
320,192,3291,1,0,0:0:0:0:
64,192,3458,1,0,0:0:0:0:
192,192,3625,1,0,0:0:0:0:
320,192,3791,1,0,0:0:0:0:
448,192,3958,1,0,0:0:0:0:
64,192,4125,1,0,0:0:0:0:
320,192,4292,1,0,0:0:0:0:
192,192,4458,1,0,0:0:0:0:
448,192,4625,1,0,0:0:0:0:
320,192,4792,1,0,0:0:0:0:
192,192,4958,1,0,0:0:0:0:
64,192,5125,1,0,0:0:0:0:
448,192,5292,1,0,0:0:0:0:
64,192,5459,1,0,0:0:0:0:
320,192,5625,1,0,0:0:0:0:
448,192,5792,1,0,0:0:0:0:
320,192,5959,1,0,0:0:0:0:
64,192,6125,1,0,0:0:0:0:
448,192,6292,1,0,0:0:0:0:
192,192,6459,1,0,0:0:0:0:
320,192,6626,1,0,0:0:0:0:
64,192,6792,1,0,0:0:0:0:
320,192,6959,1,0,0:0:0:0:
448,192,7126,1,0,0:0:0:0:
192,192,7292,1,0,0:0:0:0:
64,192,7459,1,0,0:0:0:0:
320,192,7626,1,0,0:0:0:0:
64,192,7793,1,0,0:0:0:0:
192,192,7793,1,0,0:0:0:0:
448,192,7876,1,0,0:0:0:0:
320,192,7876,1,0,0:0:0:0:
320,192,7959,1,0,0:0:0:0:
192,192,7959,1,0,0:0:0:0:
64,192,7959,1,0,0:0:0:0:
320,192,8126,1,0,0:0:0:0:
320,192,8293,1,0,0:0:0:0:
192,192,8293,1,0,0:0:0:0:
64,192,8293,1,0,0:0:0:0:
192,192,8459,1,0,0:0:0:0:
320,192,8626,1,0,0:0:0:0:
192,192,8626,1,0,0:0:0:0:
448,192,8626,1,0,0:0:0:0:
448,192,8793,1,0,0:0:0:0:
64,192,8960,1,0,0:0:0:0:
320,192,8960,1,0,0:0:0:0:
448,192,8960,1,0,0:0:0:0:
64,192,9126,1,0,0:0:0:0:
448,192,9293,1,0,0:0:0:0:
64,192,9293,1,0,0:0:0:0:
192,192,9293,1,0,0:0:0:0:
320,192,9460,1,0,0:0:0:0:
64,192,9626,1,0,0:0:0:0:
192,192,9626,1,0,0:0:0:0:
320,192,9626,1,0,0:0:0:0:
192,192,9793,1,0,0:0:0:0:
64,192,9960,1,0,0:0:0:0:
448,192,9960,1,0,0:0:0:0:
320,192,9960,1,0,0:0:0:0:
448,192,10127,1,0,0:0:0:0:
320,192,10293,1,0,0:0:0:0:
192,192,10293,1,0,0:0:0:0:
64,192,10293,1,0,0:0:0:0:
64,192,10460,1,0,0:0:0:0:
64,192,10627,1,0,0:0:0:0:
448,192,10627,1,0,0:0:0:0:
320,192,10627,1,0,0:0:0:0:
192,192,10627,1,0,0:0:0:0:
448,192,10793,1,0,0:0:0:0:
192,192,10793,1,0,0:0:0:0:
320,192,10793,1,0,0:0:0:0:
64,192,10960,1,0,0:0:0:0:
320,192,10960,1,0,0:0:0:0:
448,192,10960,1,0,0:0:0:0:
192,192,11127,1,0,0:0:0:0:
320,192,11127,1,0,0:0:0:0:
64,192,11127,1,0,0:0:0:0:
448,192,11127,1,0,0:0:0:0:
320,192,11294,1,0,0:0:0:0:
448,192,11294,1,0,0:0:0:0:
192,192,11294,1,0,0:0:0:0:
64,192,11460,1,0,0:0:0:0:
192,192,11460,1,0,0:0:0:0:
448,192,11460,1,0,0:0:0:0:
320,192,11627,1,0,0:0:0:0:
192,192,11627,1,0,0:0:0:0:
448,192,11627,1,0,0:0:0:0:
64,192,11627,1,0,0:0:0:0:
320,192,11794,1,0,0:0:0:0:
320,192,12002,1,0,0:0:0:0:
448,192,12002,1,0,0:0:0:0:
64,192,12002,1,0,0:0:0:0:
192,192,12210,1,0,0:0:0:0:
64,192,12210,1,0,0:0:0:0:
448,192,12210,1,0,0:0:0:0:
448,192,12419,1,0,0:0:0:0:
320,192,12419,1,0,0:0:0:0:
192,192,12419,1,0,0:0:0:0:
64,192,12627,1,0,0:0:0:0:
192,192,12627,1,0,0:0:0:0:
320,192,12627,1,0,0:0:0:0:
64,192,13294,1,0,0:0:0:0:
192,192,13294,1,0,0:0:0:0:
320,192,13294,1,0,0:0:0:0:
448,192,13294,1,0,0:0:0:0:
448,192,13461,1,0,0:0:0:0:
320,192,13461,1,0,0:0:0:0:
192,192,13461,1,0,0:0:0:0:
64,192,13628,1,0,0:0:0:0:
192,192,13628,1,0,0:0:0:0:
448,192,13628,1,0,0:0:0:0:
192,192,13794,1,0,0:0:0:0:
320,192,13794,1,0,0:0:0:0:
64,192,13794,1,0,0:0:0:0:
448,192,13961,1,0,0:0:0:0:
320,192,13961,1,0,0:0:0:0:
192,192,13961,1,0,0:0:0:0:
64,192,13961,1,0,0:0:0:0:
64,192,14128,1,0,0:0:0:0:
192,192,14128,1,0,0:0:0:0:
320,192,14128,1,0,0:0:0:0:
448,192,14294,1,0,0:0:0:0:
320,192,14294,1,0,0:0:0:0:
192,192,14294,1,0,0:0:0:0:
64,192,14461,1,0,0:0:0:0:
320,192,14461,1,0,0:0:0:0:
448,192,14461,1,0,0:0:0:0:
64,192,14628,1,0,0:0:0:0:
192,192,14628,1,0,0:0:0:0:
320,192,14628,1,0,0:0:0:0:
448,192,14628,1,0,0:0:0:0:
320,192,14795,1,0,0:0:0:0:
448,192,14795,1,0,0:0:0:0:
64,192,14795,1,0,0:0:0:0:
64,192,14961,1,0,0:0:0:0:
192,192,14961,1,0,0:0:0:0:
448,192,14961,1,0,0:0:0:0:
192,192,15128,1,0,0:0:0:0:
320,192,15128,1,0,0:0:0:0:
448,192,15128,1,0,0:0:0:0:
448,192,15295,1,0,0:0:0:0:
320,192,15295,1,0,0:0:0:0:
192,192,15295,1,0,0:0:0:0:
64,192,15295,1,0,0:0:0:0:
192,192,15461,1,0,0:0:0:0:
320,192,15461,1,0,0:0:0:0:
64,192,15461,1,0,0:0:0:0:
448,192,15628,1,0,0:0:0:0:
320,192,15628,1,0,0:0:0:0:
64,192,15628,1,0,0:0:0:0:
192,192,15628,1,0,0:0:0:0:
64,192,15795,1,0,0:0:0:0:
320,192,15795,1,0,0:0:0:0:
448,192,15795,1,0,0:0:0:0:
64,192,15962,1,0,0:0:0:0:
192,192,15962,1,0,0:0:0:0:
320,192,15962,1,0,0:0:0:0:
448,192,15962,1,0,0:0:0:0:
64,192,16128,1,0,0:0:0:0:
320,192,16128,1,0,0:0:0:0:
192,192,16128,1,0,0:0:0:0:
64,192,16295,1,0,0:0:0:0:
192,192,16295,1,0,0:0:0:0:
448,192,16295,1,0,0:0:0:0:
64,192,16462,1,0,0:0:0:0:
320,192,16462,1,0,0:0:0:0:
448,192,16462,1,0,0:0:0:0:
192,192,16628,1,0,0:0:0:0:
64,192,16628,1,0,0:0:0:0:
320,192,16628,1,0,0:0:0:0:
448,192,16628,1,0,0:0:0:0:
64,192,16795,1,0,0:0:0:0:
192,192,16795,1,0,0:0:0:0:
448,192,16795,1,0,0:0:0:0:
448,192,16962,1,0,0:0:0:0:
320,192,16962,1,0,0:0:0:0:
192,192,16962,1,0,0:0:0:0:
64,192,17129,1,0,0:0:0:0:
320,192,17129,1,0,0:0:0:0:
192,192,17129,1,0,0:0:0:0:
320,192,17295,1,0,0:0:0:0:
192,192,17295,1,0,0:0:0:0:
64,192,17295,1,0,0:0:0:0:
448,192,17295,1,0,0:0:0:0:
448,192,17462,1,0,0:0:0:0:
320,192,17462,1,0,0:0:0:0:
192,192,17462,1,0,0:0:0:0:
64,192,17629,1,0,0:0:0:0:
320,192,17629,1,0,0:0:0:0:
448,192,17629,1,0,0:0:0:0:
64,192,17795,1,0,0:0:0:0:
192,192,17795,1,0,0:0:0:0:
320,192,17795,1,0,0:0:0:0:
448,192,17795,1,0,0:0:0:0:
448,192,17962,1,0,0:0:0:0:
192,192,17962,1,0,0:0:0:0:
64,192,17962,1,0,0:0:0:0:
320,192,17962,1,0,0:0:0:0:
192,192,18129,1,0,0:0:0:0:
448,192,18129,1,0,0:0:0:0:
64,192,18129,1,0,0:0:0:0:
320,192,18296,1,0,0:0:0:0:
192,192,18296,1,0,0:0:0:0:
448,192,18296,1,0,0:0:0:0:
64,192,18462,1,0,0:0:0:0:
192,192,18462,1,0,0:0:0:0:
448,192,18462,1,0,0:0:0:0:
448,192,18629,1,0,0:0:0:0:
320,192,18629,1,0,0:0:0:0:
192,192,18629,1,0,0:0:0:0:
64,192,18629,1,0,0:0:0:0:
448,192,18796,1,0,0:0:0:0:
320,192,18796,1,0,0:0:0:0:
192,192,18796,1,0,0:0:0:0:
64,192,18962,1,0,0:0:0:0:
192,192,18962,1,0,0:0:0:0:
448,192,18962,1,0,0:0:0:0:
448,192,19129,1,0,0:0:0:0:
320,192,19129,1,0,0:0:0:0:
192,192,19129,1,0,0:0:0:0:
64,192,19296,1,0,0:0:0:0:
192,192,19296,1,0,0:0:0:0:
320,192,19296,1,0,0:0:0:0:
448,192,19296,1,0,0:0:0:0:
64,192,19463,1,0,0:0:0:0:
192,192,19463,1,0,0:0:0:0:
448,192,19463,1,0,0:0:0:0:
192,192,19629,1,0,0:0:0:0:
64,192,19629,1,0,0:0:0:0:
320,192,19629,1,0,0:0:0:0:
448,192,19796,1,0,0:0:0:0:
320,192,19796,1,0,0:0:0:0:
64,192,19796,1,0,0:0:0:0:
448,192,19963,1,0,0:0:0:0:
320,192,19963,1,0,0:0:0:0:
192,192,19963,1,0,0:0:0:0:
64,192,19963,1,0,0:0:0:0:
64,192,20129,1,0,0:0:0:0:
192,192,20129,1,0,0:0:0:0:
448,192,20129,1,0,0:0:0:0:
448,192,20296,1,0,0:0:0:0:
320,192,20296,1,0,0:0:0:0:
192,192,20296,1,0,0:0:0:0:
64,192,20463,1,0,0:0:0:0:
192,192,20463,1,0,0:0:0:0:
320,192,20463,1,0,0:0:0:0:
64,192,20630,1,0,0:0:0:0:
192,192,20630,1,0,0:0:0:0:
320,192,20630,1,0,0:0:0:0:
448,192,20630,1,0,0:0:0:0:
320,192,20796,1,0,0:0:0:0:
192,192,20796,1,0,0:0:0:0:
64,192,20796,1,0,0:0:0:0:
448,192,20963,1,0,0:0:0:0:
320,192,20963,1,0,0:0:0:0:
192,192,20963,1,0,0:0:0:0:
64,192,20963,1,0,0:0:0:0:
448,192,21130,1,0,0:0:0:0:
320,192,21130,1,0,0:0:0:0:
192,192,21130,1,0,0:0:0:0:
64,192,21296,1,0,0:0:0:0:
192,192,21296,1,0,0:0:0:0:
320,192,21296,1,0,0:0:0:0:
448,192,21296,1,0,0:0:0:0:
320,192,21463,1,0,0:0:0:0:
192,192,21463,1,0,0:0:0:0:
64,192,21463,1,0,0:0:0:0:
448,192,21630,1,0,0:0:0:0:
320,192,21630,1,0,0:0:0:0:
64,192,21630,1,0,0:0:0:0:
64,192,21796,1,0,0:0:0:0:
192,192,21796,1,0,0:0:0:0:
448,192,21796,1,0,0:0:0:0:
448,192,21963,1,0,0:0:0:0:
320,192,21963,1,0,0:0:0:0:
192,192,21963,1,0,0:0:0:0:
64,192,21963,1,0,0:0:0:0:
448,192,22130,1,0,0:0:0:0:
320,192,22130,1,0,0:0:0:0:
64,192,22130,1,0,0:0:0:0:
320,192,22297,1,0,0:0:0:0:
192,192,22297,1,0,0:0:0:0:
64,192,22297,1,0,0:0:0:0:
192,192,22463,1,0,0:0:0:0:
320,192,22463,1,0,0:0:0:0:
448,192,22463,1,0,0:0:0:0:
448,192,22630,1,0,0:0:0:0:
64,192,22630,1,0,0:0:0:0:
192,192,22630,1,0,0:0:0:0:
320,192,22630,1,0,0:0:0:0:
448,192,22797,128,0,22880:0:0:0:0:
192,192,22797,128,0,22880:0:0:0:0:
64,192,22797,128,0,22880:0:0:0:0:
320,192,22963,128,0,23047:0:0:0:0:
448,192,22963,128,0,23047:0:0:0:0:
192,192,22963,128,0,23047:0:0:0:0:
64,192,23130,128,0,23214:0:0:0:0:
320,192,23130,128,0,23214:0:0:0:0:
448,192,23130,128,0,23214:0:0:0:0:
192,192,23130,128,0,23214:0:0:0:0:
448,192,23464,128,0,23547:0:0:0:0:
320,192,23464,128,0,23547:0:0:0:0:
64,192,23464,128,0,23547:0:0:0:0:
448,192,23630,128,0,23880:0:0:0:0:
320,192,23630,128,0,23880:0:0:0:0:
192,192,23630,128,0,23880:0:0:0:0:
64,192,23630,128,0,23880:0:0:0:0:
64,192,23964,1,0,0:0:0:0:
192,192,23964,1,0,0:0:0:0:
320,192,23964,1,0,0:0:0:0:
448,192,23964,1,0,0:0:0:0:
448,192,24130,1,0,0:0:0:0:
320,192,24130,1,0,0:0:0:0:
192,192,24130,1,0,0:0:0:0:
64,192,24297,1,0,0:0:0:0:
320,192,24297,1,0,0:0:0:0:
448,192,24297,1,0,0:0:0:0:
64,192,24464,1,0,0:0:0:0:
192,192,24464,1,0,0:0:0:0:
448,192,24464,1,0,0:0:0:0:
448,192,24631,1,0,0:0:0:0:
320,192,24631,1,0,0:0:0:0:
192,192,24631,1,0,0:0:0:0:
64,192,24631,1,0,0:0:0:0:
448,192,24797,1,0,0:0:0:0:
320,192,24797,1,0,0:0:0:0:
64,192,24797,1,0,0:0:0:0:
64,192,24964,1,0,0:0:0:0:
192,192,24964,1,0,0:0:0:0:
448,192,24964,1,0,0:0:0:0:
448,192,25131,1,0,0:0:0:0:
192,192,25131,1,0,0:0:0:0:
320,192,25131,1,0,0:0:0:0:
64,192,25297,1,0,0:0:0:0:
192,192,25297,1,0,0:0:0:0:
320,192,25297,1,0,0:0:0:0:
448,192,25297,1,0,0:0:0:0:
64,192,25464,1,0,0:0:0:0:
192,192,25464,1,0,0:0:0:0:
448,192,25464,1,0,0:0:0:0:
448,192,25631,1,0,0:0:0:0:
320,192,25631,1,0,0:0:0:0:
192,192,25631,1,0,0:0:0:0:
64,192,25798,1,0,0:0:0:0:
320,192,25798,1,0,0:0:0:0:
192,192,25798,1,0,0:0:0:0:
320,192,25964,1,0,0:0:0:0:
192,192,25964,1,0,0:0:0:0:
64,192,25964,1,0,0:0:0:0:
448,192,25964,1,0,0:0:0:0:
448,192,26131,1,0,0:0:0:0:
320,192,26131,1,0,0:0:0:0:
192,192,26131,1,0,0:0:0:0:
64,192,26298,1,0,0:0:0:0:
192,192,26298,1,0,0:0:0:0:
320,192,26298,1,0,0:0:0:0:
448,192,26298,1,0,0:0:0:0:
64,192,26464,1,0,0:0:0:0:
192,192,26464,1,0,0:0:0:0:
448,192,26464,1,0,0:0:0:0:
448,192,26631,1,0,0:0:0:0:
320,192,26631,1,0,0:0:0:0:
64,192,26631,1,0,0:0:0:0:
192,192,26631,1,0,0:0:0:0:
448,192,26798,1,0,0:0:0:0:
320,192,26798,1,0,0:0:0:0:
64,192,26798,1,0,0:0:0:0:
64,192,26965,1,0,0:0:0:0:
192,192,26965,1,0,0:0:0:0:
448,192,26965,1,0,0:0:0:0:
320,192,27131,1,0,0:0:0:0:
192,192,27131,1,0,0:0:0:0:
64,192,27131,1,0,0:0:0:0:
64,192,27298,1,0,0:0:0:0:
192,192,27298,1,0,0:0:0:0:
320,192,27298,1,0,0:0:0:0:
448,192,27298,1,0,0:0:0:0:
448,192,27465,1,0,0:0:0:0:
192,192,27465,1,0,0:0:0:0:
320,192,27465,1,0,0:0:0:0:
64,192,27631,1,0,0:0:0:0:
320,192,27631,1,0,0:0:0:0:
448,192,27631,1,0,0:0:0:0:
320,192,27798,1,0,0:0:0:0:
192,192,27798,1,0,0:0:0:0:
64,192,27798,1,0,0:0:0:0:
448,192,27965,1,0,0:0:0:0:
320,192,27965,1,0,0:0:0:0:
192,192,27965,1,0,0:0:0:0:
64,192,27965,1,0,0:0:0:0:
448,192,28132,1,0,0:0:0:0:
320,192,28132,1,0,0:0:0:0:
64,192,28132,1,0,0:0:0:0:
320,192,28298,1,0,0:0:0:0:
448,192,28298,1,0,0:0:0:0:
192,192,28298,1,0,0:0:0:0:
64,192,28465,1,0,0:0:0:0:
192,192,28465,1,0,0:0:0:0:
448,192,28465,1,0,0:0:0:0:
64,192,28632,1,0,0:0:0:0:
192,192,28632,1,0,0:0:0:0:
320,192,28632,1,0,0:0:0:0:
448,192,28632,1,0,0:0:0:0:
448,192,28798,1,0,0:0:0:0:
320,192,28798,1,0,0:0:0:0:
64,192,28798,1,0,0:0:0:0:
64,192,28965,1,0,0:0:0:0:
192,192,28965,1,0,0:0:0:0:
320,192,28965,1,0,0:0:0:0:
448,192,29132,1,0,0:0:0:0:
320,192,29132,1,0,0:0:0:0:
64,192,29132,1,0,0:0:0:0:
448,192,29299,1,0,0:0:0:0:
320,192,29299,1,0,0:0:0:0:
192,192,29299,1,0,0:0:0:0:
64,192,29299,1,0,0:0:0:0:
448,192,29465,1,0,0:0:0:0:
320,192,29465,1,0,0:0:0:0:
192,192,29465,1,0,0:0:0:0:
64,192,29632,1,0,0:0:0:0:
192,192,29632,1,0,0:0:0:0:
448,192,29632,1,0,0:0:0:0:
192,192,29799,1,0,0:0:0:0:
320,192,29799,1,0,0:0:0:0:
448,192,29799,1,0,0:0:0:0:
64,192,29965,1,0,0:0:0:0:
192,192,29965,1,0,0:0:0:0:
320,192,29965,1,0,0:0:0:0:
448,192,29965,1,0,0:0:0:0:
448,192,30132,1,0,0:0:0:0:
320,192,30132,1,0,0:0:0:0:
64,192,30132,1,0,0:0:0:0:
64,192,30299,1,0,0:0:0:0:
192,192,30299,1,0,0:0:0:0:
320,192,30299,1,0,0:0:0:0:
448,192,30466,1,0,0:0:0:0:
320,192,30466,1,0,0:0:0:0:
64,192,30466,1,0,0:0:0:0:
448,192,30632,1,0,0:0:0:0:
320,192,30632,1,0,0:0:0:0:
192,192,30632,1,0,0:0:0:0:
64,192,30632,1,0,0:0:0:0:
64,192,30799,1,0,0:0:0:0:
192,192,30799,1,0,0:0:0:0:
320,192,30799,1,0,0:0:0:0:
448,192,30966,1,0,0:0:0:0:
320,192,30966,1,0,0:0:0:0:
64,192,30966,1,0,0:0:0:0:
64,192,31132,1,0,0:0:0:0:
192,192,31132,1,0,0:0:0:0:
320,192,31132,1,0,0:0:0:0:
448,192,31299,1,0,0:0:0:0:
320,192,31299,1,0,0:0:0:0:
192,192,31299,1,0,0:0:0:0:
64,192,31299,1,0,0:0:0:0:
448,192,31466,1,0,0:0:0:0:
320,192,31466,1,0,0:0:0:0:
64,192,31466,1,0,0:0:0:0:
64,192,31633,1,0,0:0:0:0:
192,192,31633,1,0,0:0:0:0:
320,192,31633,1,0,0:0:0:0:
448,192,31799,1,0,0:0:0:0:
320,192,31799,1,0,0:0:0:0:
192,192,31799,1,0,0:0:0:0:
64,192,31966,1,0,0:0:0:0:
192,192,31966,1,0,0:0:0:0:
320,192,31966,1,0,0:0:0:0:
448,192,31966,1,0,0:0:0:0:
64,192,32133,1,0,0:0:0:0:
192,192,32133,1,0,0:0:0:0:
448,192,32133,1,0,0:0:0:0:
448,192,32299,1,0,0:0:0:0:
320,192,32299,1,0,0:0:0:0:
192,192,32299,1,0,0:0:0:0:
64,192,32466,1,0,0:0:0:0:
192,192,32466,1,0,0:0:0:0:
320,192,32466,1,0,0:0:0:0:
448,192,32633,1,0,0:0:0:0:
320,192,32633,1,0,0:0:0:0:
192,192,32633,1,0,0:0:0:0:
64,192,32633,1,0,0:0:0:0:
448,192,32800,1,0,0:0:0:0:
320,192,32800,1,0,0:0:0:0:
64,192,32800,1,0,0:0:0:0:
64,192,32966,1,0,0:0:0:0:
192,192,32966,1,0,0:0:0:0:
320,192,32966,1,0,0:0:0:0:
448,192,33133,1,0,0:0:0:0:
320,192,33133,1,0,0:0:0:0:
192,192,33133,1,0,0:0:0:0:
64,192,33300,1,0,0:0:0:0:
192,192,33300,1,0,0:0:0:0:
448,192,33300,1,0,0:0:0:0:
320,192,33300,1,0,0:0:0:0:
448,192,33466,128,0,33550:0:0:0:0:
320,192,33466,128,0,33550:0:0:0:0:
64,192,33466,128,0,33550:0:0:0:0:
192,192,33633,128,0,33716:0:0:0:0:
320,192,33633,128,0,33716:0:0:0:0:
448,192,33633,128,0,33716:0:0:0:0:
448,192,33800,128,0,33883:0:0:0:0:
320,192,33800,128,0,33883:0:0:0:0:
192,192,33800,128,0,33883:0:0:0:0:
64,192,33800,128,0,33883:0:0:0:0:
448,192,33967,1,0,0:0:0:0:
320,192,33967,1,0,0:0:0:0:
192,192,33967,1,0,0:0:0:0:
64,192,33967,1,0,0:0:0:0:
448,192,34133,128,0,34217:0:0:0:0:
320,192,34133,128,0,34217:0:0:0:0:
64,192,34133,128,0,34217:0:0:0:0:
448,192,34300,128,0,34383:0:0:0:0:
320,192,34300,128,0,34383:0:0:0:0:
192,192,34300,128,0,34383:0:0:0:0:
64,192,34633,128,0,34925:0:0:0:0:
448,192,34925,128,0,35217:0:0:0:0:
