osu file format v14

[General]
AudioFilename: audio.mp3
AudioLeadIn: 0
PreviewTime: 156735
Countdown: 0
SampleSet: Soft
StackLeniency: 0.7
Mode: 0
LetterboxInBreaks: 0
WidescreenStoryboard: 1

[Editor]
Bookmarks: 9274,185903,186013,186234,186345,186455,186565,186676,186897,187007,187117,187228,187338,187448,187559,187642,187669,187780,187835,187890,188000,188111,188221,188332,188387,188552,188580,188746,188773,188828,188884,188911,188994,189077,189104,189215,189270,189325,189436,189546,189656,189767,189877,189988,190098,190208,190429,190539,190650,190871,190981,191091,191202,191312,191423,191533,191643,191754,191864,192085,192306,192416,192527,192637,192747,192858,192968,193079,193189,193299,193520,193631,193741,193851,193962,194072,194182,194293,194403,194514,194624,194734,194845,194955,195066,195176,195286,195397,195507,195618,195728,195838,195949,196059,196170,196280,196390,196501,196611,196722,196832,196942,197053,197163,197273,197384,197494,228625,228736,228846,228956,229067,229177,229287,229398,229508,229619,229729,229839,229950,230060,230171,230281,230391,230502,230612,230723,230833,230943,231054,231164,231275,231385,231495,231606,231716,231827,231854,231937,232047,232103,232158,232268,232323,232379,232489,232544,232710,232765,232930,233151,233262,233372,233482,233538,233593,233703,233758,233814,233924,234034,234117,234145,234255,234310,234366,234476,234586,234697,234862,235028,235056,235138,235249,235359,235414,235470,235580,235690,235773,235801,235911,235939,236132,236242,236297,236353,236518,236573,236684,236739,236794,236905,237015,237125,237236,237319,237346,237457,237512,237567,237677,237705,237788,237898,237926,238119,238340,238450,238561,238671,238781,238892,239002,239112,239223,239333,239444,239554,239664,239775,239885,239996,240106,240216,240437,240548,240768,240879,240989,241100,241210,241320,241431,241541,241652,241762,241872,241983,242093,242203,242314,242424
DistanceSpacing: 1.4
BeatDivisor: 2
GridSize: 32
TimelineZoom: 1.6

[Metadata]
Title:webgirl
TitleUnicode:webgirl
Artist:Zemfira
ArtistUnicode:Земфира
Creator:dopaminos
Version:collab hyper
Source:
Tags:russian pop rock четырнадцать 14 недель тишины alexandrine supav zемфира
BeatmapID:4332361
BeatmapSetID:2053621

[Difficulty]
HPDrainRate:4
CircleSize:3.6
OverallDifficulty:6
ApproachRate:7
SliderMultiplier:1.38
SliderTickRate:1

[Events]
//Background and Video events
0,0,"bg.jpg",0,0
Video,-2060,"webgirl (1).avi"
//Break Periods
2,186103,196925
//Storyboard Layer 0 (Background)
//Storyboard Layer 1 (Fail)
//Storyboard Layer 2 (Pass)
//Storyboard Layer 3 (Foreground)
//Storyboard Layer 4 (Overlay)
//Storyboard Sound Samples

[TimingPoints]
443,441.572587173788,4,2,22,62,1,0
9274,-166.666666666667,4,2,22,62,0,0
16339,-142.857142857143,4,2,22,62,0,0
72860,-125,4,2,22,62,0,0
101121,-111.111111111111,4,2,22,62,0,0
125849,-125,4,2,22,62,0,0
157642,-100,4,2,22,62,0,0
200033,-117.647058823529,4,2,22,62,0,0
214164,-90.9090909090909,4,2,22,62,0,0
215709,-100,4,2,22,62,0,0
218138,-90.9090909090909,4,2,22,62,0,0
219242,-100,4,2,22,62,0,0
221891,-90.9090909090909,4,2,22,62,0,0
222774,-100,4,2,22,62,0,0
225203,-90.9090909090909,4,2,22,62,0,0
228515,-166.666666666667,4,2,22,5,0,0

[Colours]
Combo1 : 200,151,183
Combo2 : 255,128,64
Combo3 : 242,205,77
Combo4 : 255,130,130

[HitObjects]
122,132,9274,6,0,B|94:226|171:195|143:288,3,165.599994946289,6|2|0|2,0:2|0:2|0:0|0:2,0:0:0:0:
257,384,12365,1,0,0:2:0:0:
373,290,12807,2,0,B|345:195|422:226|394:133,3,165.599994946289,2|2|0|2,0:3|0:2|0:0|0:2,0:0:0:0:
255,83,15898,1,0,0:0:0:0:
112,180,16339,5,2,0:2:0:0:
112,180,16560,1,2,0:2:0:0:
36,137,16781,2,0,P|12:99|22:45,1,96.599997052002,2|2,0:2|0:2,0:0:0:0:
190,5,17664,1,2,0:2:0:0:
190,5,17885,2,0,P|194:31|209:118,1,96.599997052002,2|2,0:2|0:2,0:0:0:0:
311,238,18768,2,0,B|393:213|368:255|464:228,1,144.899995578003,2|2,0:2|0:2,0:0:0:0:
510,296,19651,1,2,0:2:0:0:
456,364,19872,6,0,P|408:372|361:381,1,96.599997052002,2|2,0:2|0:2,0:0:0:0:
278,381,20534,1,2,0:2:0:0:
278,381,20755,1,2,0:2:0:0:
137,288,21196,1,2,0:2:0:0:
137,288,21417,2,0,P|113:252|120:196,1,96.599997052002,2|2,0:2|0:2,0:0:0:0:
274,125,22300,2,0,B|355:145|336:103|416:128,1,144.899995578003,2|2,0:2|0:2,0:0:0:0:
490,83,23183,1,0,0:2:0:0:
434,15,23404,6,0,P|388:7|328:-4,1,96.599997052002,2|2,0:2|0:2,0:0:0:0:
269,51,24067,1,2,0:2:0:0:
95,46,24508,2,0,P|91:18|87:-11,2,48.299998526001,0|2|2,0:2|0:2|0:2,0:0:0:0:
21,90,25171,1,0,0:0:0:0:
21,90,25391,2,0,P|8:133|32:186,1,96.599997052002,2|2,0:2|0:2,0:0:0:0:
1,352,26274,2,0,P|55:361|117:373,1,96.599997052002,2|2,0:2|0:2,0:0:0:0:
182,382,26937,6,0,B|207:300|165:325|192:229,1,144.899995578003,2|2,0:2|0:2,0:0:0:0:
258,188,27820,2,0,B|340:163|315:205|411:178,1,144.899995578003,2|0,0:2|0:0,0:0:0:0:
487,180,28703,2,0,B|462:98|504:123|479:37,1,144.899995578003,2|0,0:2|0:0,0:0:0:0:
400,2,29586,1,2,0:2:0:0:
255,320,30469,5,2,0:2:0:0:
255,320,30690,1,2,0:2:0:0:
322,375,30911,2,0,P|364:356|429:370,1,96.599997052002,2|2,0:2|0:2,0:0:0:0:
510,119,32015,2,0,L|498:63,1,48.299998526001,2|2,0:2|0:2,0:0:0:0:
442,5,32457,1,2,0:2:0:0:
302,108,32898,2,0,B|223:88|246:138|160:115,1,144.899995578003,2|2,0:2|0:2,0:0:0:0:
95,172,33781,1,2,0:2:0:0:
15,136,34002,6,0,P|-5:100|5:40,1,96.599997052002,2|2,0:2|0:2,0:0:0:0:
78,3,34664,1,2,0:2:0:0:
78,3,34885,1,2,0:2:0:0:
245,67,35327,1,2,0:2:0:0:
245,67,35548,2,0,L|236:132,1,48.299998526001,2|0,0:2|0:0,0:0:0:0:
283,189,35989,2,0,B|393:161|355:230|481:196,1,193.199994104004,2|0,0:2|0:0,0:0:0:0:
511,281,37093,1,2,0:2:0:0:
511,281,37314,1,2,0:2:0:0:
454,346,37535,6,0,P|405:353|352:321,1,96.599997052002,2|2,0:2|0:2,0:0:0:0:
295,278,38197,1,0,0:0:0:0:
131,336,38639,2,0,L|141:403,2,48.299998526001,0|2|2,0:0|0:2|0:2,0:0:0:0:
58,297,39301,1,0,0:0:0:0:
58,297,39522,2,0,P|36:258|45:197,1,96.599997052002,2|2,0:2|0:2,0:0:0:0:
187,115,40405,2,0,P|195:163|203:223,1,96.599997052002,2|2,0:2|0:2,0:0:0:0:
283,240,41067,6,0,B|389:213|361:281|477:253,1,193.199994104004,2|2,0:2|0:2,0:0:0:0:
509,85,42392,2,0,L|497:21,1,48.299998526001,2|2,0:2|0:2,0:0:0:0:
423,9,42833,1,2,0:2:0:0:
423,9,43054,2,0,P|363:49|283:27,1,144.899995578003,0|2,0:0|0:2,0:0:0:0:
124,3,44158,1,2,0:2:0:0:
124,3,44379,1,2,0:2:0:0:
53,54,44600,6,0,B|100:219|6:163|61:351,1,289.799991156006,6|0,3:2|0:0,0:0:0:0:
133,380,46145,1,2,3:2:0:0:
205,331,46366,2,0,P|223:290|200:225,1,96.599997052002,2|2,3:2|0:2,0:0:0:0:
170,170,47028,1,2,0:2:0:0:
170,170,47249,2,0,P|152:129|175:64,1,96.599997052002,2|2,0:2|0:2,0:0:0:0:
317,0,48132,6,0,B|270:165|364:109|309:297,1,289.799991156006,2|0,3:2|0:0,0:0:0:0:
362,354,49677,1,2,3:2:0:0:
440,317,49898,2,0,P|457:278|434:213,1,96.599997052002,2|0,3:2|0:0,0:0:0:0:
412,152,50560,1,2,0:2:0:0:
412,152,50781,2,0,P|394:111|417:46,1,96.599997052002,2|2,0:2|0:2,0:0:0:0:
241,0,51665,6,0,P|235:42|224:114,1,96.599997052002,2|2,3:2|0:2,0:0:0:0:
274,168,52327,1,2,0:2:0:0:
196,324,52769,1,2,0:2:0:0:
27,305,53210,1,2,3:2:0:0:
27,305,53431,2,0,P|-1:250|15:201,1,96.599997052002,2|2,3:2|0:2,0:0:0:0:
58,148,54094,2,0,P|67:104|39:51,1,96.599997052002,2|0,0:2|0:0,0:0:0:0:
114,3,54756,1,2,0:2:0:0:
114,3,54977,1,2,0:2:0:0:
191,42,55198,6,0,P|197:84|208:156,1,96.599997052002,2|2,3:2|0:2,0:0:0:0:
178,220,55860,1,2,0:2:0:0:
303,339,56301,2,0,P|356:349|405:322,1,96.599997052002,2|2,0:2|3:2,0:0:0:0:
466,284,56964,1,2,3:2:0:0:
466,284,57185,1,2,0:2:0:0:
510,116,57626,2,0,P|502:68|495:20,1,96.599997052002,2|0,0:2|0:0,0:0:0:0:
410,1,58289,1,0,0:0:0:0:
243,51,58730,6,0,B|196:216|290:160|235:348,1,289.799991156006,2|0,3:2|0:0,0:0:0:0:
165,382,60275,1,2,3:2:0:0:
86,344,60496,2,0,P|68:303|91:238,1,96.599997052002,2|0,3:2|0:0,0:0:0:0:
111,175,61158,1,2,0:2:0:0:
111,175,61379,2,0,P|129:134|106:69,1,96.599997052002,2|2,0:2|0:2,0:0:0:0:
270,0,62262,6,0,B|317:165|223:109|278:297,1,289.799991156006,2|0,3:2|0:0,0:0:0:0:
324,354,63807,1,2,3:2:0:0:
408,331,64028,2,0,P|425:292|402:227,1,96.599997052002,2|2,3:2|0:2,0:0:0:0:
366,173,64690,1,2,0:2:0:0:
366,173,64911,2,0,P|348:132|371:67,1,96.599997052002,2|2,0:2|0:2,0:0:0:0:
512,0,65795,6,0,P|506:42|495:114,1,96.599997052002,2|2,3:2|0:2,0:0:0:0:
510,181,66457,1,2,0:2:0:0:
391,308,66899,1,2,0:2:0:0:
260,201,67341,1,2,3:2:0:0:
260,201,67561,2,0,P|211:194|164:229,1,96.599997052002,0|0,3:0|0:0,0:0:0:0:
124,290,68224,2,0,P|80:299|27:271,1,96.599997052002,2|0,0:2|0:0,0:0:0:0:
4,202,68886,1,2,0:2:0:0:
4,202,69107,1,2,0:2:0:0:
60,135,69328,6,0,P|52:87|45:39,1,96.599997052002,2|2,3:2|0:2,0:0:0:0:
125,5,69990,1,2,0:2:0:0:
382,50,70653,2,0,L|447:39,1,48.299998526001,2|2,0:2|3:2,0:0:0:0:
506,92,71094,1,0,0:0:0:0:
506,92,71315,1,2,0:2:0:0:
444,254,71756,2,0,P|403:274|350:261,1,96.599997052002,2|2,3:2|0:2,0:0:0:0:
274,229,72419,2,0,L|215:238,1,48.299998526001,0|2,0:0|0:2,0:0:0:0:
160,294,72860,5,2,3:2:0:0:
160,294,73081,1,2,0:2:0:0:
77,261,73302,2,0,P|48:224|56:148,1,110.4,2|10,0:0|0:2,0:0:0:0:
128,6,74185,1,2,0:2:0:0:
128,6,74406,1,2,3:2:0:0:
274,103,74847,1,2,0:2:0:0:
163,241,75289,1,2,0:2:0:0:
163,241,75510,2,0,P|172:285|186:368,1,110.4,10|2,0:2|0:2,0:0:0:0:
264,383,76172,1,2,0:2:0:0:
337,333,76393,6,0,P|394:341|446:307,1,110.4,2|2,3:2|0:2,0:0:0:0:
504,257,77055,1,2,0:2:0:0:
504,257,77276,1,10,0:2:0:0:
379,139,77717,1,2,0:2:0:0:
379,139,77938,1,2,3:2:0:0:
244,253,78380,1,2,0:2:0:0:
83,192,78822,1,2,0:2:0:0:
83,192,79042,2,0,P|50:142|61:84,1,110.4,10|2,0:2|0:2,0:0:0:0:
107,22,79704,1,2,0:2:0:0:
195,53,79926,5,2,3:2:0:0:
195,53,80146,2,0,P|241:45|305:34,1,110.4,2|2,0:2|0:2,0:0:0:0:
386,2,80809,1,10,0:2:0:0:
455,56,81029,2,0,P|487:61|516:66,2,55.2,2|2|2,0:2|0:2|3:2,0:0:0:0:
404,130,81692,1,0,3:0:0:0:
404,130,81912,2,0,P|385:181|413:245,1,110.4,2|2,0:2|0:2,0:0:0:0:
456,301,82575,1,10,0:2:0:0:
396,365,82795,2,0,P|342:374|269:388,1,110.4,2|2,0:0|0:2,0:0:0:0:
198,383,83458,6,0,B|170:285|233:325|201:211,1,165.6,2|2,3:2|0:2,0:0:0:0:
274,168,84341,2,0,B|302:70|239:110|271:-4,1,165.6,10|2,0:2|3:2,0:0:0:0:
179,4,85224,2,0,B|178:110|129:55|128:156,1,165.6,2|2,3:2|0:2,0:0:0:0:
74,225,86108,2,0,P|84:273|97:345,1,110.4,10|2,0:2|0:2,0:0:0:0:
270,381,86991,5,2,3:2:0:0:
270,381,87212,1,2,0:2:0:0:
340,328,87433,2,0,P|357:278|332:204,1,110.4,2|10,0:2|0:2,0:0:0:0:
236,90,88316,1,2,0:2:0:0:
236,90,88537,1,2,3:2:0:0:
389,2,88978,1,2,0:2:0:0:
509,138,89420,1,2,0:2:0:0:
509,138,89641,2,0,P|500:182|486:265,1,110.4,10|2,0:2|0:2,0:0:0:0:
509,332,90303,1,2,0:2:0:0:
436,383,90524,6,0,P|388:357|334:366,1,110.4,2|2,3:2|0:2,0:0:0:0:
251,384,91186,1,2,0:2:0:0:
251,384,91407,1,10,0:2:0:0:
144,250,91848,1,2,0:2:0:0:
144,250,92069,1,2,3:2:0:0:
257,114,92511,1,2,0:2:0:0:
124,5,92953,1,2,0:2:0:0:
124,5,93173,2,0,P|70:0|26:32,1,110.4,10|2,0:2|0:2,0:0:0:0:
2,117,93835,1,2,0:2:0:0:
68,183,94057,5,2,3:2:0:0:
68,183,94277,2,0,P|114:175|178:164,1,110.4,2|2,0:2|0:2,0:0:0:0:
251,115,94940,1,8,0:0:0:0:
319,170,95160,2,0,P|314:202|309:231,2,55.2,2|2|2,0:2|0:2|3:2,0:0:0:0:
408,150,95823,1,0,3:0:0:0:
408,150,96043,2,0,P|432:100|408:35,1,110.4,2|2,0:2|0:2,0:0:0:0:
342,4,96706,1,10,0:2:0:0:
270,55,96926,2,0,P|215:44|161:35,1,110.4,2|2,0:2|0:2,0:0:0:0:
79,1,97589,6,0,B|46:116|131:90|95:228,1,220.8,2|10,3:2|0:2,0:0:0:0:
4,365,98913,1,2,0:2:0:0:
4,365,99134,2,0,P|54:354|111:392,1,110.4,2|2,3:2|0:2,0:0:0:0:
178,335,99796,2,0,P|183:302|189:264,1,55.2,2|2,3:2|0:2,0:0:0:0:
248,217,100238,1,10,0:2:0:0:
248,217,100459,1,2,3:2:0:0:
191,149,100679,2,0,P|184:117|173:77,1,55.2,2|2,0:3|0:2,0:0:0:0:
231,27,101121,5,6,3:2:0:0:
231,27,101342,1,2,0:2:0:0:
313,55,101563,2,0,P|380:24|448:47,1,124.199996209717,2|8,3:2|0:0,0:0:0:0:
510,186,102446,1,2,0:2:0:0:
463,259,102667,2,0,P|469:289|477:332,1,62.0999981048585,2|2,3:2|3:2,0:0:0:0:
399,363,103108,2,0,P|392:332|386:302,1,62.0999981048585,2|0,0:2|3:0,0:0:0:0:
329,235,103550,2,0,P|335:204|341:174,1,62.0999981048585,2|8,0:2|0:0,0:0:0:0:
401,111,103991,1,2,0:2:0:0:
401,111,104212,1,2,0:2:0:0:
269,4,104654,5,2,3:2:0:0:
269,4,104874,1,2,0:2:0:0:
208,66,105095,2,0,P|219:127|229:188,2,124.199996209717,2|10|2,3:2|0:2|0:2,0:0:0:0:
137,15,106199,2,0,P|106:8|75:3,1,62.0999981048585,2|2,3:2|3:2,0:0:0:0:
0,48,106641,2,0,P|6:78|11:109,1,62.0999981048585,2|0,0:2|3:0,0:0:0:0:
0,195,107082,2,0,P|51:229|127:208,1,124.199996209717,2|2,0:2|0:2,0:0:0:0:
183,171,107745,1,2,0:2:0:0:
330,272,108186,5,2,3:2:0:0:
330,272,108406,1,2,0:2:0:0:
281,344,108627,2,0,P|219:354|158:365,1,124.199996209717,2|10,3:2|0:2,0:0:0:0:
5,281,109511,1,2,0:2:0:0:
5,281,109731,2,0,P|11:250|16:219,1,62.0999981048585,2|0,3:2|3:0,0:0:0:0:
51,139,110173,2,0,P|46:108|39:77,1,62.0999981048585,2|0,0:2|3:0,0:0:0:0:
93,9,110615,1,2,0:2:0:0:
170,47,110836,2,0,P|223:17|283:26,1,124.199996209717,8|0,0:0|0:0,0:0:0:0:
459,4,111719,5,2,3:2:0:0:
459,4,111940,1,2,0:2:0:0:
511,72,112160,2,0,P|500:133|489:194,2,124.199996209717,2|8|2,3:2|0:0|0:2,0:0:0:0:
459,4,113264,2,0,P|426:10|388:16,1,62.0999981048585,2|2,3:2|3:2,0:0:0:0:
327,66,113706,2,0,P|294:60|256:54,1,62.0999981048585,2|0,0:0|3:0,0:0:0:0:
192,8,114147,1,2,0:2:0:0:
40,90,114589,1,2,0:2:0:0:
40,90,114810,2,0,P|46:121|53:162,1,62.0999981048585,0|2,0:0|3:2,0:0:0:0:
87,230,115251,6,0,P|81:260|75:291,1,62.0999981048585,4|0,3:2|0:2,0:0:0:0:
105,373,115693,2,0,P|172:342|240:365,1,124.199996209717,2|10,3:2|0:2,0:0:0:0:
390,381,116576,1,2,0:2:0:0:
439,309,116797,2,0,P|433:278|427:248,1,62.0999981048585,2|2,3:2|3:2,0:0:0:0:
365,186,117238,2,0,P|372:155|378:125,1,62.0999981048585,2|0,0:2|3:0,0:0:0:0:
361,39,117680,2,0,P|392:25|434:31,1,62.0999981048585,2|10,0:2|0:2,0:0:0:0:
501,67,118121,1,2,0:2:0:0:
501,67,118342,1,2,0:2:0:0:
467,237,118784,6,0,P|473:268|480:309,1,62.0999981048585,2|2,3:2|0:2,0:0:0:0:
417,360,119225,2,0,P|367:326|297:344,2,124.199996209717,2|8|2,3:2|0:0|0:2,0:0:0:0:
478,298,120329,2,0,P|471:267|466:236,1,62.0999981048585,2|2,3:2|3:2,0:0:0:0:
500,156,120771,2,0,P|507:125|512:94,1,62.0999981048585,2|0,0:2|3:0,0:0:0:0:
449,33,121212,2,0,P|398:0|338:7,1,124.199996209717,2|2,0:2|0:0,0:0:0:0:
267,58,121875,1,2,0:0:0:0:
107,3,122316,5,2,3:2:0:0:
107,3,122536,1,2,0:2:0:0:
42,61,122757,2,0,P|53:119|65:189,1,124.199996209717,2|8,3:2|0:0,0:0:0:0:
197,304,123641,1,2,0:2:0:0:
197,304,123861,2,0,P|191:335|186:366,1,62.0999981048585,2|2,3:2|3:2,0:0:0:0:
100,381,124303,2,0,P|95:350|88:319,1,62.0999981048585,2|0,0:2|3:0,0:0:0:0:
24,260,124745,1,2,0:2:0:0:
64,183,124966,2,0,P|117:153|177:162,1,124.199996209717,8|0,0:0|0:0,0:0:0:0:
334,247,125849,5,6,3:2:0:0:
334,247,126070,1,0,0:0:0:0:
391,196,126290,2,0,P|380:135|369:74,1,110.4,0|2,0:0|0:2,0:0:0:0:
153,20,127395,1,2,0:2:0:0:
153,20,127615,2,0,P|125:66|134:120,1,110.4,2|2,0:2|0:2,0:0:0:0:
192,178,128278,1,0,0:0:0:0:
192,178,128498,2,0,P|219:224|210:278,1,110.4,2|0,0:2|0:0,0:0:0:0:
294,382,129382,5,2,3:2:0:0:
294,382,129603,1,2,0:2:0:0:
367,332,129824,2,0,P|427:342|490:352,1,110.4,2|8,0:0|0:0,0:0:0:0:
511,179,130707,1,2,0:2:0:0:
511,179,130927,2,0,P|481:174|441:166,1,55.2,2|2,3:2|3:2,0:0:0:0:
385,116,131369,2,0,P|357:121|330:125,1,55.2,2|0,2:2|0:0,0:0:0:0:
254,90,131811,1,2,3:2:0:0:
254,90,132032,2,0,P|221:125|234:197,1,110.4,10|2,0:2|0:2,0:0:0:0:
267,261,132694,1,2,0:2:0:0:
211,328,132914,6,0,P|156:337|102:345,1,110.4,2|2,3:2|0:2,0:0:0:0:
23,316,133577,1,0,3:0:0:0:
23,316,133798,1,8,0:0:0:0:
24,143,134239,1,2,0:2:0:0:
24,143,134460,2,0,P|18:112|12:82,1,55.2,2|2,0:2|3:2,0:0:0:0:
64,16,134902,2,0,P|94:21|123:26,1,55.2,2|0,0:2|0:0,0:0:0:0:
199,73,135344,1,2,3:2:0:0:
199,73,135564,2,0,P|229:67|320:54,1,110.4,10|2,0:2|0:2,0:0:0:0:
376,0,136226,1,2,3:2:0:0:
452,44,136447,6,0,P|479:94|467:152,1,110.4,2|2,3:2|0:2,0:0:0:0:
343,268,137331,1,8,0:0:0:0:
271,226,137551,1,0,0:0:0:0:
271,226,137772,2,0,P|241:232|203:236,1,55.2,2|2,0:2|3:2,0:0:0:0:
134,217,138214,1,2,3:2:0:0:
134,217,138434,2,0,P|104:263|117:328,1,110.4,2|2,0:2|3:2,0:0:0:0:
168,382,139097,1,8,0:0:0:0:
246,343,139317,2,0,P|300:353|354:362,1,110.4,2|2,0:2|0:2,0:0:0:0:
441,382,139980,6,0,B|469:284|406:324|438:210,1,165.6,2|2,3:2|3:2,0:0:0:0:
445,133,140863,2,0,B|347:105|387:168|273:136,1,165.6,10|2,0:2|0:2,0:0:0:0:
213,192,141746,2,0,B|115:220|155:157|41:189,1,165.6,2|0,3:2|3:0,0:0:0:0:
3,111,142630,2,0,P|-13:57|22:-4,1,110.4,10|0,0:2|0:0,0:0:0:0:
181,60,143513,5,6,3:2:0:0:
181,60,143734,1,2,0:2:0:0:
254,10,143955,2,0,P|308:19|362:27,1,110.4,2|8,0:2|0:0,0:0:0:0:
503,111,144838,1,2,0:2:0:0:
503,111,145058,2,0,P|475:115|448:120,1,55.2,2|2,3:2|3:2,0:0:0:0:
370,160,145499,2,0,P|342:155|315:150,1,55.2,2|0,0:2|0:0,0:0:0:0:
239,194,145942,1,2,3:2:0:0:
239,194,146161,2,0,P|207:233|216:300,1,110.4,10|2,0:2|0:2,0:0:0:0:
259,364,146825,1,2,0:2:0:0:
342,335,147046,6,0,P|348:280|359:226,1,110.4,2|2,3:2|0:2,0:0:0:0:
425,167,147708,1,2,3:2:0:0:
425,167,147929,1,10,0:2:0:0:
320,31,148370,1,2,0:2:0:0:
320,31,148590,2,0,P|289:36|264:42,1,55.2,2|2,3:2|3:2,0:0:0:0:
182,10,149032,2,0,P|151:4|126:-1,1,55.2,2|0,0:2|0:0,0:0:0:0:
49,38,149473,1,2,3:2:0:0:
49,38,149695,2,0,P|19:75|29:143,1,110.4,10|2,0:2|0:2,0:0:0:0:
77,205,150357,1,2,3:2:0:0:
155,164,150577,6,0,P|201:156|265:145,1,110.4,2|2,3:2|0:2,0:0:0:0:
434,96,151460,1,10,0:2:0:0:
492,168,151681,1,2,0:2:0:0:
492,168,151902,2,0,P|488:197|481:242,1,55.2,2|2,0:2|0:2,0:0:0:0:
512,311,152343,1,0,3:0:0:0:
512,311,152565,2,0,P|466:339|398:327,1,110.4,2|2,0:2|3:2,0:0:0:0:
333,376,153228,1,8,0:0:0:0:
267,316,153448,2,0,P|259:260|250:207,1,110.4,2|2,0:2|0:2,0:0:0:0:
299,133,154111,6,0,B|419:96|393:190|526:149,1,220.8,2|8,3:2|0:0,0:0:0:0:
422,1,155434,2,0,P|389:6|354:12,1,55.2,2|2,0:2|3:2,0:0:0:0:
288,46,155876,1,10,0:2:0:0:
288,46,156097,2,0,P|234:37|166:29,1,110.4,2|0,3:2|3:0,0:0:0:0:
95,1,156759,1,14,0:2:0:0:
25,55,156980,1,0,3:0:0:0:
73,135,157201,1,8,0:0:0:0:
73,135,157422,1,8,3:3:0:0:
160,114,157642,6,0,P|198:155|182:243,2,138,6|2|8,3:2|3:2|0:0,0:0:0:0:
214,42,158746,2,0,P|248:37|294:30,1,69,2|0,0:2|0:0,0:0:0:0:
367,1,159188,1,2,3:2:0:0:
436,65,159409,1,2,3:2:0:0:
436,65,159629,2,0,P|475:115|460:193,1,138,2|2,0:2|0:2,0:0:0:0:
412,258,160292,1,10,0:2:0:0:
252,188,160733,1,2,0:2:0:0:
252,188,160954,1,2,3:2:0:0:
172,228,161175,6,0,P|104:220|14:203,2,138,2|2|8,3:2|3:2|0:0,0:0:0:0:
222,301,162279,2,0,P|256:307|302:315,1,69,2|0,0:2|0:0,0:0:0:0:
354,375,162720,1,2,3:2:0:0:
438,340,162941,1,2,3:2:0:0:
438,340,163162,2,0,P|469:280|441:204,1,138,2|2,0:2|0:2,0:0:0:0:
397,142,163824,1,10,0:2:0:0:
232,215,164266,1,2,0:2:0:0:
232,215,164487,1,2,3:2:0:0:
148,181,164708,6,0,P|80:196|13:155,1,138,2|2,3:2|0:2,0:0:0:0:
1,78,165370,2,0,P|37:72|76:62,1,69,2|8,3:2|0:0,0:0:0:0:
134,3,165811,2,0,P|167:11|201:16,1,69,2|0,0:2|0:0,0:0:0:0:
290,0,166253,1,2,3:2:0:0:
354,62,166474,2,0,P|386:122|359:189,1,138,2|2,3:2|3:2,0:0:0:0:
285,227,167136,2,0,P|253:287|280:354,1,138,2|0,0:2|0:0,0:0:0:0:
363,383,167799,1,2,0:2:0:0:
363,383,168019,1,2,3:2:0:0:
437,332,168240,6,0,P|447:250|460:181,1,138,2|2,3:2|3:2,0:0:0:0:
509,122,168902,2,0,P|452:84|385:94,1,138,2|2,3:2|0:2,0:0:0:0:
231,0,169786,1,2,3:2:0:0:
161,55,170006,1,0,3:0:0:0:
161,55,170227,2,0,P|124:49|79:41,1,69,2|0,0:2|3:0,0:0:0:0:
7,72,170669,2,0,P|-14:121|28:210,1,138,2|0,0:2|3:0,0:0:0:0:
86,257,171331,1,2,0:0:0:0:
86,257,171552,1,0,0:0:0:0:
149,193,171773,6,0,P|217:181|285:171,2,138,6|2|8,3:2|0:2|0:0,0:0:0:0:
86,257,172877,2,0,P|74:294|95:340,1,69,2|0,0:2|0:0,0:0:0:0:
147,383,173319,1,2,0:2:0:0:
226,338,173540,1,2,3:2:0:0:
226,338,173760,2,0,P|294:348|362:359,1,138,2|2,0:2|0:2,0:0:0:0:
448,382,174422,1,10,0:2:0:0:
509,215,174864,1,2,0:2:0:0:
509,215,175085,1,0,0:0:0:0:
428,174,175306,6,0,P|405:95|443:36,2,138,2|2|8,3:2|3:2|0:0,0:0:0:0:
384,252,176410,2,0,P|350:246|316:240,1,69,2|0,0:2|0:0,0:0:0:0:
243,292,176851,1,2,3:2:0:0:
161,269,177072,1,2,3:2:0:0:
161,269,177292,2,0,P|131:208|148:143,1,138,2|2,0:2|0:2,0:0:0:0:
210,77,177955,1,10,0:2:0:0:
376,3,178397,1,0,0:0:0:0:
376,3,178618,1,0,0:0:0:0:
447,57,178839,6,0,P|460:128|475:210,1,138,2|2,3:2|3:2,0:0:0:0:
508,274,179500,1,10,0:0:0:0:
438,330,179721,1,0,3:0:0:0:
358,288,179942,2,0,P|319:296|276:308,1,69,2|0,0:2|0:0,0:0:0:0:
233,372,180384,1,2,3:2:0:0:
149,338,180605,2,0,P|84:329|-2:311,1,138,2|0,3:2|3:0,0:0:0:0:
1,226,181266,2,0,P|66:217|152:199,1,138,2|0,0:2|0:0,0:0:0:0:
201,139,181930,1,2,0:2:0:0:
201,139,182150,1,2,3:2:0:0:
281,172,182371,6,0,P|314:231|298:305,1,138,2|2,3:2|3:2,0:0:0:0:
352,373,183033,2,0,P|388:377|436:386,1,69,2|8,3:2|0:0,0:0:0:0:
509,380,183474,2,0,P|518:333|502:301,1,69,2|0,0:2|0:0,0:0:0:0:
455,243,183916,1,2,3:2:0:0:
510,72,184357,1,2,0:2:0:0:
344,1,184799,1,2,3:2:0:0:
344,1,185020,2,0,P|338:35|328:87,1,69,2|4,3:0|3:3,0:0:0:0:
271,135,185461,1,4,3:3:0:0:
104,68,185903,5,6,3:2:0:0:
256,192,197825,12,0,199592,0:0:0:0:
148,71,200033,6,0,P|164:129|178:196,1,117.30000223732,4|2,3:2|0:0,0:0:0:0:
189,278,200696,2,0,P|199:238|209:213,1,58.65000111866,2|8,3:2|0:0,0:0:0:0:
282,167,201137,1,2,0:0:0:0:
282,167,201358,1,0,0:0:0:0:
358,221,201579,2,0,B|415:209|403:188|467:178,1,117.30000223732,2|0,3:2|3:0,0:0:0:0:
503,264,202241,1,2,0:0:0:0:
503,264,202462,2,0,P|493:306|489:329,1,58.65000111866,2|8,3:2|0:0,0:0:0:0:
405,356,202904,1,2,0:0:0:0:
405,356,203124,2,0,P|393:313|386:295,1,58.65000111866,2|0,0:0|0:0,0:0:0:0:
290,257,203566,5,0,3:2:0:0:
114,323,204007,2,0,P|106:285|97:249,1,58.65000111866,2|2,3:2|0:0,0:0:0:0:
130,188,204449,2,0,P|136:153|145:118,1,58.65000111866,8|2,0:0|0:0,0:0:0:0:
78,78,204891,1,2,0:2:0:0:
151,20,205111,2,0,B|220:26|199:50|260:59,1,117.30000223732,2|0,3:2|3:0,0:0:0:0:
327,132,205774,1,2,3:2:0:0:
327,132,205995,1,2,0:0:0:0:
297,220,206215,6,0,L|286:284,1,58.65000111866,8|0,0:0|3:0,0:0:0:0:
215,297,206656,2,0,L|205:239,1,58.65000111866,2|0,0:0|0:0,0:0:0:0:
96,192,207098,6,0,P|128:131|179:126,1,117.30000223732,0|2,3:0|0:0,0:0:0:0:
256,164,207761,1,2,3:2:0:0:
180,220,207982,1,8,0:0:0:0:
326,304,208423,1,2,0:0:0:0:
326,304,208644,2,0,P|371:318|441:293,1,117.30000223732,2|2,3:2|3:2,0:0:0:0:
455,209,209306,1,2,0:0:0:0:
455,209,209527,1,2,3:2:0:0:
403,130,209748,6,0,L|420:68,1,58.65000111866,8|2,0:0|0:0,0:0:0:0:
345,14,210189,2,0,L|328:76,1,58.65000111866,2|2,0:2|0:0,0:0:0:0:
291,169,210631,5,0,3:0:0:0:
411,313,211073,1,2,0:0:0:0:
483,256,211293,1,2,0:0:0:0:
397,216,211514,2,0,B|332:234|358:250|284:273,1,117.30000223732,8|2,0:0|0:0,0:0:0:0:
231,340,212177,6,0,P|181:333|162:333,1,58.65000111866,2|0,0:0|3:0,0:0:0:0:
143,244,212618,2,0,P|172:242|201:236,1,58.65000111866,2|0,0:2|3:0,0:0:0:0:
259,178,213060,1,2,0:0:0:0:
199,106,213280,2,0,P|210:45|268:29,1,117.30000223732,8|0,0:0|0:0,0:0:0:0:
356,64,213943,1,2,0:0:0:0:
460,46,214164,5,4,3:2:0:0:
499,223,214605,1,2,0:0:0:0:
436,289,214826,2,0,P|388:281|356:279,1,75.9000023162842,2|8,3:2|0:0,0:0:0:0:
292,230,215268,2,0,P|254:236|216:239,1,75.9000023162842,2|2,0:0|0:0,0:0:0:0:
156,296,215709,2,0,B|74:288|95:326|19:320,1,138,0|0,3:0|3:0,0:0:0:0:
40,235,216371,5,2,0:0:0:0:
40,235,216592,2,0,L|19:155,1,69,2|8,3:2|0:0,0:0:0:0:
83,109,217034,1,0,0:0:0:0:
83,109,217255,2,0,L|104:29,1,69,2|0,0:0|0:0,0:0:0:0:
210,5,217696,5,0,3:0:0:0:
314,162,218138,1,2,0:0:0:0:
314,162,218359,2,0,P|302:211|299:253,1,75.9000023162842,2|8,3:2|0:0,0:0:0:0:
236,289,218800,1,2,0:0:0:0:
236,289,219021,1,2,0:0:0:0:
298,343,219242,2,0,B|376:323|345:304|422:285,1,138,2|2,3:2|3:2,0:0:0:0:
473,221,219904,6,0,L|464:138,2,69,2|2|8,0:2|0:0|0:2,0:0:0:0:
422,285,220566,1,2,3:2:0:0:
422,285,220787,2,0,L|435:365,1,69,2|0,0:0|0:0,0:0:0:0:
333,352,221229,6,0,P|281:318|203:334,1,138,0|2,3:0|0:0,0:0:0:0:
129,366,221891,1,2,3:2:0:0:
129,366,222112,2,0,L|39:352,2,75.9000023162842,8|2|2,0:0|0:0|0:0,0:0:0:0:
214,331,222774,2,0,B|207:251|238:266|227:194,1,138,2|2,3:2|3:2,0:0:0:0:
170,141,223437,1,2,0:0:0:0:
170,141,223657,2,0,L|86:153,1,69,2|8,3:2|0:0,0:0:0:0:
42,79,224099,1,2,0:0:0:0:
42,79,224319,2,0,L|126:67,1,69,2|0,0:0|0:0,0:0:0:0:
234,53,224761,5,0,3:0:0:0:
465,144,225203,1,2,0:0:0:0:
414,210,225424,1,2,3:2:0:0:
463,277,225645,2,0,L|450:358,1,75.9000023162842,8|0,0:2|0:0,0:0:0:0:
364,370,226086,5,2,0:0:0:0:
364,370,226307,2,0,L|283:357,1,75.9000023162842,2|0,3:2|3:0,2:0:0:0:
221,296,226748,2,0,L|146:308,1,75.9000023162842,2|0,0:0|3:0,2:0:0:0:
70,357,227190,5,2,0:0:0:0:
70,357,227411,2,0,P|34:269|47:207,1,151.800004632568,8|2,0:0|0:0,0:0:0:0:
101,120,228073,1,2,0:0:0:0:
44,58,228294,1,4,0:0:0:0:
256,192,228515,12,4,242424,0:0:0:0:
