osu file format v14

[General]
AudioFilename: audio.mp3
AudioLeadIn: 0
PreviewTime: 156735
Countdown: 0
SampleSet: Soft
StackLeniency: 0.2
Mode: 0
LetterboxInBreaks: 0
WidescreenStoryboard: 1

[Editor]
Bookmarks: 185903,186013,186234,186345,186455,186565,186676,186897,187007,187117,187228,187338,187448,187559,187642,187669,187780,187835,187890,188000,188111,188221,188332,188387,188552,188580,188746,188773,188828,188884,188911,188994,189077,189104,189215,189270,189325,189436,189546,189656,189767,189877,189988,190098,190208,190429,190539,190650,190871,190981,191091,191202,191312,191423,191533,191643,191754,191864,192085,192306,192416,192527,192637,192747,192858,192968,193079,193189,193299,193520,193631,193741,193851,193962,194072,194182,194293,194403,194514,194624,194734,194845,194955,195066,195176,195286,195397,195507,195618,195728,195838,195949,196059,196170,196280,196390,196501,196611,196722,196832,196942,197053,197163,197273,197384,197494,228625,228736,228846,228956,229067,229177,229287,229398,229508,229619,229729,229839,229950,230060,230171,230281,230391,230502,230612,230723,230833,230943,231054,231164,231275,231385,231495,231606,231716,231827,231854,231937,232047,232103,232158,232268,232323,232379,232489,232544,232710,232765,232930,233151,233262,233372,233482,233538,233593,233703,233758,233814,233924,234034,234117,234145,234255,234310,234366,234476,234586,234697,234862,235028,235056,235138,235249,235359,235414,235470,235580,235690,235773,235801,235911,235939,236132,236242,236297,236353,236518,236573,236684,236739,236794,236905,237015,237125,237236,237319,237346,237457,237512,237567,237677,237705,237788,237898,237926,238119,238340,238450,238561,238671,238781,238892,239002,239112,239223,239333,239444,239554,239664,239775,239885,239996,240106,240216,240437,240548,240768,240879,240989,241100,241210,241320,241431,241541,241652,241762,241872,241983,242093,242203,242314,242424
DistanceSpacing: 1.3
BeatDivisor: 16
GridSize: 32
TimelineZoom: 2.3

[Metadata]
Title:webgirl
TitleUnicode:webgirl
Artist:Zemfira
ArtistUnicode:Земфира
Creator:dopaminos
Version:collab another
Source:
Tags:russian pop rock четырнадцать 14 недель тишины alexandrine supav zемфира
BeatmapID:4289739
BeatmapSetID:2053621

[Difficulty]
HPDrainRate:5
CircleSize:4
OverallDifficulty:7
ApproachRate:8
SliderMultiplier:1.4
SliderTickRate:1

[Events]
//Background and Video events
0,0,"bg.jpg",0,0
Video,-2060,"webgirl (1).avi"
//Break Periods
2,186103,197075
//Storyboard Layer 0 (Background)
//Storyboard Layer 1 (Fail)
//Storyboard Layer 2 (Pass)
//Storyboard Layer 3 (Foreground)
//Storyboard Layer 4 (Overlay)
//Storyboard Sound Samples

[TimingPoints]
443,441.572587173788,4,2,22,62,1,0
8170,-100,4,2,22,42,0,0
9274,-151.515151515152,4,2,22,52,0,0
16339,-100,4,2,22,62,0,0
44600,-100,4,2,22,72,0,0
72860,-95.2380952380952,4,2,22,62,0,0
101121,-90.9090909090909,4,2,22,72,0,0
111719,-76.9230769230769,4,2,22,72,0,0
115251,-89.2857142857143,4,2,22,72,0,0
125849,-133.333333333333,4,2,22,62,0,0
129382,-95.2380952380952,4,2,22,62,0,0
155876,-86.9565217391304,4,2,22,62,0,0
157642,-84.0336134453781,4,2,22,72,0,0
199923,-151.515151515152,4,2,22,62,0,0
200033,-100,4,2,22,62,0,0
228404,-100,4,2,22,5,0,0

[Colours]
Combo1 : 200,151,183
Combo2 : 255,128,64
Combo3 : 242,205,77
Combo4 : 255,130,130

[HitObjects]
91,71,8170,5,2,2:0:0:0:
91,71,8391,2,0,P|88:106|91:144,1,70,2|0,0:2|0:0,0:0:0:0:
216,221,8832,2,0,P|218:186|215:151,1,70,0|2,0:2|0:0,0:0:0:0:
63,294,9274,2,0,B|162:267|159:323|246:308,3,184.799999436035,6|2|0|2,0:2|0:2|0:0|0:2,0:0:0:0:
243,309,12365,2,0,P|242:285|243:262,1,46.1999998590088,2|0,0:2|0:0,0:0:0:0:
375,137,12807,6,0,P|283:137|204:91,3,184.799999436035,2|2|0|2,0:2|0:2|0:0|0:2,0:0:0:0:
204,91,16339,1,2,0:2:0:0:
133,135,16560,1,2,0:2:0:0:
36,112,16781,2,0,P|40:183|37:253,1,140,2|2,0:2|0:2,0:0:0:0:
37,251,17664,1,2,0:2:0:0:
37,251,17885,2,0,L|113:242,1,70,2|0,0:2|0:0,0:0:0:0:
206,326,18326,2,0,L|136:317,1,70,2|0,0:2|0:0,0:0:0:0:
136,317,18768,5,2,0:2:0:0:
254,204,18989,2,0,P|314:242|401:251,1,140,2|2,0:2|0:2,0:0:0:0:
450,205,19651,1,2,0:2:0:0:
427,366,19872,5,2,0:2:0:0:
346,333,20092,1,2,0:2:0:0:
380,251,20313,1,2,0:2:0:0:
462,285,20533,1,2,0:2:0:0:
427,366,20755,1,2,0:2:0:0:
381,252,21196,5,2,0:2:0:0:
381,251,21417,2,0,P|380:207|382:174,1,70,2|0,0:2|0:0,0:0:0:0:
266,115,21859,2,0,P|267:149|266:184,1,70,2|0,0:2|0:0,0:0:0:0:
266,185,22300,1,2,0:2:0:0:
115,298,22521,2,0,P|179:274|247:285,1,140,2|2,0:2|0:2,0:0:0:0:
247,285,23183,1,0,0:2:0:0:
395,371,23404,6,0,L|474:360,1,70,2|0,0:2|0:0,0:0:0:0:
317,295,23846,2,0,L|238:284,1,70,2|2,0:2|0:2,0:0:0:0:
416,165,24287,1,2,0:2:0:0:
416,165,24508,2,0,P|413:208|416:240,1,70,0|2,0:2|0:2,0:0:0:0:
483,65,24950,2,0,B|416:83|416:83|343:64,2,140,2|2|2,0:2|0:2|0:2,0:0:0:0:
483,65,26054,1,2,0:2:0:0:
469,224,26274,2,0,P|420:173|355:150,1,140,2|2,0:2|0:2,0:0:0:0:
262,332,26937,6,0,P|248:263|267:197,1,140,2|2,0:2|0:2,0:0:0:0:
267,197,27599,1,2,0:2:0:0:
163,97,27820,2,0,L|140:22,2,70,2|0|2,0:2|0:0|0:2,0:0:0:0:
255,178,28703,2,0,B|328:166|327:196|395:186,1,140,2|0,0:2|0:0,0:0:0:0:
393,186,29366,1,0,0:0:0:0:
470,130,29586,2,0,P|454:186|445:279,1,140,2|0,0:2|0:0,0:0:0:0:
267,349,30249,5,2,0:2:0:0:
267,349,30359,1,0,0:0:0:0:
267,349,30469,1,2,0:2:0:0:
157,289,30690,1,2,0:2:0:0:
275,365,30911,2,0,P|309:362|345:366,1,70,2|0,0:2|0:0,0:0:0:0:
225,242,31353,2,0,P|155:249|85:243,1,140,2|2,0:2|0:2,0:0:0:0:
27,115,32015,5,2,0:2:0:0:
97,69,32236,1,2,0:2:0:0:
155,129,32457,2,0,P|151:165|154:201,1,70,2|2,0:2|0:2,0:0:0:0:
153,198,32898,1,2,0:2:0:0:
241,70,33119,2,0,P|175:28|103:40,1,140,2|2,0:2|0:2,0:0:0:0:
116,33,33781,1,2,0:2:0:0:
12,155,34002,6,0,L|97:142,1,70,2|0,0:2|0:0,0:0:0:0:
153,198,34444,2,0,L|222:208,1,70,2|2,0:2|0:2,0:0:0:0:
336,96,34885,1,2,0:2:0:0:
336,96,35327,5,2,0:2:0:0:
370,172,35548,2,0,P|327:175|289:166,1,70,2|0,0:2|0:0,0:0:0:0:
145,36,35989,2,0,P|140:106|144:176,1,140,2|2,0:2|0:2,0:0:0:0:
309,248,36651,2,0,P|312:178|307:108,1,140,2|2,0:2|0:2,0:0:0:0:
368,48,37314,1,2,0:2:0:0:
368,48,37535,2,0,L|441:63,1,70,2|0,0:2|0:0,0:0:0:0:
499,155,37976,2,0,L|430:169,1,70,2|0,0:2|0:0,0:0:0:0:
309,248,38418,6,0,P|386:262|436:328,1,140,2|2,0:2|0:2,0:0:0:0:
366,373,39080,2,0,L|213:354,2,140,2|2|2,0:2|0:2|0:2,0:0:0:0:
512,237,40184,5,2,0:2:0:0:
432,268,40405,2,0,P|428:199|430:129,1,140,2|2,0:2|0:2,0:0:0:0:
319,24,41067,2,0,B|253:51|253:51|189:23,1,140,2|0,0:2|0:0,0:0:0:0:
191,24,41730,5,2,0:2:0:0:
48,109,41950,2,0,P|50:72|47:38,2,70,2|0|2,0:2|0:0|0:2,0:0:0:0:
150,185,42613,5,2,0:2:0:0:
150,185,42723,1,0,0:0:0:0:
150,185,42833,2,0,P|218:170|279:202,1,140,2|0,0:2|0:0,0:0:0:0:
277,201,43496,1,2,0:2:0:0:
469,114,43717,6,0,P|401:99|340:131,1,140,2|2,0:2|0:2,0:0:0:0:
212,255,44379,1,2,0:2:0:0:
212,255,44489,1,0,0:0:0:0:
212,255,44600,6,0,L|230:116,1,140,6|2,3:2|0:2,0:0:0:0:
276,46,45262,1,0,0:0:0:0:
105,0,45483,1,2,0:2:0:0:
53,66,45704,2,0,P|50:124|54:209,1,140,2|2,0:2|3:2,0:0:0:0:
192,357,46366,5,2,3:2:0:0:
226,266,46587,1,2,0:2:0:0:
134,231,46808,1,2,0:2:0:0:
100,322,47029,1,2,0:2:0:0:
192,357,47249,2,0,P|270:353|340:356,1,140,2|2,0:2|0:2,0:0:0:0:
331,355,47912,1,2,0:2:0:0:
452,212,48132,6,0,P|391:207|322:159,1,140,2|2,3:2|0:2,0:0:0:0:
253,86,48795,1,2,0:0:0:0:
253,86,48905,1,0,0:0:0:0:
253,86,49015,1,2,0:2:0:0:
151,208,49236,2,0,P|171:276|177:352,1,140,2|2,0:2|3:2,0:0:0:0:
271,318,49899,6,0,P|256:362|250:393,1,70,2|2,3:2|0:2,0:0:0:0:
345,358,50340,1,0,0:0:0:0:
264,290,50561,1,2,0:2:0:0:
440,205,50782,2,0,P|435:280|438:353,1,140,2|2,0:2|0:2,0:0:0:0:
437,344,51444,1,2,0:2:0:0:
358,194,51665,6,0,B|290:220|290:220|225:197,1,140,2|2,3:2|0:2,0:0:0:0:
175,130,52327,1,2,0:2:0:0:
62,169,52548,1,2,0:2:0:0:
0,115,52769,2,0,P|-4:80|0:45,1,70,2|0,0:2|0:0,0:0:0:0:
74,7,53210,1,2,3:2:0:0:
166,204,53431,5,2,3:2:0:0:
200,113,53652,1,2,0:2:0:0:
108,78,53873,1,2,0:2:0:0:
74,169,54094,1,2,0:2:0:0:
166,204,54314,2,0,P|244:200|314:203,1,140,2|2,0:2|0:2,0:0:0:0:
305,202,54977,1,2,0:2:0:0:
442,95,55198,6,0,P|439:164|442:236,1,140,2|2,3:2|0:2,0:0:0:0:
441,234,55860,1,2,0:2:0:0:
338,302,56081,1,2,0:2:0:0:
235,244,56301,2,0,P|241:314|236:384,1,140,2|2,0:2|3:2,0:0:0:0:
83,357,56964,6,0,L|153:346,1,70,2|2,3:2|0:2,0:0:0:0:
235,244,57405,1,0,0:0:0:0:
316,284,57626,1,2,0:2:0:0:
444,238,57847,2,0,P|440:303|446:383,1,140,2|0,0:2|0:0,0:0:0:0:
445,377,58509,1,2,0:2:0:0:
246,322,58730,6,0,P|251:252|247:182,1,140,2|2,3:2|0:2,0:0:0:0:
247,182,59392,1,0,0:0:0:0:
106,59,59613,1,2,0:2:0:0:
199,22,59834,2,0,P|182:91|176:169,1,140,2|2,0:2|3:2,0:0:0:0:
59,223,60496,6,0,P|55:188|47:154,1,70,2|2,3:2|0:2,0:0:0:0:
123,270,60938,1,0,0:0:0:0:
210,243,61159,1,2,0:2:0:0:
91,305,61380,2,0,B|167:311|146:349|219:362,1,140,2|2,0:2|0:2,0:0:0:0:
216,361,62042,1,2,0:2:0:0:
309,237,62263,6,0,P|313:288|324:381,1,140,2|2,3:2|0:2,0:0:0:0:
323,376,62925,1,0,0:0:0:0:
484,285,63146,1,2,0:2:0:0:
484,285,63367,2,0,P|480:234|469:141,1,140,2|2,0:2|3:2,0:0:0:0:
338,56,64029,6,0,L|261:64,1,70,2|2,3:2|0:2,0:0:0:0:
230,138,64471,1,2,0:2:0:0:
280,204,64691,1,2,0:2:0:0:
161,350,64912,2,0,P|154:280|135:213,1,140,2|2,0:2|0:2,0:0:0:0:
40,98,65574,5,2,0:2:0:0:
40,98,65685,1,0,0:0:0:0:
40,98,65795,2,0,P|24:150|6:248,1,140,2|2,3:2|0:2,0:0:0:0:
71,288,66458,2,0,P|78:313|87:363,1,70,2|2,0:2|0:2,0:0:0:0:
192,384,66899,2,0,P|198:349|208:316,1,70,2|0,0:2|0:0,0:0:0:0:
230,280,67230,5,2,0:2:0:0:
230,280,67341,2,0,B|304:290|272:330|356:345,1,140,2|2,3:2|0:2,0:0:0:0:
458,307,68003,2,0,P|450:345|445:378,1,70,0|2,0:0|0:2,0:0:0:0:
359,225,68445,2,0,P|427:223|483:181,1,140,2|2,0:2|0:2,0:0:0:0:
483,181,69107,1,2,0:2:0:0:
324,297,69328,6,0,P|256:295|200:253,1,140,2|2,3:2|0:2,0:0:0:0:
150,196,69990,1,2,0:2:0:0:
275,108,70211,1,2,0:2:0:0:
190,92,70432,2,0,P|229:84|265:70,1,70,0|2,0:0|0:2,0:0:0:0:
426,213,70873,6,0,P|348:198|274:170,1,140,2|2,3:2|0:2,0:0:0:0:
291,177,71536,1,2,0:2:0:0:
220,252,71756,2,0,P|153:274|85:287,2,140,2|2|2,3:2|0:2|0:2,0:0:0:0:
372,286,72860,5,2,3:2:0:0:
447,261,73081,1,2,0:2:0:0:
512,317,73302,2,0,P|499:358|493:389,1,73.4999977569581,2|0,0:0|0:0,0:0:0:0:
368,338,73744,2,0,P|351:262|327:189,1,146.999995513916,10|2,0:2|0:2,0:0:0:0:
409,101,74406,2,0,P|442:119|480:121,1,73.4999977569581,2|0,3:2|3:0,0:0:0:0:
501,48,74847,2,0,P|469:29|432:28,1,73.4999977569581,2|0,0:2|0:0,0:0:0:0:
433,28,75289,1,2,0:2:0:0:
304,173,75510,6,0,B|218:159|246:121|162:112,1,146.999995513916,10|2,0:2|0:2,0:0:0:0:
173,114,76172,1,2,0:2:0:0:
65,251,76393,6,0,L|77:323,1,73.4999977569581,2|0,3:2|0:0,0:0:0:0:
156,308,76835,2,0,L|145:233,1,73.4999977569581,2|2,0:2|0:2,0:0:0:0:
44,171,77276,2,0,P|115:159|172:114,1,146.999995513916,10|2,0:2|0:2,0:0:0:0:
260,37,77938,6,0,P|302:61|333:69,1,73.4999977569581,2|0,3:2|3:0,0:0:0:0:
491,6,78380,2,0,P|459:25|425:36,1,73.4999977569581,2|0,0:2|3:0,0:0:0:0:
425,36,78822,1,2,0:2:0:0:
350,153,79042,2,0,P|458:177|490:223,1,146.999995513916,10|2,0:2|0:2,0:0:0:0:
478,200,79705,1,2,0:2:0:0:
378,313,79926,5,2,3:2:0:0:
274,229,80146,2,0,P|234:235|210:255,1,73.4999977569581,2|0,0:2|0:0,0:0:0:0:
209,255,80588,1,2,0:2:0:0:
79,378,80809,2,0,L|63:306,1,73.4999977569581,10|2,0:2|0:2,0:0:0:0:
0,179,81250,1,2,0:2:0:0:
0,179,81471,2,0,B|91:194|46:223|139:245,2,146.999995513916,2|2|2,3:2|0:2|0:2,0:0:0:0:
166,84,82575,1,10,0:2:0:0:
124,8,82796,2,0,P|186:45|258:41,1,146.999995513916,2|2,0:0|0:2,0:0:0:0:
291,15,83348,5,0,0:0:0:0:
291,15,83458,2,0,L|273:98,1,73.4999977569581,2|2,3:2|0:2,0:0:0:0:
410,134,83900,2,0,L|394:62,1,73.4999977569581,0|2,0:0|0:2,0:0:0:0:
335,190,84341,5,10,0:2:0:0:
335,189,84562,2,0,P|403:169|467:203,1,146.999995513916,2|2,0:2|3:2,0:0:0:0:
337,289,85224,2,0,P|269:269|205:303,1,146.999995513916,2|0,3:2|3:0,0:0:0:0:
204,303,85887,1,2,0:2:0:0:
404,378,86108,2,0,L|418:302,1,73.4999977569581,10|0,0:2|3:0,0:0:0:0:
481,221,86549,1,2,0:2:0:0:
433,154,86770,1,2,0:2:0:0:
490,20,86991,5,2,3:2:0:0:
386,82,87212,1,2,0:2:0:0:
274,6,87432,2,0,P|269:79|277:152,1,146.999995513916,2|10,0:2|0:2,0:0:0:0:
348,270,88095,1,0,0:0:0:0:
348,270,88205,1,0,0:0:0:0:
348,270,88315,1,2,0:2:0:0:
274,352,88536,6,0,P|237:354|197:352,1,73.4999977569581,2|0,3:2|3:0,0:0:0:0:
72,281,88978,2,0,P|109:283|149:281,1,73.4999977569581,2|0,0:2|0:0,0:0:0:0:
189,209,89419,1,2,0:2:0:0:
348,270,89640,2,0,P|347:196|341:123,1,146.999995513916,10|2,0:2|0:2,0:0:0:0:
341,123,90303,5,2,0:2:0:0:
440,18,90523,2,0,P|481:25|515:29,1,73.4999977569581,2|0,3:2|0:0,0:0:0:0:
414,112,90965,2,0,P|373:119|339:123,1,73.4999977569581,2|2,0:2|0:2,0:0:0:0:
484,211,91406,1,10,0:2:0:0:
484,211,91848,5,2,0:2:0:0:
368,274,92069,2,0,P|368:237|367:200,1,73.4999977569581,2|0,3:2|3:0,0:0:0:0:
213,100,92510,2,0,P|211:136|212:173,1,73.4999977569581,2|0,0:2|3:0,0:0:0:0:
212,173,92952,1,2,0:2:0:0:
313,343,93173,2,0,P|241:336|187:383,1,146.999995513916,10|2,0:2|0:2,0:0:0:0:
188,383,93835,1,2,0:2:0:0:
59,280,94056,5,2,3:2:0:0:
122,216,94277,2,0,P|159:219|196:220,1,73.4999977569581,2|0,0:2|0:0,0:0:0:0:
294,278,94718,2,0,P|294:241|298:204,1,73.4999977569581,2|8,0:2|0:0,0:0:0:0:
166,53,95160,1,2,0:2:0:0:
166,144,95381,1,2,0:2:0:0:
304,28,95601,6,0,P|350:38|383:40,1,73.4999977569581,2|0,3:2|3:0,0:0:0:0:
512,147,96043,2,0,P|437:144|382:208,1,146.999995513916,2|2,0:2|0:2,0:0:0:0:
463,299,96705,1,10,0:2:0:0:
463,299,96926,2,0,B|377:320|407:340|325:365,1,146.999995513916,2|2,0:2|0:2,0:0:0:0:
290,342,97478,5,0,0:0:0:0:
290,342,97588,1,2,3:2:0:0:
189,260,97809,2,0,P|185:297|184:335,1,73.4999977569581,2|0,0:2|0:0,0:0:0:0:
184,333,98251,1,2,0:2:0:0:
62,372,98472,2,0,P|61:333|55:300,1,73.4999977569581,10|2,0:2|0:2,0:0:0:0:
109,204,98913,1,2,0:2:0:0:
18,174,99134,6,0,P|93:159|166:111,1,146.999995513916,2|2,3:2|0:2,0:0:0:0:
152,123,99796,1,2,3:2:0:0:
239,156,100017,1,2,0:2:0:0:
380,92,100238,2,0,P|371:129|367:167,1,73.4999977569581,10|2,0:2|3:2,0:0:0:0:
260,381,100679,2,0,P|255:344|247:308,1,73.4999977569581,2|10,0:3|0:2,0:0:0:0:
196,238,101011,5,0,0:0:0:0:
196,238,101121,1,6,3:2:0:0:
61,343,101342,1,2,0:2:0:0:
0,158,101563,2,0,P|10:114|18:84,1,77.0000023498536,2|0,3:2|3:0,0:0:0:0:
107,220,102004,2,0,P|119:276|133:332,1,115.50000352478,8|0,0:0|0:0,0:0:0:0:
134,340,102446,1,2,0:2:0:0:
271,376,102667,6,0,P|308:375|335:348,1,77.0000023498536,2|2,3:2|3:2,0:0:0:0:
446,119,103108,2,0,P|443:159|412:184,1,77.0000023498536,2|0,0:2|3:0,0:0:0:0:
223,203,103550,2,0,P|235:232|282:238,1,77.0000023498536,2|8,0:2|0:0,0:0:0:0:
391,65,103991,1,2,0:2:0:0:
324,18,104212,6,0,P|267:35|209:48,1,115.50000352478,2|0,0:2|0:0,0:0:0:0:
190,77,104654,5,2,3:2:0:0:
252,195,104874,1,2,0:2:0:0:
205,281,105095,1,2,3:2:0:0:
267,337,105316,1,2,3:2:0:0:
240,374,105537,1,10,0:2:0:0:
240,374,105978,5,2,0:2:0:0:
339,316,106199,2,0,P|383:341|437:329,1,77.0000023498536,2|2,3:2|3:2,0:0:0:0:
290,208,106641,2,0,P|245:216|200:226,1,77.0000023498536,2|0,0:2|3:0,0:0:0:0:
112,344,107082,2,0,P|118:307|123:268,1,77.0000023498536,2|8,0:2|0:0,0:0:0:0:
74,181,107524,1,2,0:2:0:0:
143,124,107745,1,2,0:2:0:0:
88,19,107965,2,0,P|92:38|97:57,1,38.5000011749268,2|0,3:2|0:0,0:0:0:0:
290,178,108186,5,2,3:2:0:0:
273,74,108407,1,2,0:2:0:0:
282,178,108628,2,0,B|198:179|228:126|138:123,1,154.000004699707,2|10,3:2|0:2,0:0:0:0:
142,123,109511,5,2,0:2:0:0:
249,23,109732,2,0,P|279:31|326:35,1,77.0000023498536,2|0,3:2|3:0,0:0:0:0:
443,154,110173,2,0,P|404:156|367:166,1,77.0000023498536,2|0,0:2|3:0,0:0:0:0:
344,182,110615,1,2,0:2:0:0:
182,121,110836,5,8,0:0:0:0:
255,289,111056,2,0,P|257:246|263:208,1,77.0000023498536,2|0,0:2|0:0,0:0:0:0:
176,102,111498,1,2,3:2:0:0:
116,250,111719,6,0,P|72:263|27:266,2,90.9999958343508,2|2|2,3:2|0:2|3:2,0:0:0:0:
116,250,112381,1,0,3:0:0:0:
199,122,112602,6,0,P|279:142|369:152,1,136.499993751526,8|0,0:0|0:0,0:0:0:0:
369,172,113044,1,2,0:2:0:0:
277,281,113264,6,0,P|219:270|197:230,1,90.9999958343508,2|2,3:2|3:2,0:0:0:0:
390,348,113706,2,0,P|448:313|452:268,1,90.9999958343508,2|0,0:0|3:0,0:0:0:0:
341,178,114147,2,0,P|297:168|266:114,1,90.9999958343508,2|8,0:2|0:0,0:0:0:0:
419,5,114589,6,0,L|407:118,1,90.9999958343508,2|0,0:2|0:0,0:0:0:0:
301,177,115031,2,0,P|305:143|308:110,1,45.4999979171754,2|0,3:2|0:0,0:0:0:0:
392,244,115251,5,4,3:2:0:0:
234,282,115472,1,0,0:2:0:0:
403,212,115693,2,0,P|441:222|480:226,1,78.4000009570313,2|2,3:2|3:2,0:0:0:0:
339,330,116135,2,0,P|263:349|185:356,1,156.800001914063,10|2,0:2|0:2,0:0:0:0:
49,281,116797,6,0,P|50:241|56:203,1,78.4000009570313,2|2,3:2|3:2,0:0:0:0:
185,356,117238,2,0,P|183:316|177:278,1,78.4000009570313,2|0,0:2|3:0,0:0:0:0:
219,208,117680,1,2,0:2:0:0:
153,95,117901,1,10,0:2:0:0:
211,42,118122,1,2,0:2:0:0:
178,7,118342,2,0,L|101:23,1,78.4000009570313,2|2,0:2|3:2,0:0:0:0:
77,51,118674,5,2,0:2:0:0:
77,51,118784,1,2,3:2:0:0:
117,136,119005,1,2,0:2:0:0:
69,217,119226,2,0,P|74:263|78:304,1,78.4000009570313,2|2,3:2|3:2,0:0:0:0:
149,384,119667,2,0,P|83:343|6:337,1,156.800001914063,8|2,0:0|0:2,0:0:0:0:
171,211,120329,6,0,L|161:288,1,78.4000009570313,2|2,3:2|3:2,0:0:0:0:
250,166,120771,2,0,P|222:135|173:127,1,78.4000009570313,2|0,0:2|3:0,0:0:0:0:
117,153,121213,1,2,0:2:0:0:
2,120,121433,1,8,0:0:0:0:
177,92,121654,1,2,0:0:0:0:
72,8,121875,6,0,P|82:49|89:89,1,78.4000009570313,2|0,0:0|0:0,0:0:0:0:
336,2,122317,6,0,L|295:13,1,39.2000004785156,2|0,3:2|0:0,0:0:0:0:
226,33,122537,1,2,0:2:0:0:
308,149,122758,2,0,P|367:148|419:173,1,117.600001435547,2|0,3:2|0:0,0:0:0:0:
461,243,123200,1,8,0:0:0:0:
461,243,123641,5,2,0:2:0:0:
396,293,123862,2,0,P|403:338|406:375,1,78.4000009570313,2|2,3:2|3:2,0:0:0:0:
234,324,124304,2,0,P|237:285|244:247,1,78.4000009570313,2|0,0:2|3:0,0:0:0:0:
298,179,124745,1,2,0:2:0:0:
244,48,124966,1,8,0:0:0:0:
326,21,125187,2,0,P|274:12|239:1,1,78.4000009570313,2|0,0:2|0:0,0:0:0:0:
172,103,125628,1,2,3:2:0:0:
12,15,125849,6,0,P|42:87|71:225,1,210.000008010865,6|2,3:2|0:2,0:0:0:0:
70,215,127395,1,2,0:2:0:0:
70,215,127615,2,0,L|129:225,1,52.5000020027161,2|0,0:2|0:0,0:0:0:0:
185,279,128057,2,0,L|236:270,1,52.5000020027161,2|0,0:2|0:0,0:0:0:0:
382,196,128499,2,0,P|365:268|356:360,1,157.500006008148,2|0,0:2|0:0,0:0:0:0:
333,378,129271,5,0,0:0:0:0:
333,378,129382,1,2,3:2:0:0:
243,334,129602,1,2,0:2:0:0:
146,370,129823,2,0,P|142:331|134:292,1,73.4999977569581,2|2,0:0|3:2,0:0:0:0:
264,188,130265,2,0,P|249:260|242:333,1,146.999995513916,8|2,0:0|0:2,0:0:0:0:
415,290,130927,6,0,P|378:292|342:289,1,73.4999977569581,2|2,3:2|3:2,0:0:0:0:
421,191,131369,2,0,P|458:193|495:190,1,73.4999977569581,2|0,0:2|0:0,0:0:0:0:
494,190,131810,1,2,3:2:0:0:
308,61,132031,2,0,P|312:134|309:207,1,146.999995513916,10|2,0:2|0:2,0:0:0:0:
224,241,132693,1,2,0:2:0:0:
89,203,132914,6,0,P|84:239|88:275,1,73.4999977569581,2|2,3:2|0:2,0:0:0:0:
277,367,133356,2,0,P|280:330|276:294,1,73.4999977569581,2|0,0:2|3:0,0:0:0:0:
204,139,133797,2,0,B|275:160|275:160|344:137,1,146.999995513916,8|2,0:0|0:2,0:0:0:0:
148,51,134460,6,0,L|62:64,1,73.4999977569581,2|2,0:2|3:2,0:0:0:0:
195,167,134901,2,0,L|122:156,1,73.4999977569581,2|0,0:2|0:0,0:0:0:0:
56,211,135343,1,2,3:2:0:0:
147,319,135564,2,0,P|65:321|13:378,1,146.999995513916,10|2,0:2|0:2,0:0:0:0:
165,296,136226,1,2,3:2:0:0:
246,357,136447,6,0,P|255:321|270:287,1,73.4999977569581,2|0,3:2|0:0,0:0:0:0:
185,192,136888,1,2,0:2:0:0:
95,267,137109,5,2,3:2:0:0:
205,158,137330,2,0,P|172:84|152:5,1,146.999995513916,8|2,0:0|0:2,0:0:0:0:
155,20,137992,1,2,0:2:0:0:
88,90,138213,2,0,P|34:95|6:95,1,73.4999977569581,2|2,3:2|0:2,0:0:0:0:
137,215,138655,2,0,P|173:216|210:220,1,73.4999977569581,2|2,0:2|3:2,0:0:0:0:
327,129,139096,1,8,0:0:0:0:
327,129,139317,2,0,P|315:196|313:296,1,146.999995513916,2|2,0:2|0:2,0:0:0:0:
342,300,139869,5,0,0:0:0:0:
342,300,139979,2,0,P|270:309|209:365,1,146.999995513916,2|2,3:2|0:2,0:0:0:0:
214,355,140642,1,2,3:2:0:0:
58,375,140863,1,10,0:2:0:0:
136,343,141083,1,0,0:0:0:0:
37,356,141304,2,0,P|9:324|-7:283,1,73.4999977569581,2|2,0:2|0:2,0:0:0:0:
99,181,141746,6,0,P|168:203|241:214,1,146.999995513916,2|2,3:2|0:2,0:0:0:0:
375,139,142408,1,0,3:0:0:0:
375,139,142518,1,0,0:0:0:0:
375,139,142629,2,0,P|383:182|386:220,1,73.4999977569581,10|0,0:2|3:0,0:0:0:0:
307,292,143070,1,2,0:3:0:0:
369,227,143291,1,2,0:2:0:0:
461,314,143512,5,6,3:2:0:0:
291,215,143733,1,2,0:2:0:0:
234,302,143954,2,0,P|296:292|321:292,1,73.4999977569581,2|2,0:2|3:2,0:0:0:0:
159,204,144395,2,0,P|108:204|8:162,1,146.999995513916,8|2,0:0|0:2,0:0:0:0:
82,303,145058,6,0,P|36:315|7:331,1,73.4999977569581,2|2,3:2|3:2,0:0:0:0:
13,326,145499,2,0,P|48:334|81:349,1,73.4999977569581,2|0,0:2|0:0,0:0:0:0:
81,349,145941,1,2,3:2:0:0:
159,204,146161,2,0,B|246:219|216:252|290:274,1,146.999995513916,10|2,0:2|0:2,0:0:0:0:
326,263,146713,1,0,0:0:0:0:
326,263,146824,1,2,0:2:0:0:
264,347,147045,2,0,P|218:354|176:365,1,73.4999977569581,2|2,3:2|0:2,0:0:0:0:
380,325,147486,2,0,P|426:332|468:343,1,73.4999977569581,2|2,0:2|3:2,0:0:0:0:
254,244,147928,2,0,P|241:190|272:97,1,146.999995513916,10|2,0:2|0:2,0:0:0:0:
298,93,148480,5,0,0:0:0:0:
298,93,148590,2,0,L|372:107,1,73.4999977569581,2|2,3:2|3:2,0:0:0:0:
223,22,149032,2,0,L|149:36,1,73.4999977569581,2|0,0:2|0:0,0:0:0:0:
78,138,149473,1,2,3:2:0:0:
11,28,149694,2,0,P|26:90|36:178,1,146.999995513916,10|2,0:2|0:2,0:0:0:0:
146,225,150356,1,2,3:2:0:0:
146,225,150577,6,0,P|161:178|172:151,1,73.4999977569581,2|0,3:2|0:0,0:0:0:0:
282,109,151019,1,2,0:2:0:0:
354,141,151240,1,2,3:2:0:0:
247,181,151460,1,10,0:2:0:0:
371,109,151681,5,2,0:2:0:0:
436,162,151902,1,2,0:2:0:0:
321,332,152123,2,0,P|324:258|333:185,1,146.999995513916,2|2,3:2|3:2,0:0:0:0:
219,263,152785,2,0,P|205:201|198:183,1,73.4999977569581,2|2,0:2|3:2,0:0:0:0:
286,91,153227,1,8,0:0:0:0:
205,37,153447,2,0,P|266:39|364:15,1,146.999995513916,2|2,0:2|0:2,0:0:0:0:
386,49,153999,5,0,0:0:0:0:
386,49,154110,2,0,P|376:117|367:220,1,146.999995513916,2|2,3:2|0:2,0:0:0:0:
368,194,154772,1,2,3:2:0:0:
229,247,154993,2,0,P|225:210|220:174,1,73.4999977569581,8|0,0:0|0:0,0:0:0:0:
165,103,155434,1,2,0:2:0:0:
207,37,155655,1,2,3:2:0:0:
59,6,155876,5,10,0:2:0:0:
220,174,156097,2,0,P|188:249|174:337,1,161.000003070831,2|0,3:2|0:0,0:0:0:0:
6,188,156759,2,0,P|53:175|95:159,1,80.5000015354157,14|0,3:2|3:0,0:0:0:0:
257,149,157201,1,8,0:0:0:0:
169,78,157422,1,8,3:3:0:0:
136,272,157642,6,0,P|218:251|288:293,1,166.599996695252,6|2,3:2|3:2,0:0:0:0:
390,371,158305,1,0,3:0:0:0:
390,371,158415,1,0,0:0:0:0:
390,371,158525,1,8,0:0:0:0:
505,215,158746,2,0,P|507:272|505:393,1,166.599996695252,2|2,0:2|3:2,0:0:0:0:
371,247,159409,6,0,P|319:247|286:245,1,83.2999983476258,2|2,3:2|0:2,0:0:0:0:
161,263,159850,1,2,3:2:0:0:
209,190,160071,1,2,0:2:0:0:
91,101,160292,2,0,P|145:97|244:38,1,166.599996695252,10|2,0:2|0:2,0:0:0:0:
240,41,160954,1,2,3:2:0:0:
383,150,161175,6,0,P|356:148|306:118,1,83.2999983476258,2|2,3:2|0:2,0:0:0:0:
474,12,161616,2,0,L|466:103,1,83.2999983476258,2|2,3:2|3:2,0:0:0:0:
465,137,161948,1,0,0:0:0:0:
465,137,162058,1,8,0:0:0:0:
512,271,162279,2,0,P|422:253|353:288,1,166.599996695252,2|2,0:2|3:2,0:0:0:0:
261,341,162941,5,2,3:2:0:0:
174,301,163162,1,2,0:2:0:0:
102,344,163383,1,2,3:2:0:0:
62,315,163604,1,2,0:2:0:0:
199,384,163824,2,0,P|277:334|347:350,1,166.599996695252,10|2,0:2|0:2,0:0:0:0:
344,348,164487,1,2,3:2:0:0:
512,384,164708,6,0,L|485:212,1,166.599996695252,2|2,3:2|0:2,0:0:0:0:
474,186,165259,1,0,0:0:0:0:
473,186,165370,2,0,P|432:190|391:187,1,83.2999983476258,2|8,3:2|0:0,0:0:0:0:
296,16,165811,2,0,P|300:78|296:140,1,124.949997521439,2|0,0:2|0:0,0:0:0:0:
275,181,166253,1,2,3:2:0:0:
358,295,166474,1,2,3:2:0:0:
224,252,166695,1,2,0:2:0:0:
358,207,166915,1,2,3:2:0:0:
275,322,167136,1,2,0:2:0:0:
379,188,167357,6,0,P|373:102|374:18,1,166.599996695252,10|2,0:2|0:2,0:0:0:0:
386,12,167909,1,0,0:0:0:0:
386,12,168019,1,2,3:2:0:0:
240,107,168240,6,0,P|157:98|84:58,1,166.599996695252,2|2,3:2|3:2,0:0:0:0:
85,59,168902,1,2,3:2:0:0:
141,235,169123,1,8,0:2:0:0:
204,178,169344,2,0,P|185:227|161:339,1,166.599996695252,2|2,0:2|3:2,0:0:0:0:
278,373,170006,6,0,P|327:362|371:362,1,83.2999983476258,0|2,3:0|0:2,0:0:0:0:
487,300,170448,1,0,3:0:0:0:
326,223,170669,1,0,0:2:0:0:
480,378,170890,5,8,0:0:0:0:
409,281,171110,1,0,3:0:0:0:
512,205,171331,2,0,P|509:146|513:65,1,124.949997521439,2|0,0:0|0:0,0:0:0:0:
486,47,171773,6,0,B|406:71|406:71|326:49,1,166.599996695252,6|2,3:2|0:2,0:0:0:0:
223,153,172435,1,0,3:0:0:0:
223,153,172545,1,0,0:0:0:0:
223,153,172656,1,8,0:0:0:0:
137,43,172877,2,0,P|161:124|173:216,1,166.599996695252,2|2,0:2|0:2,0:0:0:0:
240,342,173539,6,0,P|246:300|258:261,1,83.2999983476258,2|2,3:2|0:2,0:0:0:0:
290,183,173981,1,2,3:2:0:0:
240,117,174201,1,2,0:2:0:0:
400,20,174422,1,10,0:2:0:0:
418,46,174643,1,2,0:2:0:0:
408,88,174864,2,0,P|393:148|387:212,1,124.949997521439,2|0,0:2|0:0,0:0:0:0:
363,257,175305,6,0,P|421:236|511:302,1,166.599996695252,2|2,3:2|3:2,0:0:0:0:
315,355,175968,1,0,3:0:0:0:
315,355,176078,1,0,0:0:0:0:
315,355,176188,1,8,0:0:0:0:
227,315,176409,1,2,0:2:0:0:
125,353,176630,2,0,P|74:347|40:346,1,83.2999983476258,0|2,0:0|3:2,0:0:0:0:
183,245,177072,5,2,3:2:0:0:
121,150,177292,1,2,0:2:0:0:
180,81,177513,1,2,3:2:0:0:
135,19,177734,1,2,0:2:0:0:
210,167,177955,5,10,0:2:0:0:
100,233,178175,1,2,3:2:0:0:
168,322,178396,2,0,P|112:294|52:274,1,124.949997521439,0|0,0:0|0:0,0:0:0:0:
32,251,178838,6,0,P|23:200|11:155,1,83.2999983476258,2|0,3:2|0:0,0:0:0:0:
82,99,179279,1,2,3:2:0:0:
247,202,179500,6,0,P|256:151|268:106,1,83.2999983476258,10|0,0:0|3:0,0:0:0:0:
142,6,179941,1,2,0:2:0:0:
233,45,180163,1,0,0:0:0:0:
233,45,180272,1,0,0:0:0:0:
233,45,180383,1,2,3:2:0:0:
126,165,180604,5,2,3:2:0:0:
202,225,180825,2,0,P|209:184|220:143,1,83.2999983476258,2|0,0:2|3:0,0:0:0:0:
130,138,181266,5,2,0:2:0:0:
49,248,181487,2,0,P|32:166|9:86,1,166.599996695252,8|2,0:0|0:2,0:0:0:0:
0,64,182039,1,0,0:0:0:0:
0,64,182150,1,2,3:2:0:0:
153,6,182370,6,0,B|248:22|203:68|291:92,1,166.599996695252,2|2,3:2|3:2,0:0:0:0:
362,164,183033,1,2,3:2:0:0:
436,131,183254,2,0,P|463:161|463:201,1,83.2999983476258,8|2,0:0|0:2,0:0:0:0:
330,253,183695,5,0,0:0:0:0:
215,174,183916,2,0,P|188:210|172:342,1,166.599996695252,2|2,3:2|0:2,0:0:0:0:
146,374,184578,2,0,P|123:331|81:302,1,83.2999983476258,0|2,3:0|3:2,0:0:0:0:
15,177,185020,5,2,3:0:0:0:
147,197,185241,1,4,3:3:0:0:
0,177,185461,1,4,3:3:0:0:
367,34,185903,5,6,3:2:0:0:
256,192,197825,12,0,199923,0:0:0:0:
125,367,200033,5,6,3:2:0:0:
117,357,200475,1,2,3:2:0:0:
266,303,200696,2,0,P|270:341|278:380,1,70,2|8,3:2|0:0,0:0:0:0:
425,282,201136,1,2,0:2:0:0:
434,262,201358,1,2,0:2:0:0:
292,177,201579,6,0,P|276:145|255:117,1,70,2|0,3:2|3:0,0:0:0:0:
400,64,202020,2,0,P|425:29|452:5,1,70,2|2,0:2|3:2,0:0:0:0:
319,48,202462,1,2,3:2:0:0:
425,190,202683,2,0,P|459:187|496:182,1,70,8|2,0:0|0:2,0:0:0:0:
306,275,203124,1,2,0:2:0:0:
333,180,203345,1,2,3:2:0:0:
455,347,203566,6,0,P|385:355|314:372,1,140,2|2,3:2|3:2,0:0:0:0:
195,384,204228,2,0,P|209:346|214:316,1,70,2|8,3:2|0:0,0:0:0:0:
112,251,204670,1,2,0:2:0:0:
130,263,204891,1,2,0:2:0:0:
0,180,205111,6,0,P|40:176|90:173,1,70,2|0,3:2|3:0,0:0:0:0:
229,98,205553,2,0,P|188:93|138:91,1,70,2|2,0:2|3:2,0:0:0:0:
49,54,205995,1,2,0:2:0:0:
198,220,206215,2,0,L|207:305,1,70,8|2,0:0|3:2,0:0:0:0:
331,380,206657,1,2,0:2:0:0:
297,292,206878,1,2,3:2:0:0:
353,89,207098,6,0,P|411:46|485:5,1,140,2|2,3:2|3:2,0:0:0:0:
444,140,207760,2,0,P|431:172|424:207,1,70,2|8,3:2|0:0,0:0:0:0:
453,332,208202,1,2,0:2:0:0:
438,348,208423,1,2,0:2:0:0:
342,205,208644,6,0,P|305:199|254:192,1,70,2|0,3:2|3:0,0:0:0:0:
267,377,209086,2,0,P|248:311|245:299,1,70,2|2,0:2|3:2,0:0:0:0:
176,237,209527,1,2,3:2:0:0:
176,66,209747,2,0,L|108:47,1,70,8|2,0:0|0:2,0:0:0:0:
6,143,210189,1,2,0:2:0:0:
104,136,210410,1,2,3:2:0:0:
252,32,210631,6,0,B|334:40|309:9|389:12,1,140,2|2,3:2|3:2,0:0:0:0:
458,178,211293,2,0,L|369:182,1,70,2|8,3:2|0:0,0:0:0:0:
288,260,211735,1,2,0:2:0:0:
256,325,211956,1,2,0:2:0:0:
155,176,212177,6,0,L|83:191,1,70,2|0,3:2|3:0,0:0:0:0:
16,314,212618,2,0,P|70:298|101:289,1,70,2|2,0:2|3:2,0:0:0:0:
119,96,213060,2,0,P|197:75|254:62,1,140,2|2,0:2|3:2,0:0:0:0:
376,10,213722,1,2,0:2:0:0:
327,117,213943,1,2,3:2:0:0:
467,219,214164,5,6,3:2:0:0:
476,225,214605,1,2,3:2:0:0:
349,363,214826,2,0,L|254:373,1,70,0|8,3:0|0:0,0:0:0:0:
111,312,215268,1,2,0:2:0:0:
185,382,215488,1,2,0:2:0:0:
129,210,215709,6,0,P|93:190|44:194,1,70,2|0,3:2|3:0,0:0:0:0:
8,98,216151,2,0,P|40:79|93:62,1,70,2|2,0:2|3:2,0:0:0:0:
168,116,216592,1,2,3:2:0:0:
25,279,216813,2,0,L|11:358,1,70,8|2,0:0|0:2,0:0:0:0:
130,384,217255,1,2,0:2:0:0:
118,293,217475,1,2,3:2:0:0:
270,381,217696,6,0,B|350:366|314:340|401:332,1,140,2|2,3:2|3:2,0:0:0:0:
512,234,218359,2,0,P|478:234|447:260,1,70,2|8,3:2|0:0,0:0:0:0:
311,320,218800,1,2,0:2:0:0:
358,221,219021,1,2,0:2:0:0:
296,117,219242,6,0,P|279:80|271:36,1,70,2|0,3:2|3:0,0:0:0:0:
405,145,219683,2,0,P|441:151|474:155,1,70,2|2,0:2|3:2,0:0:0:0:
372,36,220125,1,2,0:2:0:0:
193,139,220346,2,0,P|155:146|121:151,1,70,8|2,0:0|3:2,0:0:0:0:
14,94,220787,1,2,0:2:0:0:
114,72,221008,1,2,3:2:0:0:
0,283,221229,6,0,P|62:263|147:240,1,140,2|2,3:2|3:2,0:0:0:0:
245,236,221891,2,0,P|224:265|190:311,1,70,2|8,3:2|0:0,0:0:0:0:
106,346,222333,1,2,0:2:0:0:
216,384,222554,1,2,0:2:0:0:
430,317,222774,6,0,P|391:342|354:371,1,70,2|0,3:2|3:0,0:0:0:0:
233,268,223216,2,0,P|281:276|317:288,1,70,2|2,0:2|3:2,0:0:0:0:
380,237,223657,1,2,3:2:0:0:
438,47,223878,2,0,P|471:37|506:32,1,70,10|2,0:2|0:2,0:0:0:0:
494,152,224320,1,2,0:2:0:0:
387,127,224541,1,2,3:2:0:0:
271,0,224761,6,0,P|207:29|211:93,1,140,2|2,3:2|3:2,0:0:0:0:
287,175,225423,2,0,P|245:175|194:169,1,70,2|8,3:2|0:0,0:0:0:0:
123,94,225865,1,2,0:2:0:0:
72,179,226086,1,2,0:2:0:0:
158,270,226307,6,0,P|195:276|227:277,1,70,2|0,3:2|3:0,0:0:0:0:
286,209,226748,2,0,P|326:221|351:259,1,70,2|2,0:2|3:2,0:0:0:0:
133,343,227190,2,0,P|59:360|-13:388,1,140,2|2,0:2|3:2,0:0:0:0:
106,258,227852,1,2,0:2:0:0:
0,199,228073,1,2,3:2:0:0:
162,98,228294,5,6,3:2:0:0:
256,192,228404,12,4,242424,0:0:0:0:
