osu file format v14

[General]
AudioFilename: audio.ogg
AudioLeadIn: 0
PreviewTime: 50025
Countdown: 0
SampleSet: Normal
StackLeniency: 0.7
Mode: 1
LetterboxInBreaks: 0
WidescreenStoryboard: 0

[Editor]
Bookmarks: 182,15182,25182,32057,32682,39557,40182,50182,57057,57682,65182,75182,80182,85182,95182,102057,102682,109557,110182,117682,125182,135182,145182,155182,163619,167812
DistanceSpacing: 2.8
BeatDivisor: 4
GridSize: 32
TimelineZoom: 2.4

[Metadata]
Title:kto?
TitleUnicode:кто?
Artist:Zemfira
ArtistUnicode:Земфира
Creator:Tachibana_
Version:love is in your eyes
Source:
Tags:russian rock четырнадцать недель тишины 14 semfi - Ares - Froskya Revialink -_Ares_- -Ares- pop поп русский рок
BeatmapID:4556245
BeatmapSetID:2160625

[Difficulty]
HPDrainRate:5
CircleSize:0
OverallDifficulty:6
ApproachRate:9
SliderMultiplier:1.4
SliderTickRate:1

[Events]
//Background and Video events
0,0,"bg.jpg",0,65
//Break Periods
//Storyboard Layer 0 (Background)
//Storyboard Layer 1 (Fail)
//Storyboard Layer 2 (Pass)
//Storyboard Layer 3 (Foreground)
//Storyboard Layer 4 (Overlay)
//Storyboard Sound Samples

[TimingPoints]
182,312.5,4,1,0,42,1,0
807,-112.913223140496,4,1,0,42,0,0
1275,-125,4,1,0,42,0,0
2682,-100,4,1,0,42,0,0
3307,-112.913223140496,4,1,0,42,0,0
3775,-125,4,1,0,42,0,0
5182,-100,4,1,0,42,0,0
5807,-105.263157894737,4,1,0,42,0,0
6275,-109.581835714912,4,1,0,42,0,0
6588,-112.673517216513,4,1,0,42,0,0
6900,-115.933964014098,4,1,0,42,0,0
7057,-117.647058823529,4,1,0,42,0,0
7213,-119.40013372815,4,1,0,42,0,0
7369,-121.206244545719,4,1,0,42,0,0
7525,-123.067834990647,4,1,0,42,0,0
7682,-100,4,1,0,42,0,0
8307,-112.913223140496,4,1,0,42,0,0
8775,-125,4,1,0,42,0,0
10182,-100,4,1,0,42,0,0
10807,-112.913223140496,4,1,0,42,0,0
11275,-125,4,1,0,42,0,0
12682,-100,4,1,0,42,0,0
13307,-105.263157894737,4,1,0,42,0,0
13463,-106.664391159655,4,1,0,42,0,0
13775,-109.581835714912,4,1,0,42,0,0
13932,-111.111111111111,4,1,0,42,0,0
14088,-112.673517216513,4,1,0,42,0,0
14557,-117.647058823529,4,1,0,42,0,0
14869,-121.206244545719,4,1,0,42,0,0
15182,-111.111111111111,4,1,0,52,0,0
24088,-112.673517216513,4,1,0,52,0,0
24400,-115.933964014098,4,1,0,52,0,0
24557,-117.647058823529,4,1,0,52,0,0
24869,-121.206244545719,4,1,0,52,0,0
25025,-123.067834990647,4,1,0,52,0,0
25182,-90.9090909090909,4,1,0,80,0,1
31275,-93.7437537477513,4,1,0,80,0,1
31432,-96.1538461538461,4,1,0,80,0,1
31588,-100,4,1,0,80,0,1
31744,-103.440670489634,4,1,0,80,0,1
31900,-107.126541799909,4,1,0,80,0,1
32057,-111.111111111111,4,1,0,80,0,0
32682,-90.9090909090909,4,1,0,80,0,1
37994,-93.7453127343633,4,1,0,80,0,1
38150,-95.2308395550815,4,1,0,80,0,1
38228,-95.9913991706343,4,1,0,80,0,1
38307,-96.7741935483871,4,1,0,80,0,1
38463,-98.3580758537481,4,1,0,80,0,1
38775,-101.686642442649,4,1,0,80,0,1
38932,-103.448275862069,4,1,0,80,0,1
39088,-105.260203222366,4,1,0,80,0,1
39244,-107.136735043712,4,1,0,80,0,1
39322,-108.100317094263,4,1,0,80,0,1
39400,-109.081389260574,4,1,0,80,0,1
39557,-111.111111111111,4,1,0,50,0,0
49088,-112.673517216513,4,1,0,50,0,0
49400,-115.933964014098,4,1,0,50,0,0
49557,-117.647058823529,4,1,0,50,0,0
49713,-119.40013372815,4,1,0,50,0,0
49869,-121.206244545719,4,1,0,50,0,0
50025,-123.067834990647,4,1,0,50,0,0
50182,-90.9090909090909,4,1,0,80,0,1
56275,-93.7437537477513,4,1,0,80,0,1
56432,-96.1538461538461,4,1,0,80,0,1
56588,-100,4,1,0,80,0,1
56744,-103.440670489634,4,1,0,80,0,1
56900,-107.126541799909,4,1,0,80,0,1
57057,-111.111111111111,4,1,0,80,0,0
57682,-90.9090909090909,4,1,0,80,0,1
62994,-93.0197946122935,4,1,0,80,0,1
63150,-94.1123324800482,4,1,0,80,0,1
63228,-94.6682823386852,4,1,0,80,0,1
63307,-95.2380952380952,4,1,0,80,0,1
63463,-96.3836841699437,4,1,0,80,0,1
63775,-98.7595796792289,4,1,0,80,0,1
63932,-100,4,1,0,80,0,1
64088,-101.263771872975,4,1,0,80,0,1
64244,-102.559894978668,4,1,0,80,0,1
64322,-103.220478943022,4,1,0,80,0,1
64400,-103.889627659574,4,1,0,80,0,1
64557,-105.263157894737,4,1,0,80,0,1
64869,-108.103433365044,4,1,0,80,0,1
65025,-109.581835714912,4,1,0,80,0,1
65182,-90.9090909090909,4,1,0,65,0,0
65494,-91.9523319111373,4,1,0,65,0,0
65650,-92.4829831311039,4,1,0,65,0,0
65807,-93.0232558139535,4,1,0,65,0,0
65885,-93.2940254506101,4,1,0,65,0,0
65963,-93.5663759871253,4,1,0,65,0,0
66119,-94.1158754658736,4,1,0,65,0,0
66275,-94.6718673079108,4,1,0,65,0,0
66588,-95.8074653176975,4,1,0,65,0,0
66744,-96.3836841699437,4,1,0,65,0,0
66822,-96.6744006187162,4,1,0,65,0,0
66900,-96.9668761151191,4,1,0,65,0,0
67057,-97.5609756097561,4,1,0,65,0,0
67369,-98.7634812151859,4,1,0,65,0,0
67525,-99.3759192272529,4,1,0,65,0,0
67682,-100,4,1,0,65,0,0
67760,-100.312976486638,4,1,0,65,0,0
67838,-100.627918209628,4,1,0,65,0,0
67994,-101.263771872975,4,1,0,65,0,0
68307,-102.564102564103,4,1,0,65,0,0
68463,-103.2247409059,4,1,0,65,0,0
68619,-103.893945060882,4,1,0,65,0,0
68775,-104.571882712176,4,1,0,65,0,0
68853,-104.914180200596,4,1,0,65,0,0
68932,-105.263157894737,4,1,0,65,0,0
69088,-105.959142154785,4,1,0,65,0,0
69400,-107.379091143373,4,1,0,65,0,0
69557,-108.108108108108,4,1,0,65,0,0
69635,-108.473987937693,4,1,0,65,0,0
69713,-108.842352736297,4,1,0,65,0,0
69869,-109.586639196949,4,1,0,65,0,0
70025,-110.34117491283,4,1,0,65,0,0
70182,-90.9090909090909,4,1,0,65,0,0
70494,-91.9523319111373,4,1,0,65,0,0
70650,-92.4829831311039,4,1,0,65,0,0
70807,-93.0232558139535,4,1,0,65,0,0
70885,-93.2940254506101,4,1,0,65,0,0
70963,-93.5663759871253,4,1,0,65,0,0
71119,-94.1158754658736,4,1,0,65,0,0
71275,-94.6718673079108,4,1,0,65,0,0
71588,-95.8074653176975,4,1,0,65,0,0
71744,-96.3836841699437,4,1,0,65,0,0
71822,-96.6744006187162,4,1,0,65,0,0
71900,-96.9668761151191,4,1,0,65,0,0
72057,-97.5609756097561,4,1,0,65,0,0
72369,-98.7634812151859,4,1,0,65,0,0
72525,-99.3759192272529,4,1,0,65,0,0
72682,-100,4,1,0,65,0,0
72994,-101.263771872975,4,1,0,65,0,0
73150,-101.907712375673,4,1,0,65,0,0
73228,-102.232763556064,4,1,0,65,0,0
73307,-102.564102564103,4,1,0,65,0,0
73463,-103.2247409059,4,1,0,65,0,0
73619,-103.893945060882,4,1,0,65,0,0
73697,-104.166666666667,4,1,0,65,0,0
73775,-104.571882712176,4,1,0,65,0,0
73932,-105.263157894737,4,1,0,65,0,0
74088,-105.959142154785,4,1,0,65,0,0
74400,-107.379091143373,4,1,0,65,0,0
74557,-108.108108108108,4,1,0,65,0,0
74713,-108.842352736297,4,1,0,65,0,0
74869,-109.586639196949,4,1,0,65,0,0
75025,-110.34117491283,4,1,0,65,0,0
75182,-90.9090909090909,4,1,0,65,0,0
75494,-91.9523319111373,4,1,0,65,0,0
75650,-92.4829831311039,4,1,0,65,0,0
75807,-93.0232558139535,4,1,0,65,0,0
75885,-93.2940254506101,4,1,0,65,0,0
75963,-93.5663759871253,4,1,0,65,0,0
76119,-94.1158754658736,4,1,0,65,0,0
76275,-94.6718673079108,4,1,0,65,0,0
76588,-95.8074653176975,4,1,0,65,0,0
76744,-96.3836841699437,4,1,0,65,0,0
76822,-96.6744006187162,4,1,0,65,0,0
76900,-96.9668761151191,4,1,0,65,0,0
77057,-97.5609756097561,4,1,0,65,0,0
77369,-98.7634812151859,4,1,0,65,0,0
77525,-99.3759192272529,4,1,0,65,0,0
77682,-100,4,1,0,65,0,0
77760,-100.312976486638,4,1,0,65,0,0
77838,-100.627918209628,4,1,0,65,0,0
77994,-101.263771872975,4,1,0,65,0,0
78307,-102.564102564103,4,1,0,65,0,0
78463,-103.2247409059,4,1,0,65,0,0
78619,-103.893945060882,4,1,0,65,0,0
78775,-104.571882712176,4,1,0,65,0,0
78853,-104.914180200596,4,1,0,65,0,0
78932,-105.263157894737,4,1,0,65,0,0
79088,-105.959142154785,4,1,0,65,0,0
79400,-107.379091143373,4,1,0,65,0,0
79557,-108.108108108108,4,1,0,65,0,0
79635,-108.473987937693,4,1,0,65,0,0
79713,-108.842352736297,4,1,0,65,0,0
79869,-109.586639196949,4,1,0,65,0,0
80025,-110.34117491283,4,1,0,65,0,0
80182,-90.9090909090909,4,1,0,65,0,0
80494,-93.0197946122935,4,1,0,65,0,0
80650,-94.1123324800482,4,1,0,65,0,0
80807,-95.2380952380952,4,1,0,65,0,0
80885,-95.8074653176975,4,1,0,65,0,0
80963,-96.3836841699437,4,1,0,65,0,0
81119,-97.5571685007414,4,1,0,65,0,0
81275,-98.7595796792289,4,1,0,65,0,0
81588,-101.263771872975,4,1,0,65,0,0
81744,-102.559894978668,4,1,0,65,0,0
81822,-103.220478943022,4,1,0,65,0,0
81900,-103.889627659574,4,1,0,65,0,0
82057,-105.263157894737,4,1,0,65,0,0
82369,-108.103433365044,4,1,0,65,0,0
82525,-109.581835714912,4,1,0,65,0,0
82682,-111.111111111111,4,1,0,65,0,0
82994,-106.673493770268,4,1,0,65,0,0
83150,-104.58500669344,4,1,0,65,0,0
83228,-103.092783505155,4,1,0,65,0,0
83307,-102.564102564103,4,1,0,65,0,0
83463,-100.631968763837,4,1,0,65,0,0
83619,-98.7712852119632,4,1,0,65,0,0
83697,-98.0392156862745,4,1,0,65,0,0
83775,-96.9781605182513,4,1,0,65,0,0
83853,-96.1057932572176,4,1,0,65,0,0
83932,-95.2380952380952,4,1,0,65,0,0
84088,-96.9668761151191,4,1,0,65,0,0
84244,-98.7595796792289,4,1,0,65,0,0
84400,-100.619818079369,4,1,0,65,0,0
84557,-102.564102564103,4,1,0,65,0,0
84635,-103.558261878133,4,1,0,65,0,0
84713,-104.571882712176,4,1,0,65,0,0
84869,-106.659840436879,4,1,0,65,0,0
85025,-108.832876235253,4,1,0,65,0,0
85182,-111.111111111111,4,1,0,40,0,0
95182,-90.9090909090909,4,1,0,80,0,1
101275,-93.7437537477513,4,1,0,80,0,1
101432,-96.1538461538461,4,1,0,80,0,1
101588,-100,4,1,0,80,0,1
101744,-103.440670489634,4,1,0,80,0,1
101900,-107.126541799909,4,1,0,80,0,1
102057,-111.111111111111,4,1,0,80,0,0
102682,-90.9090909090909,4,1,0,80,0,1
108932,-92.7916639187496,4,1,0,80,0,1
109088,-94.7410948757659,4,1,0,80,0,1
109244,-96.7741935483871,4,1,0,80,0,1
109322,-97.8238197872488,4,1,0,80,0,1
109400,-98.8964644689675,4,1,0,80,0,1
109557,-101.128441026378,4,1,0,40,0,0
109869,-105.877041161863,4,1,0,40,0,0
110182,-111.111111111111,4,1,0,60,0,0
115494,-115.377515229832,4,1,0,60,0,0
115650,-117.635987201205,4,1,0,60,0,0
115807,-120,4,1,0,60,0,0
116119,-124.991667222185,4,1,0,60,0,0
116275,-127.646538225883,4,1,0,60,0,0
116432,-130.434782608696,4,1,0,60,0,0
116588,-133.328592761146,4,1,0,60,0,0
116744,-136.353719729474,4,1,0,60,0,0
116900,-139.519309472431,4,1,0,60,0,0
117057,-142.857142857143,4,1,0,60,0,0
117682,-90.9090909090909,4,1,0,60,0,1
123932,-92.7916639187496,4,1,0,60,0,1
124088,-94.7410948757659,4,1,0,60,0,1
124166,-95.7468526709765,4,1,0,60,0,1
124244,-96.7741935483871,4,1,0,60,0,1
124400,-98.8964644689675,4,1,0,60,0,1
124557,-101.128441026378,4,1,0,60,0,1
124869,-105.877041161863,4,1,0,60,0,1
125182,-90.9090909090908,4,1,0,70,0,0
125338,-91.1676755889432,4,1,0,70,0,0
125650,-91.6892833565613,4,1,0,70,0,0
125807,-91.9540229885057,4,1,0,70,0,0
125963,-92.2185949574872,4,1,0,70,0,0
126119,-92.4846937831789,4,1,0,70,0,0
126275,-92.7523327211679,4,1,0,70,0,0
126432,-93.0232558139535,4,1,0,70,0,0
126588,-93.2940254506101,4,1,0,70,0,0
126900,-93.8403213092601,4,1,0,70,0,0
127057,-94.1176470588235,4,1,0,70,0,0
127213,-94.3948347146444,4,1,0,70,0,0
127525,-94.9541371517557,4,1,0,70,0,0
127682,-95.2380952380952,4,1,0,70,0,0
127838,-95.5219318355494,4,1,0,70,0,0
127994,-95.8074653176975,4,1,0,70,0,0
128150,-96.0947109471095,4,1,0,70,0,0
128307,-96.3855421686747,4,1,0,70,0,0
128463,-96.6762698428044,4,1,0,70,0,0
128619,-96.968756666602,4,1,0,70,0,0
128775,-97.263018655047,4,1,0,70,0,0
128932,-97.5609756097561,4,1,0,70,0,0
129088,-97.8588483970721,4,1,0,70,0,0
129400,-98.4600842818321,4,1,0,70,0,0
129557,-98.7654320987654,4,1,0,70,0,0
129869,-99.3778943811738,4,1,0,70,0,0
130025,-99.6869828737763,4,1,0,70,0,0
130182,-100,4,1,0,70,0,0
130494,-100.627918209628,4,1,0,70,0,0
130650,-100.944843737382,4,1,0,70,0,0
130807,-101.26582278481,4,1,0,70,0,0
130963,-101.58678559093,4,1,0,70,0,0
131119,-101.909789454375,4,1,0,70,0,0
131275,-102.234853906394,4,1,0,70,0,0
131432,-102.564102564103,4,1,0,70,0,0
131588,-102.893361320328,4,1,0,70,0,0
131744,-103.2247409059,4,1,0,70,0,0
132057,-103.896103896104,4,1,0,70,0,0
132213,-104.23398444829,4,1,0,70,0,0
132369,-104.574069813649,4,1,0,70,0,0
132525,-104.91638164383,4,1,0,70,0,0
132682,-105.263157894737,4,1,0,70,0,0
132838,-105.61000337952,4,1,0,70,0,0
132994,-105.959142154785,4,1,0,70,0,0
133150,-106.310597040313,4,1,0,70,0,0
133307,-106.666666666667,4,1,0,70,0,0
133619,-107.381397246741,4,1,0,70,0,0
133775,-107.742366453337,4,1,0,70,0,0
133932,-108.108108108108,4,1,0,70,0,0
134088,-108.473987937693,4,1,0,70,0,0
134400,-109.213227906164,4,1,0,70,0,0
134557,-109.58904109589,4,1,0,70,0,0
134869,-110.343610001545,4,1,0,70,0,0
135025,-110.72480457072,4,1,0,70,0,0
135182,-90.9090909090909,4,1,0,70,0,0
135494,-91.4277355178467,4,1,0,70,0,0
135650,-91.6892833565613,4,1,0,70,0,0
135807,-91.9540229885057,4,1,0,70,0,0
135963,-92.2185949574872,4,1,0,70,0,0
136119,-92.4846937831789,4,1,0,70,0,0
136275,-92.7523327211679,4,1,0,70,0,0
136432,-93.4579439252336,4,1,0,70,0,0
136588,-93.2940254506101,4,1,0,70,0,0
136744,-93.5663759871253,4,1,0,70,0,0
137057,-94.1176470588235,4,1,0,70,0,0
137213,-94.3948347146444,4,1,0,70,0,0
137369,-94.6736598943442,4,1,0,70,0,0
137525,-94.9541371517557,4,1,0,70,0,0
137682,-95.2380952380952,4,1,0,70,0,0
137838,-95.5219318355494,4,1,0,70,0,0
137994,-95.8074653176975,4,1,0,70,0,0
138150,-96.0947109471095,4,1,0,70,0,0
138307,-96.3855421686747,4,1,0,70,0,0
138619,-96.968756666602,4,1,0,70,0,0
138775,-97.263018655047,4,1,0,70,0,0
138932,-97.5609756097561,4,1,0,70,0,0
139088,-97.8588483970721,4,1,0,70,0,0
139400,-98.4600842818321,4,1,0,70,0,0
139557,-98.7654320987654,4,1,0,70,0,0
139869,-99.3778943811738,4,1,0,70,0,0
140025,-99.6869828737763,4,1,0,70,0,0
140182,-100,4,1,0,70,0,0
140494,-100.627918209628,4,1,0,70,0,0
140650,-100.944843737382,4,1,0,70,0,0
140807,-101.26582278481,4,1,0,70,0,0
140963,-101.58678559093,4,1,0,70,0,0
141119,-101.909789454375,4,1,0,70,0,0
141275,-102.234853906394,4,1,0,70,0,0
141432,-102.564102564103,4,1,0,70,0,0
141588,-102.893361320328,4,1,0,70,0,0
141900,-103.558261878133,4,1,0,70,0,0
142057,-103.896103896104,4,1,0,70,0,0
142213,-104.23398444829,4,1,0,70,0,0
142369,-104.574069813649,4,1,0,70,0,0
142525,-104.91638164383,4,1,0,70,0,0
142682,-105.263157894737,4,1,0,70,0,0
142994,-105.959142154785,4,1,0,70,0,0
143150,-106.310597040313,4,1,0,70,0,0
143307,-106.666666666667,4,1,0,70,0,0
143463,-107.022838673773,4,1,0,70,0,0
143619,-107.381397246741,4,1,0,70,0,0
143697,-107.56157900398,4,1,0,70,0,0
143775,-107.742366453337,4,1,0,70,0,0
143932,-108.108108108108,4,1,0,70,0,0
144088,-108.473987937693,4,1,0,70,0,0
144244,-108.842352736297,4,1,0,70,0,0
144400,-109.213227906164,4,1,0,70,0,0
144557,-109.58904109589,4,1,0,70,0,0
144869,-110.343610001545,4,1,0,70,0,0
145025,-110.72480457072,4,1,0,70,0,0
145182,-83.3333333333333,4,1,0,86,0,1
153150,-84.3354918285538,4,1,0,86,0,1
153307,-85.3687085446742,4,1,0,86,0,1
153385,-85.8914972128445,4,1,0,86,0,1
153463,-86.4207283355715,4,1,0,86,0,1
153541,-86.9565217391304,4,1,0,86,0,1
153619,-87.4990002399424,4,1,0,86,0,1
153775,-88.6045193164331,4,1,0,86,0,1
153853,-89.1678213383324,4,1,0,86,0,1
153932,-89.7456931911403,4,1,0,86,0,1
154088,-90.9090909090909,4,1,0,86,0,1
154166,-91.5021746403479,4,1,0,86,0,1
154244,-92.1030476511197,4,1,0,86,0,1
154400,-93.3287834840471,4,1,0,86,0,1
154557,-94.5957630782534,4,1,0,86,0,1
154869,-97.2185195059095,4,1,0,86,0,1
155025,-98.5852032080743,4,1,0,86,0,1
155182,-83.3333333333333,4,1,0,86,0,1
160650,-84.0324835968592,4,1,0,86,0,1
160807,-84.7480609643651,4,1,0,86,0,1
160885,-85.1081213573724,4,1,0,86,0,1
160963,-85.4712543077512,4,1,0,86,0,1
161041,-85.8374993133,4,1,0,86,0,1
161119,-86.2068965517241,4,1,0,86,0,1
161275,-86.955311926095,4,1,0,86,0,1
161353,-87.3344139511486,4,1,0,86,0,1
161432,-87.7217606108242,4,1,0,86,0,1
161588,-88.4968282736747,4,1,0,86,0,1
161666,-88.8895209921493,4,1,0,86,0,1
161744,-89.2857142857143,4,1,0,86,0,1
161900,-90.0887915129151,4,1,0,86,0,1
162057,-90.911735614127,4,1,0,86,0,1
162135,-91.3262025834356,4,1,0,86,0,1
162213,-91.7444659738125,4,1,0,86,0,1
162369,-92.5925925925926,4,1,0,86,0,1
162525,-93.4565464441653,4,1,0,86,0,1
162682,-94.3424707160971,4,1,0,86,0,1
162994,-96.1538461538461,4,1,0,86,0,1
163150,-97.0858705107493,4,1,0,86,0,1
163463,-99.0114694886256,4,1,0,86,0,1
163619,-100,4,1,0,90,0,0

[HitObjects]
256,192,182,5,12,1:0:0:0:
256,192,807,1,0,1:0:0:0:
256,192,1275,1,8,1:0:0:0:
256,192,2682,1,4,1:0:0:0:
256,192,3307,1,8,1:0:0:0:
256,192,3775,1,0,1:0:0:0:
256,192,5182,1,4,1:0:0:0:
256,192,5807,1,8,1:0:0:0:
256,192,6275,1,0,1:0:0:0:
256,192,6588,1,8,1:0:0:0:
256,192,6900,1,8,1:0:0:0:
256,192,7057,1,0,1:0:0:0:
256,192,7213,1,0,1:0:0:0:
256,192,7369,1,8,1:0:0:0:
256,192,7525,1,8,1:0:0:0:
256,192,7682,1,4,1:0:0:0:
256,192,8307,1,8,1:0:0:0:
256,192,8775,1,0,1:0:0:0:
256,192,10182,1,12,1:0:0:0:
256,192,10807,1,0,1:0:0:0:
256,192,11275,1,8,1:0:0:0:
256,192,12682,1,4,1:0:0:0:
256,192,13307,1,8,1:0:0:0:
256,192,13463,1,8,1:0:0:0:
256,192,13775,1,0,1:0:0:0:
256,192,14088,1,8,1:0:0:0:
256,192,14557,1,0,1:0:0:0:
256,192,14869,1,0,1:0:0:0:
256,192,15182,1,12,1:0:0:0:
256,192,15338,1,0,1:0:0:0:
256,192,15494,1,8,1:0:0:0:
256,192,15650,1,8,1:0:0:0:
256,192,15963,1,0,1:0:0:0:
256,192,16119,1,8,1:0:0:0:
256,192,16432,1,0,1:0:0:0:
256,192,16588,1,0,1:0:0:0:
256,192,16744,1,8,1:0:0:0:
256,192,16900,1,0,1:0:0:0:
256,192,17213,1,0,1:0:0:0:
256,192,17369,1,8,1:0:0:0:
256,192,17682,1,8,1:0:0:0:
256,192,17838,1,8,1:0:0:0:
256,192,17994,1,0,1:0:0:0:
256,192,18150,1,8,1:0:0:0:
256,192,18463,1,0,1:0:0:0:
256,192,18619,1,8,1:0:0:0:
256,192,18775,1,8,1:0:0:0:
256,192,18932,1,0,1:0:0:0:
256,192,19088,1,0,1:0:0:0:
256,192,19400,1,0,1:0:0:0:
256,192,19557,1,8,1:0:0:0:
256,192,19869,1,0,1:0:0:0:
256,192,20182,1,8,1:0:0:0:
256,192,20494,1,8,1:0:0:0:
256,192,20650,1,8,1:0:0:0:
256,192,20807,1,0,1:0:0:0:
256,192,20963,1,8,1:0:0:0:
256,192,21275,1,0,1:0:0:0:
256,192,21432,1,8,1:0:0:0:
256,192,21744,1,8,1:0:0:0:
256,192,21900,1,8,1:0:0:0:
256,192,22057,1,0,1:0:0:0:
256,192,22213,1,8,1:0:0:0:
256,192,22369,1,0,1:0:0:0:
256,192,22682,1,8,1:0:0:0:
256,192,22838,1,0,1:0:0:0:
256,192,22994,1,0,1:0:0:0:
256,192,23150,1,8,1:0:0:0:
256,192,23307,1,8,1:0:0:0:
256,192,23619,1,0,1:0:0:0:
256,192,23775,1,8,1:0:0:0:
256,192,23932,1,0,1:0:0:0:
256,192,24088,1,0,1:0:0:0:
256,192,24400,1,8,1:0:0:0:
256,192,24557,1,0,1:0:0:0:
256,192,24869,1,8,1:0:0:0:
256,192,25025,1,8,1:0:0:0:
256,192,25182,1,4,1:0:0:0:
256,192,25494,1,8,1:0:0:0:
256,192,25650,1,0,1:0:0:0:
256,192,25807,1,8,1:0:0:0:
256,192,25885,1,8,1:0:0:0:
256,192,25963,1,0,1:0:0:0:
256,192,26119,1,8,1:0:0:0:
256,192,26275,1,0,1:0:0:0:
256,192,26588,1,0,1:0:0:0:
256,192,26744,1,8,1:0:0:0:
256,192,26900,1,0,1:0:0:0:
256,192,27057,1,8,1:0:0:0:
256,192,27135,1,0,1:0:0:0:
256,192,27213,1,8,1:0:0:0:
256,192,27369,1,0,1:0:0:0:
256,192,27525,1,0,1:0:0:0:
256,192,27682,1,8,1:0:0:0:
256,192,27994,1,0,1:0:0:0:
256,192,28150,1,0,1:0:0:0:
256,192,28307,1,8,1:0:0:0:
256,192,28463,1,0,1:0:0:0:
256,192,28541,1,8,1:0:0:0:
256,192,28619,1,0,1:0:0:0:
256,192,28775,1,8,1:0:0:0:
256,192,29088,1,8,1:0:0:0:
256,192,29244,1,8,1:0:0:0:
256,192,29322,1,8,1:0:0:0:
256,192,29400,1,0,1:0:0:0:
256,192,29557,1,8,1:0:0:0:
256,192,29713,1,0,1:0:0:0:
256,192,29869,1,8,1:0:0:0:
256,192,30025,1,8,1:0:0:0:
256,192,30182,1,0,1:0:0:0:
256,192,30494,1,8,1:0:0:0:
256,192,30650,1,0,1:0:0:0:
256,192,30807,1,8,1:0:0:0:
256,192,30885,1,0,1:0:0:0:
256,192,30963,1,8,1:0:0:0:
256,192,31119,1,0,1:0:0:0:
256,192,31275,1,8,1:0:0:0:
256,192,31588,1,8,1:0:0:0:
256,192,31744,1,8,1:0:0:0:
256,192,31900,1,0,1:0:0:0:
256,192,32057,1,8,1:0:0:0:
256,192,32682,1,4,1:0:0:0:
256,192,32994,1,8,1:0:0:0:
256,192,33307,1,0,1:0:0:0:
256,192,33463,1,8,1:0:0:0:
256,192,33619,1,0,1:0:0:0:
256,192,33775,1,8,1:0:0:0:
256,192,33853,1,8,1:0:0:0:
256,192,33932,1,0,1:0:0:0:
256,192,34088,1,8,1:0:0:0:
256,192,34244,1,0,1:0:0:0:
256,192,34322,1,8,1:0:0:0:
256,192,34400,1,0,1:0:0:0:
256,192,34557,1,8,1:0:0:0:
256,192,34713,1,0,1:0:0:0:
256,192,35025,1,0,1:0:0:0:
256,192,35182,1,8,1:0:0:0:
256,192,35494,1,8,1:0:0:0:
256,192,35807,1,0,1:0:0:0:
256,192,35963,1,8,1:0:0:0:
256,192,36119,1,0,1:0:0:0:
256,192,36275,1,8,1:0:0:0:
256,192,36353,1,8,1:0:0:0:
256,192,36432,1,0,1:0:0:0:
256,192,36588,1,8,1:0:0:0:
256,192,36744,1,0,1:0:0:0:
256,192,36822,1,8,1:0:0:0:
256,192,36900,1,0,1:0:0:0:
256,192,37057,1,8,1:0:0:0:
256,192,37213,1,0,1:0:0:0:
256,192,37525,1,0,1:0:0:0:
256,192,37682,1,8,1:0:0:0:
256,192,37994,1,8,1:0:0:0:
256,192,38150,1,0,1:0:0:0:
256,192,38228,1,0,1:0:0:0:
256,192,38307,1,8,1:0:0:0:
256,192,38463,1,0,1:0:0:0:
256,192,38775,1,0,1:0:0:0:
256,192,38932,1,8,1:0:0:0:
256,192,39088,1,0,1:0:0:0:
256,192,39244,1,8,1:0:0:0:
256,192,39322,1,8,1:0:0:0:
256,192,39400,1,8,1:0:0:0:
256,192,39557,1,0,1:0:0:0:
256,192,40182,1,12,1:0:0:0:
256,192,40338,1,0,1:0:0:0:
256,192,40494,1,8,1:0:0:0:
256,192,40650,1,8,1:0:0:0:
256,192,40963,1,0,1:0:0:0:
256,192,41119,1,8,1:0:0:0:
256,192,41432,1,8,1:0:0:0:
256,192,41588,1,8,1:0:0:0:
256,192,41744,1,0,1:0:0:0:
256,192,41900,1,8,1:0:0:0:
256,192,42213,1,0,1:0:0:0:
256,192,42369,1,8,1:0:0:0:
256,192,42682,1,0,1:0:0:0:
256,192,42838,1,0,1:0:0:0:
256,192,42994,1,8,1:0:0:0:
256,192,43150,1,0,1:0:0:0:
256,192,43463,1,0,1:0:0:0:
256,192,43619,1,0,1:0:0:0:
256,192,43775,1,8,1:0:0:0:
256,192,44088,1,8,1:0:0:0:
256,192,44244,1,0,1:0:0:0:
256,192,44400,1,0,1:0:0:0:
256,192,44557,1,8,1:0:0:0:
256,192,45182,1,8,1:0:0:0:
256,192,45338,1,0,1:0:0:0:
256,192,45494,1,8,1:0:0:0:
256,192,45650,1,8,1:0:0:0:
256,192,45963,1,8,1:0:0:0:
256,192,46119,1,0,1:0:0:0:
256,192,46432,1,8,1:0:0:0:
256,192,46588,1,8,1:0:0:0:
256,192,46744,1,0,1:0:0:0:
256,192,46900,1,8,1:0:0:0:
256,192,47213,1,8,1:0:0:0:
256,192,47369,1,0,1:0:0:0:
256,192,47682,1,8,1:0:0:0:
256,192,47838,1,8,1:0:0:0:
256,192,47994,1,0,1:0:0:0:
256,192,48150,1,8,1:0:0:0:
256,192,48307,1,8,1:0:0:0:
256,192,48619,1,0,1:0:0:0:
256,192,48775,1,8,1:0:0:0:
256,192,48853,1,8,1:0:0:0:
256,192,48932,1,0,1:0:0:0:
256,192,49088,1,8,1:0:0:0:
256,192,49400,1,8,1:0:0:0:
256,192,49557,1,0,1:0:0:0:
256,192,49713,1,8,1:0:0:0:
256,192,49869,1,8,1:0:0:0:
256,192,50025,1,0,1:0:0:0:
256,192,50182,1,12,1:0:0:0:
256,192,50494,1,0,1:0:0:0:
256,192,50650,1,0,1:0:0:0:
256,192,50807,1,8,1:0:0:0:
256,192,50885,1,8,1:0:0:0:
256,192,50963,1,0,1:0:0:0:
256,192,51119,1,8,1:0:0:0:
256,192,51275,1,0,1:0:0:0:
256,192,51588,1,0,1:0:0:0:
256,192,51744,1,8,1:0:0:0:
256,192,51900,1,0,1:0:0:0:
256,192,52057,1,8,1:0:0:0:
256,192,52135,1,0,1:0:0:0:
256,192,52213,1,8,1:0:0:0:
256,192,52369,1,0,1:0:0:0:
256,192,52525,1,0,1:0:0:0:
256,192,52682,1,8,1:0:0:0:
256,192,52994,1,0,1:0:0:0:
256,192,53150,1,0,1:0:0:0:
256,192,53307,1,8,1:0:0:0:
256,192,53463,1,8,1:0:0:0:
256,192,53541,1,8,1:0:0:0:
256,192,53619,1,0,1:0:0:0:
256,192,53775,1,8,1:0:0:0:
256,192,54088,1,8,1:0:0:0:
256,192,54244,1,0,1:0:0:0:
256,192,54322,1,8,1:0:0:0:
256,192,54400,1,0,1:0:0:0:
256,192,54557,1,8,1:0:0:0:
256,192,54713,1,8,1:0:0:0:
256,192,54869,1,0,1:0:0:0:
256,192,55025,1,0,1:0:0:0:
256,192,55182,1,8,1:0:0:0:
256,192,55494,1,0,1:0:0:0:
256,192,55650,1,0,1:0:0:0:
256,192,55807,1,8,1:0:0:0:
256,192,55885,1,0,1:0:0:0:
256,192,55963,1,8,1:0:0:0:
256,192,56119,1,0,1:0:0:0:
256,192,56275,1,8,1:0:0:0:
256,192,56588,1,8,1:0:0:0:
256,192,56744,1,8,1:0:0:0:
256,192,56900,1,0,1:0:0:0:
256,192,57057,1,8,1:0:0:0:
256,192,57682,1,4,1:0:0:0:
256,192,57994,1,8,1:0:0:0:
256,192,58307,1,0,1:0:0:0:
256,192,58463,1,8,1:0:0:0:
256,192,58619,1,0,1:0:0:0:
256,192,58775,1,8,1:0:0:0:
256,192,58853,1,8,1:0:0:0:
256,192,58932,1,0,1:0:0:0:
256,192,59088,1,8,1:0:0:0:
256,192,59244,1,0,1:0:0:0:
256,192,59322,1,8,1:0:0:0:
256,192,59400,1,0,1:0:0:0:
256,192,59557,1,8,1:0:0:0:
256,192,59713,1,0,1:0:0:0:
256,192,60025,1,0,1:0:0:0:
256,192,60182,1,8,1:0:0:0:
256,192,60494,1,0,1:0:0:0:
256,192,60807,1,8,1:0:0:0:
256,192,60963,1,0,1:0:0:0:
256,192,61119,1,8,1:0:0:0:
256,192,61275,1,8,1:0:0:0:
256,192,61353,1,8,1:0:0:0:
256,192,61432,1,0,1:0:0:0:
256,192,61588,1,8,1:0:0:0:
256,192,61744,1,0,1:0:0:0:
256,192,61822,1,8,1:0:0:0:
256,192,61900,1,0,1:0:0:0:
256,192,62057,1,8,1:0:0:0:
256,192,62213,1,0,1:0:0:0:
256,192,62525,1,0,1:0:0:0:
256,192,62682,1,8,1:0:0:0:
256,192,62994,1,0,1:0:0:0:
256,192,63150,1,0,1:0:0:0:
256,192,63228,1,0,1:0:0:0:
256,192,63307,1,8,1:0:0:0:
256,192,63463,1,0,1:0:0:0:
256,192,63775,1,0,1:0:0:0:
256,192,63932,1,8,1:0:0:0:
256,192,64088,1,0,1:0:0:0:
256,192,64244,1,8,1:0:0:0:
256,192,64322,1,8,1:0:0:0:
256,192,64400,1,0,1:0:0:0:
256,192,64557,1,8,1:0:0:0:
256,192,64869,1,0,1:0:0:0:
256,192,65025,1,0,1:0:0:0:
256,192,65182,1,12,1:0:0:0:
256,192,65494,1,0,1:0:0:0:
256,192,65650,1,0,1:0:0:0:
256,192,65807,1,8,1:0:0:0:
256,192,65885,1,8,1:0:0:0:
256,192,65963,1,0,1:0:0:0:
256,192,66119,1,8,1:0:0:0:
256,192,66275,1,0,1:0:0:0:
256,192,66588,1,0,1:0:0:0:
256,192,66744,1,8,1:0:0:0:
256,192,66822,1,0,1:0:0:0:
256,192,66900,1,8,1:0:0:0:
256,192,67057,1,8,1:0:0:0:
256,192,67369,1,0,1:0:0:0:
256,192,67525,1,0,1:0:0:0:
256,192,67682,1,8,1:0:0:0:
256,192,67760,1,8,1:0:0:0:
256,192,67838,1,0,1:0:0:0:
256,192,67994,1,8,1:0:0:0:
256,192,68307,1,8,1:0:0:0:
256,192,68463,1,8,1:0:0:0:
256,192,68619,1,0,1:0:0:0:
256,192,68775,1,8,1:0:0:0:
256,192,68853,1,8,1:0:0:0:
256,192,68932,1,0,1:0:0:0:
256,192,69088,1,8,1:0:0:0:
256,192,69400,1,8,1:0:0:0:
256,192,69557,1,0,1:0:0:0:
256,192,69635,1,8,1:0:0:0:
256,192,69713,1,0,1:0:0:0:
256,192,69869,1,8,1:0:0:0:
256,192,70025,1,8,1:0:0:0:
256,192,70182,1,0,1:0:0:0:
256,192,70494,1,8,1:0:0:0:
256,192,70650,1,8,1:0:0:0:
256,192,70807,1,0,1:0:0:0:
256,192,70885,1,8,1:0:0:0:
256,192,70963,1,0,1:0:0:0:
256,192,71119,1,8,1:0:0:0:
256,192,71275,1,0,1:0:0:0:
256,192,71588,1,0,1:0:0:0:
256,192,71744,1,8,1:0:0:0:
256,192,71822,1,8,1:0:0:0:
256,192,71900,1,0,1:0:0:0:
256,192,72057,1,8,1:0:0:0:
256,192,72369,1,8,1:0:0:0:
256,192,72525,1,8,1:0:0:0:
256,192,72682,1,0,1:0:0:0:
256,192,72994,1,8,1:0:0:0:
256,192,73150,1,8,1:0:0:0:
256,192,73228,1,8,1:0:0:0:
256,192,73307,1,0,1:0:0:0:
256,192,73463,1,8,1:0:0:0:
256,192,73619,1,0,1:0:0:0:
256,192,73697,1,8,1:0:0:0:
256,192,73775,1,0,1:0:0:0:
256,192,73932,1,8,1:0:0:0:
256,192,74088,1,0,1:0:0:0:
256,192,74400,1,0,1:0:0:0:
256,192,74557,1,8,1:0:0:0:
256,192,74713,1,0,1:0:0:0:
256,192,74869,1,8,1:0:0:0:
256,192,75025,1,8,1:0:0:0:
256,192,75182,1,4,1:0:0:0:
256,192,75494,1,8,1:0:0:0:
256,192,75650,1,8,1:0:0:0:
256,192,75807,1,0,1:0:0:0:
256,192,75885,1,8,1:0:0:0:
256,192,75963,1,0,1:0:0:0:
256,192,76119,1,0,1:0:0:0:
256,192,76275,1,8,1:0:0:0:
256,192,76588,1,8,1:0:0:0:
256,192,76744,1,8,1:0:0:0:
256,192,76822,1,8,1:0:0:0:
256,192,76900,1,0,1:0:0:0:
256,192,77057,1,8,1:0:0:0:
256,192,77369,1,0,1:0:0:0:
256,192,77525,1,0,1:0:0:0:
256,192,77682,1,8,1:0:0:0:
256,192,77760,1,0,1:0:0:0:
256,192,77838,1,8,1:0:0:0:
256,192,77994,1,0,1:0:0:0:
256,192,78307,1,8,1:0:0:0:
256,192,78463,1,8,1:0:0:0:
256,192,78619,1,0,1:0:0:0:
256,192,78775,1,8,1:0:0:0:
256,192,78853,1,8,1:0:0:0:
256,192,78932,1,0,1:0:0:0:
256,192,79088,1,8,1:0:0:0:
256,192,79400,1,8,1:0:0:0:
256,192,79557,1,0,1:0:0:0:
256,192,79635,1,8,1:0:0:0:
256,192,79713,1,0,1:0:0:0:
256,192,79869,1,8,1:0:0:0:
256,192,80025,1,8,1:0:0:0:
256,192,80182,1,4,1:0:0:0:
256,192,80494,1,8,1:0:0:0:
256,192,80650,1,0,1:0:0:0:
256,192,80807,1,8,1:0:0:0:
256,192,80885,1,8,1:0:0:0:
256,192,80963,1,0,1:0:0:0:
256,192,81119,1,8,1:0:0:0:
256,192,81275,1,0,1:0:0:0:
256,192,81588,1,0,1:0:0:0:
256,192,81744,1,8,1:0:0:0:
256,192,81822,1,8,1:0:0:0:
256,192,81900,1,0,1:0:0:0:
256,192,82057,1,8,1:0:0:0:
256,192,82369,1,0,1:0:0:0:
256,192,82525,1,0,1:0:0:0:
256,192,82682,1,8,1:0:0:0:
256,192,82994,1,0,1:0:0:0:
256,192,83150,1,8,1:0:0:0:
256,192,83228,1,0,1:0:0:0:
256,192,83307,1,8,1:0:0:0:
256,192,83463,1,0,1:0:0:0:
256,192,83619,1,8,1:0:0:0:
256,192,83697,1,8,1:0:0:0:
256,192,83775,1,0,1:0:0:0:
256,192,83853,1,0,1:0:0:0:
256,192,83932,1,8,1:0:0:0:
256,192,84088,1,8,1:0:0:0:
256,192,84244,1,0,1:0:0:0:
256,192,84400,1,0,1:0:0:0:
256,192,84557,1,8,1:0:0:0:
256,192,84635,1,8,1:0:0:0:
256,192,84713,1,0,1:0:0:0:
256,192,84869,1,8,1:0:0:0:
256,192,85025,1,8,1:0:0:0:
256,192,85182,1,4,1:0:0:0:
256,192,85650,1,0,1:0:0:0:
256,192,85807,1,8,1:0:0:0:
256,192,86119,1,0,1:0:0:0:
256,192,86432,1,8,1:0:0:0:
256,192,86900,1,0,1:0:0:0:
256,192,87057,1,8,1:0:0:0:
256,192,87369,1,0,1:0:0:0:
256,192,87682,1,8,1:0:0:0:
256,192,87994,1,8,1:0:0:0:
256,192,88150,1,0,1:0:0:0:
256,192,88463,1,8,1:0:0:0:
256,192,88619,1,8,1:0:0:0:
256,192,88932,1,0,1:0:0:0:
256,192,89088,1,0,1:0:0:0:
256,192,89244,1,8,1:0:0:0:
256,192,89400,1,8,1:0:0:0:
256,192,89557,1,0,1:0:0:0:
256,192,89869,1,8,1:0:0:0:
256,192,90182,1,0,1:0:0:0:
256,192,90650,1,8,1:0:0:0:
256,192,90807,1,0,1:0:0:0:
256,192,91119,1,8,1:0:0:0:
256,192,91432,1,0,1:0:0:0:
256,192,91900,1,8,1:0:0:0:
256,192,92057,1,0,1:0:0:0:
256,192,92369,1,8,1:0:0:0:
256,192,92682,1,4,1:0:0:0:
256,192,92994,1,8,1:0:0:0:
256,192,93150,1,8,1:0:0:0:
256,192,93307,1,4,1:0:0:0:
256,192,93619,1,8,1:0:0:0:
256,192,93775,1,0,1:0:0:0:
256,192,93932,1,8,1:0:0:0:
256,192,94244,1,0,1:0:0:0:
256,192,94400,1,0,1:0:0:0:
256,192,94557,1,8,1:0:0:0:
256,192,94635,1,0,1:0:0:0:
256,192,94713,1,8,1:0:0:0:
256,192,94869,1,0,1:0:0:0:
256,192,95182,1,12,1:0:0:0:
256,192,95494,1,0,1:0:0:0:
256,192,95650,1,0,1:0:0:0:
256,192,95807,1,8,1:0:0:0:
256,192,95885,1,8,1:0:0:0:
256,192,95963,1,0,1:0:0:0:
256,192,96119,1,8,1:0:0:0:
256,192,96275,1,0,1:0:0:0:
256,192,96588,1,0,1:0:0:0:
256,192,96744,1,8,1:0:0:0:
256,192,96900,1,8,1:0:0:0:
256,192,97057,1,0,1:0:0:0:
256,192,97135,1,8,1:0:0:0:
256,192,97213,1,0,1:0:0:0:
256,192,97369,1,8,1:0:0:0:
256,192,97525,1,8,1:0:0:0:
256,192,97682,1,0,1:0:0:0:
256,192,97994,1,8,1:0:0:0:
256,192,98150,1,8,1:0:0:0:
256,192,98307,1,0,1:0:0:0:
256,192,98463,1,8,1:0:0:0:
256,192,98541,1,0,1:0:0:0:
256,192,98619,1,8,1:0:0:0:
256,192,98775,1,0,1:0:0:0:
256,192,99088,1,8,1:0:0:0:
256,192,99244,1,8,1:0:0:0:
256,192,99322,1,8,1:0:0:0:
256,192,99400,1,0,1:0:0:0:
256,192,99557,1,8,1:0:0:0:
256,192,99713,1,0,1:0:0:0:
256,192,99869,1,8,1:0:0:0:
256,192,100025,1,8,1:0:0:0:
256,192,100182,1,0,1:0:0:0:
256,192,100494,1,8,1:0:0:0:
256,192,100650,1,0,1:0:0:0:
256,192,100807,1,8,1:0:0:0:
256,192,100885,1,0,1:0:0:0:
256,192,100963,1,8,1:0:0:0:
256,192,101119,1,8,1:0:0:0:
256,192,101275,1,0,1:0:0:0:
256,192,101588,1,0,1:0:0:0:
256,192,101744,1,8,1:0:0:0:
256,192,101900,1,8,1:0:0:0:
256,192,102057,1,0,1:0:0:0:
256,192,102682,1,12,1:0:0:0:
256,192,102994,1,0,1:0:0:0:
256,192,103307,1,8,1:0:0:0:
256,192,103463,1,8,1:0:0:0:
256,192,103619,1,0,1:0:0:0:
256,192,103775,1,8,1:0:0:0:
256,192,103853,1,8,1:0:0:0:
256,192,103932,1,0,1:0:0:0:
256,192,104088,1,8,1:0:0:0:
256,192,104244,1,0,1:0:0:0:
256,192,104322,1,8,1:0:0:0:
256,192,104400,1,0,1:0:0:0:
256,192,104557,1,8,1:0:0:0:
256,192,104713,1,0,1:0:0:0:
256,192,105025,1,0,1:0:0:0:
256,192,105182,1,8,1:0:0:0:
256,192,105494,1,0,1:0:0:0:
256,192,105807,1,8,1:0:0:0:
256,192,105963,1,0,1:0:0:0:
256,192,106119,1,0,1:0:0:0:
256,192,106275,1,8,1:0:0:0:
256,192,106353,1,8,1:0:0:0:
256,192,106432,1,0,1:0:0:0:
256,192,106588,1,8,1:0:0:0:
256,192,106744,1,0,1:0:0:0:
256,192,106822,1,8,1:0:0:0:
256,192,106900,1,0,1:0:0:0:
256,192,107057,1,8,1:0:0:0:
256,192,107213,1,0,1:0:0:0:
256,192,107525,1,0,1:0:0:0:
256,192,107682,1,8,1:0:0:0:
256,192,107994,1,0,1:0:0:0:
256,192,108150,1,0,1:0:0:0:
256,192,108228,1,0,1:0:0:0:
256,192,108307,1,8,1:0:0:0:
256,192,108463,1,0,1:0:0:0:
256,192,108775,1,0,1:0:0:0:
256,192,108932,1,8,1:0:0:0:
256,192,109088,1,0,1:0:0:0:
256,192,109244,1,8,1:0:0:0:
256,192,109322,1,0,1:0:0:0:
256,192,109400,1,8,1:0:0:0:
256,192,109557,1,0,1:0:0:0:
256,192,109869,1,8,1:0:0:0:
256,192,110182,1,4,1:0:0:0:
256,192,110494,1,8,1:0:0:0:
256,192,110650,1,0,1:0:0:0:
256,192,110807,1,8,1:0:0:0:
256,192,111119,1,0,1:0:0:0:
256,192,111275,1,8,1:0:0:0:
256,192,111432,1,0,1:0:0:0:
256,192,111588,1,8,1:0:0:0:
256,192,111744,1,8,1:0:0:0:
256,192,111900,1,0,1:0:0:0:
256,192,112057,1,8,1:0:0:0:
256,192,112369,1,0,1:0:0:0:
256,192,112525,1,0,1:0:0:0:
256,192,112682,1,8,1:0:0:0:
256,192,112994,1,8,1:0:0:0:
256,192,113150,1,8,1:0:0:0:
256,192,113307,1,0,1:0:0:0:
256,192,113619,1,0,1:0:0:0:
256,192,113775,1,8,1:0:0:0:
256,192,113932,1,0,1:0:0:0:
256,192,114088,1,8,1:0:0:0:
256,192,114244,1,0,1:0:0:0:
256,192,114400,1,0,1:0:0:0:
256,192,114557,1,8,1:0:0:0:
256,192,114869,1,8,1:0:0:0:
256,192,115025,1,0,1:0:0:0:
256,192,115182,1,8,1:0:0:0:
256,192,115494,1,0,1:0:0:0:
256,192,115650,1,0,1:0:0:0:
256,192,115807,1,8,1:0:0:0:
256,192,116119,1,0,1:0:0:0:
256,192,116275,1,8,1:0:0:0:
256,192,116432,1,0,1:0:0:0:
256,192,116588,1,8,1:0:0:0:
256,192,116744,1,8,1:0:0:0:
256,192,116900,1,8,1:0:0:0:
256,192,117057,1,0,1:0:0:0:
256,192,117682,1,12,1:0:0:0:
256,192,117994,1,0,1:0:0:0:
256,192,118307,1,8,1:0:0:0:
256,192,118463,1,8,1:0:0:0:
256,192,118619,1,0,1:0:0:0:
256,192,118775,1,8,1:0:0:0:
256,192,118853,1,8,1:0:0:0:
256,192,118932,1,0,1:0:0:0:
256,192,119088,1,8,1:0:0:0:
256,192,119244,1,0,1:0:0:0:
256,192,119322,1,8,1:0:0:0:
256,192,119400,1,0,1:0:0:0:
256,192,119557,1,8,1:0:0:0:
256,192,119713,1,0,1:0:0:0:
256,192,120025,1,0,1:0:0:0:
256,192,120182,1,8,1:0:0:0:
256,192,120494,1,0,1:0:0:0:
256,192,120807,1,8,1:0:0:0:
256,192,120963,1,8,1:0:0:0:
256,192,121119,1,0,1:0:0:0:
256,192,121275,1,0,1:0:0:0:
256,192,121353,1,8,1:0:0:0:
256,192,121432,1,0,1:0:0:0:
256,192,121588,1,8,1:0:0:0:
256,192,121744,1,8,1:0:0:0:
256,192,121822,1,0,1:0:0:0:
256,192,121900,1,8,1:0:0:0:
256,192,122057,1,8,1:0:0:0:
256,192,122213,1,0,1:0:0:0:
256,192,122525,1,0,1:0:0:0:
256,192,122682,1,8,1:0:0:0:
256,192,122994,1,8,1:0:0:0:
256,192,123150,1,0,1:0:0:0:
256,192,123228,1,0,1:0:0:0:
256,192,123307,1,8,1:0:0:0:
256,192,123463,1,0,1:0:0:0:
256,192,123775,1,8,1:0:0:0:
256,192,123932,1,0,1:0:0:0:
256,192,124088,1,0,1:0:0:0:
256,192,124166,1,0,1:0:0:0:
256,192,124244,1,8,1:0:0:0:
256,192,124400,1,8,1:0:0:0:
256,192,124557,1,0,1:0:0:0:
256,192,124869,1,8,1:0:0:0:
256,192,125182,1,4,1:0:0:0:
256,192,125338,1,8,1:0:0:0:
256,192,125650,1,8,1:0:0:0:
256,192,125807,1,0,1:0:0:0:
256,192,125963,1,8,1:0:0:0:
256,192,126119,1,0,1:0:0:0:
256,192,126275,1,0,1:0:0:0:
256,192,126432,1,8,1:0:0:0:
256,192,126588,1,0,1:0:0:0:
256,192,126900,1,0,1:0:0:0:
256,192,127057,1,8,1:0:0:0:
256,192,127213,1,0,1:0:0:0:
256,192,127525,1,0,1:0:0:0:
256,192,127682,1,8,1:0:0:0:
256,192,127838,1,8,1:0:0:0:
256,192,127994,1,0,1:0:0:0:
256,192,128150,1,8,1:0:0:0:
256,192,128307,1,0,1:0:0:0:
256,192,128463,1,0,1:0:0:0:
256,192,128619,1,8,1:0:0:0:
256,192,128775,1,8,1:0:0:0:
256,192,128932,1,0,1:0:0:0:
256,192,129088,1,8,1:0:0:0:
256,192,129400,1,0,1:0:0:0:
256,192,129557,1,8,1:0:0:0:
256,192,129869,1,8,1:0:0:0:
256,192,130025,1,8,1:0:0:0:
256,192,130182,1,0,1:0:0:0:
256,192,130494,1,0,1:0:0:0:
256,192,130650,1,8,1:0:0:0:
256,192,130807,1,8,1:0:0:0:
256,192,130963,1,0,1:0:0:0:
256,192,131119,1,8,1:0:0:0:
256,192,131275,1,8,1:0:0:0:
256,192,131432,1,0,1:0:0:0:
256,192,131588,1,8,1:0:0:0:
256,192,131744,1,0,1:0:0:0:
256,192,132057,1,8,1:0:0:0:
256,192,132213,1,8,1:0:0:0:
256,192,132369,1,0,1:0:0:0:
256,192,132525,1,8,1:0:0:0:
256,192,132682,1,0,1:0:0:0:
256,192,132838,1,0,1:0:0:0:
256,192,132994,1,8,1:0:0:0:
256,192,133150,1,8,1:0:0:0:
256,192,133307,1,0,1:0:0:0:
256,192,133619,1,0,1:0:0:0:
256,192,133775,1,0,1:0:0:0:
256,192,133932,1,8,1:0:0:0:
256,192,134088,1,0,1:0:0:0:
256,192,134400,1,0,1:0:0:0:
256,192,134557,1,8,1:0:0:0:
256,192,134869,1,8,1:0:0:0:
256,192,135025,1,8,1:0:0:0:
256,192,135182,1,4,1:0:0:0:
256,192,135494,1,8,1:0:0:0:
256,192,135650,1,0,1:0:0:0:
256,192,135807,1,8,1:0:0:0:
256,192,135963,1,8,1:0:0:0:
256,192,136119,1,0,1:0:0:0:
256,192,136275,1,8,1:0:0:0:
256,192,136588,1,8,1:0:0:0:
256,192,136744,1,0,1:0:0:0:
256,192,137057,1,8,1:0:0:0:
256,192,137213,1,8,1:0:0:0:
256,192,137369,1,0,1:0:0:0:
256,192,137525,1,8,1:0:0:0:
256,192,137682,1,0,1:0:0:0:
256,192,137838,1,0,1:0:0:0:
256,192,137994,1,8,1:0:0:0:
256,192,138150,1,8,1:0:0:0:
256,192,138307,1,0,1:0:0:0:
256,192,138619,1,8,1:0:0:0:
256,192,138775,1,8,1:0:0:0:
256,192,138932,1,0,1:0:0:0:
256,192,139088,1,8,1:0:0:0:
256,192,139400,1,8,1:0:0:0:
256,192,139557,1,0,1:0:0:0:
256,192,139869,1,0,1:0:0:0:
256,192,140025,1,0,1:0:0:0:
256,192,140182,1,8,1:0:0:0:
256,192,140494,1,0,1:0:0:0:
256,192,140650,1,8,1:0:0:0:
256,192,140807,1,8,1:0:0:0:
256,192,140963,1,0,1:0:0:0:
256,192,141119,1,8,1:0:0:0:
256,192,141275,1,0,1:0:0:0:
256,192,141432,1,8,1:0:0:0:
256,192,141588,1,0,1:0:0:0:
256,192,141900,1,0,1:0:0:0:
256,192,142057,1,8,1:0:0:0:
256,192,142213,1,8,1:0:0:0:
256,192,142369,1,0,1:0:0:0:
256,192,142525,1,0,1:0:0:0:
256,192,142682,1,8,1:0:0:0:
256,192,142994,1,8,1:0:0:0:
256,192,143150,1,8,1:0:0:0:
256,192,143307,1,0,1:0:0:0:
256,192,143463,1,8,1:0:0:0:
256,192,143619,1,8,1:0:0:0:
256,192,143697,1,0,1:0:0:0:
256,192,143775,1,8,1:0:0:0:
256,192,143932,1,0,1:0:0:0:
256,192,144088,1,8,1:0:0:0:
256,192,144244,1,0,1:0:0:0:
256,192,144400,1,0,1:0:0:0:
256,192,144557,1,8,1:0:0:0:
256,192,144869,1,0,1:0:0:0:
256,192,145025,1,0,1:0:0:0:
256,192,145182,1,12,1:0:0:0:
256,192,145338,1,0,1:0:0:0:
256,192,145494,1,8,1:0:0:0:
256,192,145572,1,0,1:0:0:0:
256,192,145650,1,8,1:0:0:0:
256,192,145807,1,8,1:0:0:0:
256,192,145885,1,0,1:0:0:0:
256,192,145963,1,8,1:0:0:0:
256,192,146041,1,8,1:0:0:0:
256,192,146119,1,0,1:0:0:0:
256,192,146275,1,8,1:0:0:0:
256,192,146588,1,8,1:0:0:0:
256,192,146744,1,0,1:0:0:0:
256,192,146822,1,8,1:0:0:0:
256,192,146900,1,0,1:0:0:0:
256,192,147057,1,8,1:0:0:0:
256,192,147213,1,8,1:0:0:0:
256,192,147369,1,0,1:0:0:0:
256,192,147682,1,8,1:0:0:0:
256,192,147994,1,8,1:0:0:0:
256,192,148150,1,0,1:0:0:0:
256,192,148307,1,8,1:0:0:0:
256,192,148385,1,8,1:0:0:0:
256,192,148463,1,0,1:0:0:0:
256,192,148619,1,8,1:0:0:0:
256,192,148775,1,0,1:0:0:0:
256,192,148853,1,0,1:0:0:0:
256,192,148932,1,8,1:0:0:0:
256,192,149088,1,8,1:0:0:0:
256,192,149166,1,8,1:0:0:0:
256,192,149244,1,0,1:0:0:0:
256,192,149400,1,0,1:0:0:0:
256,192,149557,1,8,1:0:0:0:
256,192,149635,1,0,1:0:0:0:
256,192,149713,1,8,1:0:0:0:
256,192,149869,1,8,1:0:0:0:
256,192,150025,1,8,1:0:0:0:
256,192,150182,1,0,1:0:0:0:
256,192,150494,1,8,1:0:0:0:
256,192,150650,1,0,1:0:0:0:
256,192,150807,1,8,1:0:0:0:
256,192,150885,1,8,1:0:0:0:
256,192,150963,1,0,1:0:0:0:
256,192,151041,1,0,1:0:0:0:
256,192,151119,1,8,1:0:0:0:
256,192,151275,1,0,1:0:0:0:
256,192,151353,1,8,1:0:0:0:
256,192,151432,1,0,1:0:0:0:
256,192,151588,1,8,1:0:0:0:
256,192,151666,1,8,1:0:0:0:
256,192,151744,1,0,1:0:0:0:
256,192,151900,1,8,1:0:0:0:
256,192,152057,1,8,1:0:0:0:
256,192,152135,1,8,1:0:0:0:
256,192,152213,1,0,1:0:0:0:
256,192,152369,1,8,1:0:0:0:
256,192,152525,1,8,1:0:0:0:
256,192,152682,1,0,1:0:0:0:
256,192,152994,1,8,1:0:0:0:
256,192,153150,1,8,1:0:0:0:
256,192,153307,1,0,1:0:0:0:
256,192,153385,1,0,1:0:0:0:
256,192,153463,1,0,1:0:0:0:
256,192,153541,1,0,1:0:0:0:
256,192,153619,1,8,1:0:0:0:
256,192,153775,1,8,1:0:0:0:
256,192,153853,1,8,1:0:0:0:
256,192,153932,1,0,1:0:0:0:
256,192,154088,1,0,1:0:0:0:
256,192,154166,1,8,1:0:0:0:
256,192,154244,1,0,1:0:0:0:
256,192,154400,1,8,1:0:0:0:
256,192,154557,1,0,1:0:0:0:
256,192,154869,1,0,1:0:0:0:
256,192,155025,1,0,1:0:0:0:
256,192,155182,1,12,1:0:0:0:
256,192,155338,1,0,1:0:0:0:
256,192,155494,1,8,1:0:0:0:
256,192,155572,1,8,1:0:0:0:
256,192,155650,1,0,1:0:0:0:
256,192,155807,1,8,1:0:0:0:
256,192,155885,1,0,1:0:0:0:
256,192,155963,1,8,1:0:0:0:
256,192,156041,1,8,1:0:0:0:
256,192,156119,1,0,1:0:0:0:
256,192,156275,1,8,1:0:0:0:
256,192,156588,1,8,1:0:0:0:
256,192,156744,1,0,1:0:0:0:
256,192,156822,1,8,1:0:0:0:
256,192,156900,1,0,1:0:0:0:
256,192,157057,1,8,1:0:0:0:
256,192,157213,1,0,1:0:0:0:
256,192,157369,1,8,1:0:0:0:
256,192,157682,1,0,1:0:0:0:
256,192,157994,1,8,1:0:0:0:
256,192,158150,1,0,1:0:0:0:
256,192,158307,1,8,1:0:0:0:
256,192,158385,1,8,1:0:0:0:
256,192,158463,1,0,1:0:0:0:
256,192,158619,1,8,1:0:0:0:
256,192,158775,1,0,1:0:0:0:
256,192,158853,1,0,1:0:0:0:
256,192,158932,1,8,1:0:0:0:
256,192,159088,1,0,1:0:0:0:
256,192,159166,1,8,1:0:0:0:
256,192,159244,1,0,1:0:0:0:
256,192,159400,1,8,1:0:0:0:
256,192,159557,1,8,1:0:0:0:
256,192,159635,1,0,1:0:0:0:
256,192,159713,1,8,1:0:0:0:
256,192,159869,1,0,1:0:0:0:
256,192,160025,1,0,1:0:0:0:
256,192,160182,1,12,1:0:0:0:
256,192,160494,1,0,1:0:0:0:
256,192,160650,1,0,1:0:0:0:
256,192,160807,1,8,1:0:0:0:
256,192,160885,1,0,1:0:0:0:
256,192,160963,1,0,1:0:0:0:
256,192,161041,1,0,1:0:0:0:
256,192,161119,1,8,1:0:0:0:
256,192,161275,1,8,1:0:0:0:
256,192,161353,1,8,1:0:0:0:
256,192,161432,1,0,1:0:0:0:
256,192,161588,1,0,1:0:0:0:
256,192,161666,1,8,1:0:0:0:
256,192,161744,1,0,1:0:0:0:
256,192,161900,1,8,1:0:0:0:
256,192,162057,1,8,1:0:0:0:
256,192,162135,1,0,1:0:0:0:
256,192,162213,1,8,1:0:0:0:
256,192,162369,1,0,1:0:0:0:
256,192,162525,1,0,1:0:0:0:
256,192,162682,1,8,1:0:0:0:
256,192,162994,1,8,1:0:0:0:
256,192,163150,1,0,1:0:0:0:
256,192,163463,1,0,1:0:0:0:
256,192,163619,1,12,1:0:0:0:
