osu file format v14

[General]
AudioFilename: audio.ogg
AudioLeadIn: 0
PreviewTime: 58693
Countdown: 0
SampleSet: Normal
StackLeniency: 0.7
Mode: 1
LetterboxInBreaks: 0
WidescreenStoryboard: 0

[Editor]
Bookmarks: 12176,25659,48580,70153,80940,91726,103861,109254,125434,147007,157794,168580,218468,229254,240041,261614,272401,283187,293974,331390
DistanceSpacing: 0.6
BeatDivisor: 4
GridSize: 32
TimelineZoom: 4.599998

[Metadata]
Title:Doukoku no Hate ni Saita Hana
TitleUnicode:慟哭の果てに咲いた華
Artist:Zemeth
ArtistUnicode:Zemeth
Creator:WitchRabbit
Version:Disastatastrophe
Source:
Tags:MONOCHROME BLOOD JUNYA ZMTH0002 metal japanese Zemeth Nostalgic Melodic Death Neo Classical Instrumental
BeatmapID:3508615
BeatmapSetID:1716960

[Difficulty]
HPDrainRate:5
CircleSize:4
OverallDifficulty:6.2
ApproachRate:5
SliderMultiplier:1.4
SliderTickRate:1

[Events]
//Background and Video events
0,0,"4381b4f7201774cbd9e419f01e9da72075f5e026.jpg",0,50
//Break Periods
//Storyboard Layer 0 (Background)
//Storyboard Layer 1 (Fail)
//Storyboard Layer 2 (Pass)
//Storyboard Layer 3 (Foreground)
//Storyboard Layer 4 (Overlay)
//Storyboard Sound Samples

[TimingPoints]
36,337.078651685393,4,1,0,70,1,8
1384,337.078651685393,4,1,0,70,1,8
1385,337.078651685393,4,1,0,70,1,0
1385,-133.333333333333,4,1,0,70,0,0
1551,-132.365647140142,4,1,0,70,0,0
1720,-131.406270103358,4,1,0,70,0,0
1888,-130.466255056419,4,1,0,70,0,0
2057,-129.534116851273,4,1,0,70,0,0
2225,-128.620602804131,4,1,0,70,0,0
2309,-128.1686605873,4,1,0,70,0,0
2394,-127.714559626527,4,1,0,70,0,0
2478,-127.268951194185,4,1,0,71,0,0
2562,-126.826441491784,4,1,0,71,0,0
2647,-126.381785183963,4,1,0,71,0,0
2731,-125.945412693193,4,1,0,71,0,0
2899,-125.081645983018,4,1,0,71,0,0
3068,-124.22460977093,4,1,0,71,0,0
3236,-123.384206499416,4,1,0,71,0,0
3405,-122.550195984321,4,1,0,71,0,0
3574,-121.727384688729,4,1,0,71,0,0
3658,-121.322510393981,4,1,0,71,0,0
3742,-120.920320454635,4,1,0,71,0,0
3826,-120.520788262597,4,1,0,71,0,0
3911,-120.119178297005,4,1,0,71,0,0
3995,-119.724914035636,4,1,0,71,0,0
4079,-119.333229474996,4,1,0,71,0,0
4248,-118.552911588315,4,1,0,71,0,0
4416,-117.787260216046,4,1,0,71,0,0
4585,-117.02696509052,4,1,0,71,0,0
4753,-116.280834914611,4,1,0,72,0,0
4922,-115.539801651646,4,1,0,72,0,0
5006,-115.174980265384,4,1,0,72,0,0
5090,-114.812455502679,4,1,0,72,0,0
5175,-114.447930673838,4,1,0,72,0,0
5259,-114.089961274948,4,1,0,72,0,0
5343,-113.73422420193,4,1,0,72,0,0
5427,-113.380698638247,4,1,0,72,0,0
5596,-112.676056338028,4,1,0,72,0,0
5680,-112.329068445943,4,1,0,72,0,0
5765,-111.980118412397,4,1,0,72,0,0
5933,-111.296767163095,4,1,0,72,0,0
6102,-110.617711830752,4,1,0,72,0,0
6270,-109.950837908637,4,1,0,72,0,0
6354,-109.620407141068,4,1,0,72,0,0
6439,-109.288058210872,4,1,0,72,0,0
6523,-108.961593172119,4,1,0,72,0,0
6607,-108.637072755637,4,1,0,72,0,0
6691,-108.314479638009,4,1,0,72,0,0
6776,-107.989990483911,4,1,0,73,0,0
6944,-107.354332363968,4,1,0,73,0,0
7029,-107.035562076434,4,1,0,73,0,0
7113,-106.722396377569,4,1,0,73,0,0
7281,-106.10153057691,4,1,0,73,0,0
7450,-105.484215237374,4,1,0,73,0,0
7618,-104.877631353757,4,1,0,73,0,0
7787,-104.274435066703,4,1,0,73,0,0
7871,-103.977195602009,4,1,0,73,0,0
7956,-103.678137583325,4,1,0,73,0,0
8124,-103.092089768177,4,1,0,73,0,0
8293,-102.509200401472,4,1,0,73,0,0
8377,-102.221925668913,4,1,0,73,0,0
8461,-101.93625657063,4,1,0,73,0,0
8630,-101.366328117246,4,1,0,73,0,0
8798,-100.806053627241,4,1,0,73,0,0
8967,-100.248658552545,4,1,0,74,0,0
9051,-99.97389715479,4,1,0,74,0,0
9135,-99.700637771704,4,1,0,74,0,0
9220,-99.425641691274,4,1,0,74,0,0
9304,-99.155367140222,4,1,0,74,0,0
9388,-98.886558011941,4,1,0,74,0,0
9472,-98.619202420419,4,1,0,74,0,0
9641,-98.08566489532,4,1,0,74,0,0
9725,-97.822616691144,4,1,0,74,0,0
9809,-97.560975609756,4,1,0,74,0,0
9978,-97.038796516231,4,1,0,74,0,0
10147,-96.522177419355,4,1,0,74,0,0
10323,337.078651685393,4,1,0,74,1,8
10323,-96.014038606167,4,1,0,74,0,0
10405,-95.761970246281,4,1,0,74,0,0
10489,-95.508244755463,4,1,0,74,0,0
10658,-95.01069800614,4,1,0,74,0,0
10828,337.078651685393,4,1,0,74,1,0
10828,-94.515392683077,4,1,0,74,0,0
10994,-94.028110231388,4,1,0,74,0,0
11078,-93.783477701937,4,1,0,75,0,0
11163,-93.542970538849,4,1,0,75,0,0
11247,-93.303693778739,4,1,0,75,0,0
11331,-93.065638003827,4,1,0,75,0,0
11500,-92.590354164148,4,1,0,75,0,0
11668,-92.122669873722,4,1,0,75,0,0
11752,-91.88783925626,4,1,0,75,0,0
11837,-91.656944569087,4,1,0,75,0,0
11921,-91.427207352371,4,1,0,75,0,0
12005,-91.198618924309,4,1,0,75,0,0
12090,-90.968469805831,4,1,0,75,0,0
12174,-76.923076923077,4,1,0,85,0,0
12848,-90.909090909091,4,1,0,75,0,0
13101,-85.10101010101,4,1,0,75,0,0
13354,-79.990505577973,4,1,0,75,0,0
13522,-76.923076923077,4,1,0,85,0,0
14028,-90.909090909091,4,1,0,75,0,0
14112,-89.291388624086,4,1,0,75,0,0
14196,-87.730252887918,4,1,0,75,0,0
14365,-84.749170604202,4,1,0,75,0,0
14533,-81.964025279533,4,1,0,75,0,0
14702,-79.371057339234,4,1,0,75,0,0
14870,-76.923076923077,4,1,0,75,0,0
15545,-90.909090909091,4,1,0,75,0,0
15797,-85.10101010101,4,1,0,75,0,0
16050,-80.009496676163,4,1,0,75,0,0
16219,-76.923076923077,4,1,0,75,0,0
16724,-90.909090909091,4,1,0,75,0,0
16809,-89.272476967066,4,1,0,75,0,0
16893,-87.711996670482,4,1,0,75,0,0
17230,-82.014806212803,4,1,0,76,0,0
17314,-84.064871298914,4,1,0,76,0,0
17399,-86.246374599298,4,1,0,76,0,0
17483,-88.516371612095,4,1,0,76,0,0
17567,-90.909090909091,4,1,0,76,0,0
17736,-90.909090909091,4,1,0,76,0,0
17904,-90.644137189251,4,1,0,76,0,0
18073,-90.379160035979,4,1,0,77,0,0
18157,-90.248030952052,4,1,0,77,0,0
18241,-90.117281821318,4,1,0,77,0,0
18410,-89.855371545512,4,1,0,77,0,0
18494,-89.725756873251,4,1,0,77,0,0
18663,-89.466114174172,4,1,0,78,0,0
18747,-89.33761925931,4,1,0,78,0,0
18915,-89.081733556109,4,1,0,78,0,0
19084,-88.825799432195,4,1,0,78,0,0
19168,-88.699135926121,4,1,0,78,0,0
19337,-88.445392375923,4,1,0,79,0,0
19421,-88.319810682894,4,1,0,79,0,0
19590,-88.068229702169,4,1,0,79,0,0
19758,-87.819553927089,4,1,0,79,0,0
19842,-87.695741931153,4,1,0,80,0,0
19927,-87.570810847049,4,1,0,80,0,0
20011,-87.44769874477,4,1,0,80,0,0
20095,-87.324932312732,4,1,0,80,0,0
20264,-87.078979384364,4,1,0,80,0,0
20432,-86.835851157534,4,1,0,81,0,0
20517,-86.713356346256,4,1,0,81,0,0
20601,-86.59264169705,4,1,0,81,0,0
20769,-86.352217888544,4,1,0,81,0,0
20854,-86.231082798343,4,1,0,81,0,0
20938,-86.111706247837,4,1,0,82,0,0
21106,-85.873941983729,4,1,0,82,0,0
21191,-85.754144099787,4,1,0,82,0,0
21359,-85.518347572752,4,1,0,82,0,0
21443,-85.400934915498,4,1,0,82,0,0
21612,-85.165685970889,4,1,0,83,0,0
21781,-84.931729518856,4,1,0,83,0,0
21949,-84.700427960057,4,1,0,83,0,0
22118,-84.469017249462,4,1,0,84,0,0
22286,-84.240225715437,4,1,0,84,0,0
22455,-84.01131941988,4,1,0,84,0,0
22623,-83.784997273981,4,1,0,84,0,0
22708,-83.670952968117,4,1,0,85,0,0
22792,-83.558554956741,4,1,0,85,0,0
22876,-83.44645851633,4,1,0,85,0,0
22960,-76.923076923077,4,1,0,85,0,0
24140,-90.909090909091,4,1,0,85,0,0
24224,-83.3744449926,4,1,0,85,0,0
24309,-76.923076923077,4,1,0,85,0,0
25657,-83.333333333333,4,1,0,85,0,0
25741,-83.76833209048,4,1,0,86,0,0
25825,-84.213156743925,4,1,0,87,0,0
25910,-84.657413803931,4,1,0,88,0,0
25994,-85.106382978723,4,1,0,89,0,0
26078,-85.565570648724,4,1,0,90,0,0
26163,-86.024250159541,4,1,0,91,0,0
26247,-86.487873732837,4,1,0,92,0,0
26331,-86.95652173913,4,1,0,93,0,0
26415,-87.435947330869,4,1,0,93,0,0
26500,-87.914954672928,4,1,0,94,0,0
26584,-88.39923929438,4,1,0,95,0,0
26668,-88.888888888889,4,1,0,96,0,0
26752,-89.389920424403,4,1,0,97,0,0
26837,-89.890637503334,4,1,0,98,0,0
26921,-90.396995708154,4,1,0,99,0,0
27007,-90.909090909091,4,1,0,100,0,1
27174,-91.168765317333,4,1,0,100,0,1
27343,-91.429927452709,4,1,0,100,0,1
27427,-91.560293318848,4,1,0,100,0,1
27511,-91.691031481607,4,1,0,100,0,1
27680,-91.955198690738,4,1,0,100,0,1
27848,-92.219315792173,4,1,0,100,0,1
27932,-92.351944116287,4,1,0,100,0,1
28101,-92.619938871527,4,1,0,100,0,1
28185,-92.753722873749,4,1,0,100,0,1
28354,-93.024057946021,4,1,0,100,0,1
28522,-93.294359790373,4,1,0,100,0,1
28607,-93.431718977344,4,1,0,100,0,1
28691,-93.56786011657,4,1,0,100,0,1
28859,-93.84133611691,4,1,0,100,0,1
29028,-94.118057615466,4,1,0,100,0,1
29196,-94.39476401309,4,1,0,100,0,1
29281,-94.535385046794,4,1,0,100,0,1
29449,-94.814554403234,4,1,0,100,0,1
29534,-94.956429891735,4,1,0,100,0,1
29702,-95.238095238095,4,1,0,100,0,1
29871,-95.523128143373,4,1,0,100,0,1
29955,-95.665437003405,4,1,0,100,0,1
30039,-95.808170515098,4,1,0,100,0,1
30208,-96.096631095117,4,1,0,100,0,1
30376,-96.385111591587,4,1,0,100,0,1
30461,-96.531729840009,4,1,0,100,0,1
30545,-96.677062049683,4,1,0,100,0,1
30629,-96.822832525579,4,1,0,100,0,1
30713,-96.969043253155,4,1,0,100,0,1
30882,-97.264547306922,4,1,0,100,0,1
31050,-97.560093327787,4,1,0,100,0,1
31219,-97.859216255443,4,1,0,100,0,1
31303,-98.008576204666,4,1,0,100,0,1
31472,-98.310459839248,4,1,0,100,0,1
31556,-98.461201467609,4,1,0,100,0,1
31725,-98.765884205515,4,1,0,100,0,1
31809,-98.918026774253,4,1,0,100,0,1
31893,-99.070638798075,4,1,0,100,0,1
31977,-99.223722453184,4,1,0,100,0,1
32062,-99.379110857269,4,1,0,100,0,1
32146,-99.533150037828,4,1,0,100,0,1
32230,-99.687667486,4,1,0,100,0,1
32314,-99.687667486,4,1,0,100,0,1
32399,-99.84266543267,4,1,0,100,0,1
48580,-100,4,1,0,90,0,0
48747,-83.333333333333,4,1,0,90,0,0
48831,-85.70460704607,4,1,0,90,0,0
48915,-88.245552842693,4,1,0,90,0,0
49000,-90.909090909091,4,1,0,90,0,0
49084,-93.738421637644,4,1,0,90,0,0
49168,-96.749521988528,4,1,0,90,0,0
49252,-100,4,1,0,90,0,0
49421,-83.333333333333,4,1,0,90,0,0
49505,-85.70460704607,4,1,0,90,0,0
49590,-88.245552842693,4,1,0,90,0,0
49674,-90.909090909091,4,1,0,90,0,0
49758,-93.738421637644,4,1,0,90,0,0
49842,-96.786534047437,4,1,0,90,0,0
49927,-100,4,1,0,90,0,0
50095,-83.333333333333,4,1,0,90,0,0
50179,-85.733649610302,4,1,0,90,0,0
50264,-88.245552842693,4,1,0,90,0,0
50348,-90.909090909091,4,1,0,90,0,0
50432,-93.738421637644,4,1,0,90,0,0
50517,-96.786534047437,4,1,0,90,0,0
50601,-100,4,1,0,90,0,0
50769,-83.333333333333,4,1,0,90,0,0
50854,-85.7094365241,4,1,0,90,0,0
50938,-88.225017470301,4,1,0,90,0,0
51022,-90.892728581713,4,1,0,90,0,0
51106,-93.761604158931,4,1,0,90,0,0
51191,-96.780375622844,4,1,0,90,0,0
51275,-100,4,1,0,90,0,0
51443,-83.333333333333,4,1,0,90,0,0
51528,-85.7094365241,4,1,0,90,0,0
51612,-88.225017470301,4,1,0,90,0,0
51696,-90.892728581713,4,1,0,90,0,0
51781,-93.761604158931,4,1,0,90,0,0
51865,-96.780375622844,4,1,0,90,0,0
51949,-100,4,1,0,90,0,0
52118,-103.44827586214,4,1,0,90,0,0
52286,-107.142857142895,4,1,0,90,0,0
52370,-109.090909090988,4,1,0,90,0,0
52623,-100,4,1,0,90,0,0
52792,-97.555684119178,4,1,0,90,0,0
52876,-96.384681337525,4,1,0,90,0,0
52960,-95.228010729917,4,1,0,90,0,0
53045,-94.111901772011,4,1,0,90,0,0
53129,-93.021652185905,4,1,0,90,0,0
53213,-91.956373551466,4,1,0,90,0,0
53297,-90.902964959569,4,1,0,90,0,0
53466,-88.890353189246,4,1,0,90,0,0
53550,-87.917101147028,4,1,0,90,0,0
53634,-86.953719221348,4,1,0,90,0,0
53691,-86.33047484961,4,1,0,90,0,0
53747,-85.716101156437,4,1,0,90,0,0
53803,-85.110410094637,4,1,0,90,0,0
53887,-84.207240948814,4,1,0,90,0,0
53972,-83.333333333333,4,1,0,90,0,0
54140,-83.333333333333,4,1,0,90,0,0
54224,-84.345961401001,4,1,0,90,0,0
54309,-85.3711474461,4,1,0,90,0,0
54393,-86.421561447195,4,1,0,90,0,0
54477,-87.498146225716,4,1,0,90,0,0
54561,-88.615199759688,4,1,0,90,0,0
54646,-89.747490112565,4,1,0,90,0,0
54730,-90.909090909091,4,1,0,90,0,0
54814,-92.101155167031,4,1,0,90,0,0
54899,-93.339661445974,4,1,0,90,0,0
54983,-94.596761263428,4,1,0,90,0,0
55067,-95.888184625386,4,1,0,90,0,0
55151,-97.231377719183,4,1,0,90,0,0
55236,-98.596256684492,4,1,0,90,0,0
55320,-100,4,1,0,90,0,0
55488,-83.333333333333,4,1,0,90,0,0
55573,-84.334763948498,4,1,0,90,0,0
55657,-85.360556038228,4,1,0,90,0,0
55741,-86.411609498681,4,1,0,90,0,0
55825,-87.501855425263,4,1,0,90,0,0
55910,-88.60664361942,4,1,0,90,0,0
55994,-89.739686405846,4,1,0,90,0,0
56078,-90.916101172116,4,1,0,90,0,0
56163,-92.109375,4,1,0,90,0,0
56247,-93.334388853705,4,1,0,90,0,0
56331,-94.59242618742,4,1,0,90,0,0
56415,-95.900439238653,4,1,0,90,0,0
56500,-97.229094507669,4,1,0,90,0,0
56584,-98.595082789764,4,1,0,90,0,0
56668,-100,4,1,0,90,0,0
56837,-83.333333333333,4,1,0,90,0,0
56921,-84.333905088622,4,1,0,90,0,0
57005,-85.358796296296,4,1,0,90,0,0
57090,-86.421561447195,4,1,0,90,0,0
57174,-87.498146225716,4,1,0,90,0,0
57258,-88.601892176002,4,1,0,90,0,0
57342,-89.747490112565,4,1,0,90,0,0
57427,-90.909090909091,4,1,0,90,0,0
57511,-92.101155167031,4,1,0,90,0,0
57595,-93.324897184435,4,1,0,90,0,0
57679,-94.596761263428,4,1,0,90,0,0
57764,-95.888184625386,4,1,0,90,0,0
57848,-97.215356730928,4,1,0,90,0,0
57932,-98.579782790309,4,1,0,90,0,0
58017,-100,4,1,0,90,0,0
58185,-83.333333333333,4,1,0,90,0,0
58269,-83.836589698046,4,1,0,91,0,0
58354,-84.339932813952,4,1,0,91,0,0
58438,-84.849356439203,4,1,0,92,0,0
58522,-85.364971424438,4,1,0,93,0,0
58606,-85.893143106711,4,1,0,94,0,0
58691,-86.421561447195,4,1,0,94,0,0
58775,-86.95652173913,4,1,0,95,0,0
58859,-87.498146225716,4,1,0,96,0,0
58943,-88.053130363406,4,1,0,96,0,0
59028,-88.608545468199,4,1,0,97,0,0
59112,-89.171011864279,4,1,0,98,0,0
59196,-89.74066468933,4,1,0,99,0,0
59281,-90.324556031843,4,1,0,99,0,0
59367,-90.909090909091,4,1,0,100,0,1
79590,-90.909090909091,4,1,0,100,0,1
79758,-91.950886766712,4,1,0,98,0,1
79842,-92.487135506003,4,1,0,97,0,1
79927,-93.023255813953,4,1,0,96,0,1
80095,-94.114361516442,4,1,0,94,0,1
80179,-94.676218570024,4,1,0,93,0,1
80264,-95.238095238095,4,1,0,93,0,1
80348,-95.806680881308,4,1,0,92,0,1
80432,-96.382096382096,4,1,0,91,0,1
80489,-96.776509440735,4,1,0,90,0,1
80545,-97.167159230159,4,1,0,89,0,1
80601,-97.560975609756,4,1,0,89,0,1
80685,-98.157722274812,4,1,0,88,0,1
80769,-98.769050410317,4,1,0,87,0,1
80854,-99.380713653789,4,1,0,86,0,1
80940,-100,4,1,0,85,0,0
102511,-100,4,1,0,85,0,0
102679,-98.761814052312,4,1,0,87,0,0
102764,-98.157722274812,4,1,0,88,0,0
102848,-97.560975609756,4,1,0,89,0,0
103017,-96.382096382096,4,1,0,91,0,0
103101,-95.806680881308,4,1,0,92,0,0
103185,-95.238095238095,4,1,0,93,0,0
103354,-94.114361516442,4,1,0,94,0,0
103438,-93.56562781981,4,1,0,95,0,0
103522,-93.023255813953,4,1,0,96,0,0
103606,-92.480790340285,4,1,0,97,0,0
103691,-91.950886766712,4,1,0,98,0,0
103775,-91.42702116115,4,1,0,99,0,0
103861,-90.909090909091,4,1,0,100,0,1
124084,-90.909090909091,4,1,0,100,0,1
124168,-91.42702116115,4,1,0,99,0,1
124252,-91.957159424244,4,1,0,98,0,1
124337,-92.487135506003,4,1,0,97,0,1
124421,-93.023255813953,4,1,0,96,0,1
124505,-93.56562781981,4,1,0,95,0,1
124590,-94.12093283061,4,1,0,94,0,1
124674,-94.676218570024,4,1,0,93,0,1
124758,-95.238095238095,4,1,0,93,0,1
124842,-95.813490653209,4,1,0,92,0,1
124927,-96.388988201645,4,1,0,91,0,1
125011,-96.971440903532,4,1,0,90,0,1
125095,-97.560975609756,4,1,0,89,0,1
125179,-98.164870375765,4,1,0,88,0,1
125264,-98.769050410317,4,1,0,87,0,1
125348,-99.380713653789,4,1,0,86,0,1
125434,-100,4,1,0,85,0,0
145657,-100,4,1,0,85,0,0
145825,-101.916606812082,4,1,0,84,0,0
145910,-102.896835998626,4,1,0,84,0,0
145994,-103.896103896104,4,1,0,84,0,0
146163,-105.966512066661,4,1,0,83,0,0
146331,-108.108108108108,4,1,0,83,0,0
146415,-109.224972653243,4,1,0,82,0,0
146500,-110.351602472269,4,1,0,82,0,0
146584,-111.501716365441,4,1,0,82,0,0
146668,-112.676056338028,4,1,0,81,0,0
146752,-113.889827644474,4,1,0,81,0,0
146837,-115.115286080273,4,1,0,81,0,0
146921,-116.367403314917,4,1,0,80,0,0
147005,-117.647058823529,4,1,0,80,0,0
151219,-117.647058823529,4,1,0,80,0,0
151387,-114.763664656682,4,1,0,80,0,0
151556,-112.002278012434,4,1,0,80,0,0
151640,-110.678609951695,4,1,0,80,0,0
151724,-109.385863267671,4,1,0,80,0,0
151893,-106.874377320895,4,1,0,80,0,0
152061,-104.489506774108,4,1,0,80,0,0
152230,-102.195470488893,4,1,0,80,0,0
152314,-101.092310987363,4,1,0,80,0,0
152399,-100,4,1,0,80,0,0
156443,-100,4,1,0,80,0,0
156528,-100.954162768943,4,1,0,80,0,0
156612,-101.915158841083,4,1,0,79,0,0
156696,-102.894626444453,4,1,0,79,0,0
156781,-103.905106677964,4,1,0,79,0,0
156865,-104.923388037645,4,1,0,78,0,0
156949,-105.961825465399,4,1,0,78,0,0
157033,-107.021023403411,4,1,0,78,0,0
157118,-108.114606291324,4,1,0,77,0,0
157202,-109.217503946889,4,1,0,77,0,0
157286,-110.343135250092,4,1,0,77,0,0
157370,-111.492210421918,4,1,0,77,0,0
157455,-112.679585699967,4,1,0,76,0,0
157539,-113.878102313017,4,1,0,76,0,0
157623,-115.102389078498,4,1,0,76,0,0
157708,-116.368341600173,4,1,0,75,0,0
157792,-117.647058823529,4,1,0,75,0,0
162005,-117.647058823529,4,1,0,75,0,0
162090,-116.170317499385,4,1,0,75,0,0
162174,-114.746924685175,4,1,0,75,0,0
162342,-112.002278012434,4,1,0,75,0,0
162511,-109.370655297062,4,1,0,75,0,0
162679,-106.874377320895,4,1,0,75,0,0
162848,-104.475629731285,4,1,0,75,0,0
163017,-102.182196051264,4,1,0,75,0,0
163185,-100,4,1,0,75,0,0
167230,-100,4,1,0,75,0,0
167314,-99.380713653789,4,1,0,76,0,0
167399,-98.761814052312,4,1,0,77,0,0
167483,-98.157722274812,4,1,0,78,0,0
167567,-97.560975609756,4,1,0,79,0,0
167736,-96.382096382096,4,1,0,81,0,0
167904,-95.238095238095,4,1,0,83,0,0
167988,-94.676218570024,4,1,0,83,0,0
168073,-94.114361516442,4,1,0,84,0,0
168157,-93.56562781981,4,1,0,85,0,0
168241,-93.023255813953,4,1,0,86,0,0
168325,-92.487135506003,4,1,0,87,0,0
168410,-91.950886766712,4,1,0,88,0,0
168494,-91.42702116115,4,1,0,89,0,0
168578,-90.909090909091,4,1,0,90,0,0
179365,-90.909090909091,4,1,0,90,0,0
179533,-91.950886766712,4,1,0,90,0,0
179618,-92.487135506003,4,1,0,90,0,0
179702,-93.023255813953,4,1,0,90,0,0
179786,-93.56562781981,4,1,0,90,0,0
179870,-94.114361516442,4,1,0,90,0,0
179955,-94.676218570024,4,1,0,90,0,0
180039,-95.238095238095,4,1,0,90,0,0
180208,-96.388988201645,4,1,0,90,0,0
180292,-96.971440903532,4,1,0,90,0,0
180376,-97.560975609756,4,1,0,90,0,0
180460,-98.157722274812,4,1,0,90,0,0
180545,-98.769050410317,4,1,0,90,0,0
180713,-100,4,1,0,90,0,0
195545,-100,4,1,0,90,0,0
195629,-99.073937968543,4,1,0,90,0,0
195713,-98.164870375765,4,1,0,91,0,0
195797,-97.261805981457,4,1,0,91,0,0
195882,-96.385542168675,4,1,0,91,0,0
195966,-95.524926478404,4,1,0,92,0,0
196050,-94.114361516442,4,1,0,92,0,0
196106,-94.679543459175,4,1,0,92,0,0
196163,-93.56562781981,4,1,0,92,0,0
196219,-93.023255813953,4,1,0,93,0,0
196303,-92.221386057331,4,1,0,93,0,0
196387,-91.423920784021,4,1,0,93,0,0
196472,-90.649272048687,4,1,0,93,0,0
196556,-89.887640449438,4,1,0,94,0,0
196640,-89.138700611671,4,1,0,94,0,0
196724,-88.393442622951,4,1,0,94,0,0
196809,-87.669094693028,4,1,0,95,0,0
196893,-86.964936614948,4,1,0,95,0,0
197062,-87.313408671437,4,1,0,95,0,0
197230,-87.671099261957,4,1,0,95,0,0
197314,-87.851045806998,4,1,0,95,0,0
197399,-88.033888068168,4,1,0,95,0,0
197567,-88.397518378587,4,1,0,95,0,0
197736,-88.766356678463,4,1,0,95,0,0
197820,-88.950832110046,4,1,0,95,0,0
197989,-89.324312013979,4,1,0,95,0,0
198073,-89.511116274824,4,1,0,95,0,0
198241,-89.887078628276,4,1,0,95,0,0
198410,-90.268478843064,4,1,0,95,0,0
198494,-90.459257271294,4,1,0,95,0,0
198579,-90.653129491263,4,1,0,95,0,0
198747,-91.038767018071,4,1,0,95,0,0
198916,-91.430024582521,4,1,0,95,0,0
199084,-91.82231454208,4,1,0,95,0,0
199168,-92.019724606276,4,1,0,95,0,0
199337,-92.419477837662,4,1,0,95,0,0
199421,-92.619466746812,4,1,0,95,0,0
199590,-93.024459240349,4,1,0,95,0,0
199674,-93.227077859217,4,1,0,95,0,0
199758,-93.430581060947,4,1,0,95,0,0
199843,-93.637413294672,4,1,0,95,0,0
199927,-93.842713834535,4,1,0,95,0,0
200095,-94.256027544502,4,1,0,95,0,0
200264,-94.675491108263,4,1,0,95,0,0
200348,-94.885373964143,4,1,0,95,0,0
200432,-95.096189451782,4,1,0,95,0,0
200517,-95.310470366803,4,1,0,95,0,0
200601,-95.523181153965,4,1,0,95,0,0
200770,-95.954024624582,4,1,0,95,0,0
200938,-96.386188161281,4,1,0,95,0,0
201107,-96.824869610492,4,1,0,95,0,0
201191,-97.044401457555,4,1,0,95,0,0
201359,-97.486465234407,4,1,0,95,0,0
201444,-97.711666334499,4,1,0,95,0,0
201612,-98.159844196502,4,1,0,95,0,0
201696,-98.385478427438,4,1,0,95,0,0
201781,-98.614857142857,4,1,0,95,0,0
201865,-98.842590471303,4,1,0,95,0,0
201949,-99.071378052925,4,1,0,95,0,0
202034,-99.303969949179,4,1,0,95,0,0
202118,-99.534900889594,4,1,0,95,0,0
202202,-99.766908391298,4,1,0,95,0,0
202286,-100,4,1,0,95,0,0
217118,-100,4,1,0,95,0,0
217202,-99.073937968543,4,1,0,95,0,0
217286,-98.164870375765,4,1,0,96,0,0
217370,-97.261805981457,4,1,0,96,0,0
217455,-96.385542168675,4,1,0,96,0,0
217623,-94.679543459175,4,1,0,97,0,0
217792,-93.023255813953,4,1,0,98,0,0
217876,-92.221386057331,4,1,0,98,0,0
217960,-91.423920784021,4,1,0,98,0,0
218045,-90.649272048687,4,1,0,98,0,0
218129,-89.887640449438,4,1,0,99,0,0
218213,-89.138700611671,4,1,0,99,0,0
218297,-88.393442622951,4,1,0,99,0,0
218382,-87.669094693028,4,1,0,100,0,0
218468,-86.95652173913,4,1,0,100,0,1
238693,-86.95652173913,4,1,0,100,0,0
238775,-87.669094693028,4,1,0,99,0,0
238859,-88.393442622951,4,1,0,99,0,0
238943,-89.129859825443,4,1,0,98,0,0
239028,-89.887640449438,4,1,0,98,0,0
239112,-90.649272048687,4,1,0,97,0,0
239196,-91.423920784021,4,1,0,96,0,0
239281,-92.221386057331,4,1,0,96,0,0
239365,-93.023255813953,4,1,0,95,0,0
239449,-93.839192481726,4,1,0,94,0,0
239533,-94.66956949224,4,1,0,94,0,0
239590,-95.241459709612,4,1,0,93,0,0
239646,-95.810085646256,4,1,0,93,0,0
239702,-96.385542168675,4,1,0,93,0,0
239786,-97.261805981457,4,1,0,92,0,0
239870,-98.154148614701,4,1,0,91,0,0
239955,-99.073937968543,4,1,0,91,0,0
240039,-100,4,1,0,90,0,0
240376,-111.111111111111,4,1,0,90,0,0
249477,-111.111111111111,4,1,0,90,0,0
249561,-110.347085789129,4,1,0,90,0,0
249646,-109.584586618974,4,1,0,90,0,0
249730,-108.841340331046,4,1,0,90,0,0
249814,-108.108108108108,4,1,0,90,0,0
249899,-107.376135096384,4,1,0,90,0,0
249983,-106.66244658965,4,1,0,90,0,0
250067,-105.95818267568,4,1,0,90,0,0
250151,-105.263157894737,4,1,0,90,0,0
250236,-104.569079202544,4,1,0,90,0,0
250320,-103.892100192678,4,1,0,90,0,0
250404,-103.223830308599,4,1,0,90,0,0
250488,-102.564102564103,4,1,0,90,0,0
250573,-101.905049894164,4,1,0,90,0,0
250657,-101.262019230769,4,1,0,90,0,0
250741,-100.627052851597,4,1,0,90,0,0
250825,-100,4,1,0,90,0,0
258915,-100,4,1,0,90,0,0
259084,-101.269149894863,4,1,0,88,0,0
259168,-101.912031438936,4,1,0,87,0,0
259252,-102.563127471859,4,1,0,86,0,0
259421,-103.898605439556,4,1,0,84,0,0
259590,-105.269320843091,4,1,0,82,0,0
259674,-105.964167845356,4,1,0,82,0,0
259758,-106.668248694827,4,1,0,81,0,0
259842,-107.381748686097,4,1,0,80,0,0
259927,-108.113525214463,4,1,0,79,0,0
260011,-108.846557429978,4,1,0,78,0,0
260095,-109.589597724502,4,1,0,77,0,0
260264,-111.115688859591,4,1,0,75,0,0
260432,-112.675467914438,4,1,0,73,0,0
260601,-114.289346554793,4,1,0,71,0,0
260685,-115.108834827145,4,1,0,70,0,0
260769,-115.940159917462,4,1,0,69,0,0
260854,-116.793694786073,4,1,0,68,0,0
260938,-117.649624847322,4,1,0,67,0,0
261106,-119.39968124668,4,1,0,66,0,0
261275,-121.213483146067,4,1,0,64,0,0
261359,-122.135676116294,4,1,0,63,0,0
261443,-123.072008761522,4,1,0,62,0,0
261528,-124.034216335541,4,1,0,61,0,0
261612,-125,4,1,0,60,0,0
270208,-125,4,1,0,60,0,0
270713,-115.055400934727,4,1,0,65,0,0
271050,-109.255011469034,4,1,0,68,0,0
271219,-106.560964933612,4,1,0,69,0,0
271387,-104.011393306432,4,1,0,71,0,0
271556,-101.566845911367,4,1,0,72,0,0
271724,-99.248052183367,4,1,0,74,0,0
272061,-94.901892840126,4,1,0,77,0,0
272230,-92.862592184454,4,1,0,78,0,0
272399,-90.909090909091,4,1,0,80,0,0
281837,-90.909090909091,4,1,0,80,0,0
282005,-90.652320107599,4,1,0,82,0,0
282090,-90.522958112986,4,1,0,84,0,0
282174,-90.395480225989,4,1,0,85,0,0
282342,-90.14159854222,4,1,0,87,0,0
282427,-90.013689025408,4,1,0,89,0,0
282511,-89.887640449438,4,1,0,90,0,0
282679,-89.636599394886,4,1,0,92,0,0
282764,-89.510118029848,4,1,0,94,0,0
282848,-89.385474860335,4,1,0,95,0,0
282932,-89.261178340259,4,1,0,96,0,0
283017,-89.135753488065,4,1,0,98,0,0
283101,-89.012150026413,4,1,0,99,0,0
283187,-88.888888888889,4,1,0,100,0,1
302061,-88.888888888889,4,1,0,100,0,1
302230,-88.519102008665,4,1,0,100,0,1
302314,-88.336444924831,4,1,0,100,0,1
302399,-88.152379084647,4,1,0,100,0,1
302483,-87.971230765467,4,1,0,100,0,1
302567,-87.790825419301,4,1,0,100,0,1
302651,-87.61115848459,4,1,0,100,0,1
302736,-87.430099683929,4,1,0,100,0,1
302904,-87.074434597317,4,1,0,100,0,1
303073,-86.719560132153,4,1,0,100,0,1
303241,-86.369640927105,4,1,0,100,0,1
303410,-86.020476509425,4,1,0,100,0,1
303578,-85.676165062423,4,1,0,100,0,1
303663,-85.503007822717,4,1,0,100,0,1
303747,-85.332573977836,4,1,0,100,0,1
303831,-85.162818235642,4,1,0,100,0,1
303915,-84.993736557234,4,1,0,100,0,1
304084,-84.655586421206,4,1,0,100,0,1
304168,-84.488510878248,4,1,0,100,0,1
304252,-84.322093514046,4,1,0,100,0,1
304337,-84.154361002551,4,1,0,100,0,1
304421,-83.989256101833,4,1,0,100,0,1
304590,-83.659035920342,4,1,0,100,0,1
304758,-83.333333333333,4,1,0,100,0,1
324983,-83.333333333333,4,1,0,100,0,1
325067,-84.207896051974,4,1,0,100,0,1
325151,-85.111756534916,4,1,0,100,0,1
325236,-86.024250159541,4,1,0,100,0,1
325320,-86.95652173913,4,1,0,100,0,1
325404,-87.909221338203,4,1,0,100,0,1
325488,-88.894750725402,4,1,0,100,0,1
325573,-89.890637503334,4,1,0,100,0,1
325657,-90.909090909091,4,1,0,100,0,1
325741,-91.950886766712,4,1,0,100,0,1
325825,-93.029675638371,4,1,0,100,0,1
325910,-94.12093283061,4,1,0,100,0,1
325994,-95.238095238095,4,1,0,100,0,1
326078,-96.395881006865,4,1,0,100,0,1
326163,-97.568037058483,4,1,0,100,0,1
326247,-98.769050410317,4,1,0,100,0,1
326333,-100,4,1,0,50,0,0
329028,-100,4,1,0,5,0,0
330378,337.078651685393,4,1,0,60,1,8
330378,-200,4,1,0,60,0,0
330744,631.578947368421,4,1,0,60,1,8
330744,-106.837606837607,4,1,0,60,0,8
331390,674.157303370787,4,1,0,60,1,0
331390,-100,4,1,0,60,0,0
352961,-100,4,1,0,60,0,0
353635,-100.682455625196,4,1,0,60,0,0
353972,-101.027188490612,4,1,0,60,0,0
354646,-101.72378516624,4,1,0,60,0,0
354983,-102.07569831542,4,1,0,60,0,0
355320,-102.430054802423,4,1,0,60,0,0
355657,-102.786880162086,4,1,0,60,0,0
356331,-103.508041430282,4,1,0,60,0,0
356668,-103.872430218954,4,1,0,60,0,0
357343,-104.610059650932,4,1,0,60,0,0
357455,-104.733466047335,4,1,0,60,0,0
357567,-104.857163947738,4,1,0,60,0,0
357680,-104.982262764475,4,1,0,60,0,0
358017,-105.357123936469,4,1,0,60,0,0
358354,-105.734671742413,4,1,0,60,0,0
359028,-106.497943620941,4,1,0,60,0,0
359365,-106.883726929733,4,1,0,60,0,0
360039,-107.663739619087,4,1,0,60,0,0
360376,-108.058030862856,4,1,0,60,0,0
360713,-108.455220706129,4,1,0,60,0,0
361050,-108.855341230048,4,1,0,60,0,0
361725,-109.665714506292,4,1,0,60,0,0
362062,-110.074833396063,4,1,0,60,0,0
362736,-110.902297568592,4,1,0,60,0,0
363073,-111.320712470472,4,1,0,60,0,0
363241,-111.530480623633,4,1,0,60,0,0
363410,-111.742296541029,4,1,0,60,0,0
363579,-111.95491854037,4,1,0,60,0,0
363747,-112.167085923135,4,1,0,60,0,0
363916,-112.381329113924,4,1,0,60,0,0
364084,-112.595117311351,4,1,0,60,0,0
364253,-112.81100030632,4,1,0,60,0,0
364421,-113.026427962489,4,1,0,60,0,0
364590,-113.243969660388,4,1,0,60,0,0
364758,-113.461055706429,4,1,0,60,0,0
364927,-113.680275297534,4,1,0,60,0,0
365095,-113.899038957171,4,1,0,60,0,0
365264,-114.119955928935,4,1,0,60,0,0
365432,-114.340416724162,4,1,0,60,0,0
365601,-114.563050866985,4,1,0,60,0,0
365770,-114.786553690578,4,1,0,60,0,0
365938,-115.009600037012,4,1,0,60,0,0
366107,-115.234850328547,4,1,0,60,0,0
366275,-115.459643989271,4,1,0,60,0,0
366444,-115.686662323157,4,1,0,60,0,0
367118,-116.600999085344,4,1,0,60,0,0
367792,-117.52990402345,4,1,0,60,0,0
368466,-118.473728106756,4,1,0,60,0,0
369140,-119.432833669645,4,1,0,60,0,0
369983,-120.654508390667,4,1,0,60,0,0
370152,-120.902436651914,4,1,0,60,0,0
370320,-121.149909839661,4,1,0,60,0,0
370489,-121.399880352107,4,1,0,60,0,0
370826,-121.901434350864,4,1,0,60,0,0
371163,-122.407149803651,4,1,0,60,0,0
371500,-122.917078718354,4,1,0,60,0,0
371837,-123.431273973113,4,1,0,60,0,0
372511,-124.472679476748,4,1,0,60,0,0
372680,-124.736564805058,4,1,0,60,0,0
372848,-125,4,1,0,60,0,0

[HitObjects]
244,125,1385,5,0,0:0:0:0:
229,119,1553,1,0,0:0:0:0:
203,138,1722,1,8,0:0:0:0:
207,134,1890,1,0,0:0:0:0:
207,134,2059,1,8,0:0:0:0:
189,157,2227,1,0,0:0:0:0:
210,143,2311,1,8,0:0:0:0:
208,142,2396,1,0,0:0:0:0:
206,141,2480,1,8,0:0:0:0:
206,141,2564,1,8,0:0:0:0:
207,141,2649,1,0,0:0:0:0:
204,137,2733,1,8,0:0:0:0:
207,134,2901,1,0,0:0:0:0:
207,134,3070,1,8,0:0:0:0:
202,134,3238,1,0,0:0:0:0:
202,134,3407,1,8,0:0:0:0:
197,107,3576,1,0,0:0:0:0:
200,109,3660,1,0,0:0:0:0:
201,110,3744,1,8,0:0:0:0:
202,112,3828,1,8,0:0:0:0:
187,108,3913,1,8,0:0:0:0:
206,111,3997,1,0,0:0:0:0:
205,111,4081,1,8,0:0:0:0:
202,134,4250,1,0,0:0:0:0:
199,129,4418,1,8,0:0:0:0:
199,129,4587,1,8,0:0:0:0:
199,129,4755,1,0,0:0:0:0:
195,119,4924,1,0,0:0:0:0:
195,119,5008,1,0,0:0:0:0:
196,118,5092,1,8,0:0:0:0:
198,117,5177,1,0,0:0:0:0:
197,116,5261,1,8,0:0:0:0:
198,116,5345,1,8,0:0:0:0:
196,116,5429,1,0,0:0:0:0:
203,113,5598,1,8,0:0:0:0:
258,131,5682,1,0,0:0:0:0:
258,131,5767,1,8,0:0:0:0:
196,134,5935,1,0,0:0:0:0:
196,134,6104,1,8,0:0:0:0:
204,110,6272,1,0,0:0:0:0:
203,110,6356,1,8,0:0:0:0:
201,110,6441,1,8,0:0:0:0:
203,113,6525,1,0,0:0:0:0:
203,113,6609,1,8,0:0:0:0:
204,103,6693,1,8,0:0:0:0:
204,103,6778,1,0,0:0:0:0:
176,88,6946,1,8,0:0:0:0:
140,127,7031,1,0,0:0:0:0:
177,117,7115,1,0,0:0:0:0:
213,150,7283,1,8,0:0:0:0:
213,150,7452,1,8,0:0:0:0:
213,150,7620,1,0,0:0:0:0:
193,136,7789,1,8,0:0:0:0:
193,136,7873,1,0,0:0:0:0:
193,136,7958,1,8,0:0:0:0:
193,136,8126,1,0,0:0:0:0:
182,74,8295,1,8,0:0:0:0:
182,74,8379,1,8,0:0:0:0:
176,77,8463,1,0,0:0:0:0:
195,118,8632,1,0,0:0:0:0:
195,118,8800,1,8,0:0:0:0:
189,70,8969,1,0,0:0:0:0:
188,73,9053,1,0,0:0:0:0:
190,73,9137,1,8,0:0:0:0:
191,74,9222,1,0,0:0:0:0:
193,69,9306,1,8,0:0:0:0:
195,72,9390,1,8,0:0:0:0:
195,72,9474,1,0,0:0:0:0:
169,86,9643,1,0,0:0:0:0:
169,89,9727,1,0,0:0:0:0:
168,93,9811,1,8,0:0:0:0:
195,114,9980,1,0,0:0:0:0:
195,114,10149,1,8,0:0:0:0:
180,92,10323,1,8,0:0:0:0:
180,95,10407,1,0,0:0:0:0:
180,95,10491,1,8,0:0:0:0:
180,92,10660,1,8,0:0:0:0:
181,88,10828,1,0,0:0:0:0:
180,92,10996,1,8,0:0:0:0:
209,121,11080,1,0,0:0:0:0:
211,123,11165,1,0,0:0:0:0:
209,157,11249,1,0,0:0:0:0:
180,92,11333,1,8,0:0:0:0:
198,115,11502,1,0,0:0:0:0:
180,92,11670,1,8,0:0:0:0:
211,117,11754,1,0,0:0:0:0:
211,117,11839,1,8,0:0:0:0:
211,117,11923,1,8,0:0:0:0:
206,113,12007,1,0,0:0:0:0:
202,113,12092,1,0,0:0:0:0:
488,102,12176,1,12,0:0:0:0:
198,123,12850,1,0,0:0:0:0:
198,123,13103,1,8,0:0:0:0:
198,123,13356,1,0,0:0:0:0:
212,131,13524,1,12,0:0:0:0:
180,92,14030,1,8,0:0:0:0:
209,130,14114,1,0,0:0:0:0:
209,130,14198,1,8,0:0:0:0:
180,92,14367,1,8,0:0:0:0:
226,143,14535,1,0,0:0:0:0:
226,143,14704,1,0,0:0:0:0:
229,144,14872,1,12,0:0:0:0:
226,143,15547,1,0,0:0:0:0:
226,143,15799,1,8,0:0:0:0:
226,143,16052,1,0,0:0:0:0:
198,115,16221,1,12,0:0:0:0:
214,110,16726,1,8,0:0:0:0:
215,110,16811,1,0,0:0:0:0:
215,110,16895,1,8,0:0:0:0:
177,130,17232,1,8,0:0:0:0:
184,130,17316,1,0,0:0:0:0:
236,117,17401,1,0,0:0:0:0:
241,116,17485,1,0,0:0:0:0:
241,116,17569,1,8,0:0:0:0:
236,117,17738,1,0,0:0:0:0:
242,114,17906,1,0,0:0:0:0:
238,109,18075,1,8,0:0:0:0:
240,103,18159,1,0,0:0:0:0:
240,103,18243,1,8,0:0:0:0:
237,103,18412,1,8,0:0:0:0:
238,103,18496,1,0,0:0:0:0:
238,103,18665,1,0,0:0:0:0:
238,103,18749,1,8,0:0:0:0:
225,102,18917,1,0,0:0:0:0:
223,102,19086,1,0,0:0:0:0:
223,102,19170,1,8,0:0:0:0:
213,96,19339,1,8,0:0:0:0:
219,95,19423,1,0,0:0:0:0:
208,107,19592,1,8,0:0:0:0:
208,104,19760,1,0,0:0:0:0:
208,103,19844,1,8,0:0:0:0:
246,99,19929,1,0,0:0:0:0:
208,103,20013,1,0,0:0:0:0:
206,103,20097,1,8,0:0:0:0:
222,103,20266,1,8,0:0:0:0:
205,102,20434,1,0,0:0:0:0:
204,102,20519,1,0,0:0:0:0:
204,102,20603,1,8,0:0:0:0:
202,102,20771,1,0,0:0:0:0:
201,102,20856,1,8,0:0:0:0:
198,102,20940,1,8,0:0:0:0:
192,97,21108,1,0,0:0:0:0:
192,97,21193,1,8,0:0:0:0:
192,96,21361,1,8,0:0:0:0:
194,96,21445,1,0,0:0:0:0:
193,97,21614,1,8,0:0:0:0:
209,100,21783,1,0,0:0:0:0:
211,99,21951,1,0,0:0:0:0:
202,97,22120,1,8,0:0:0:0:
204,97,22288,1,0,0:0:0:0:
201,97,22457,1,0,0:0:0:0:
204,97,22625,1,8,0:0:0:0:
209,100,22710,1,0,0:0:0:0:
202,99,22794,1,0,0:0:0:0:
204,100,22878,1,0,0:0:0:0:
205,100,22962,1,12,0:0:0:0:
200,142,24142,1,8,0:0:0:0:
200,142,24226,1,0,0:0:0:0:
200,142,24311,1,12,0:0:0:0:
193,114,25659,1,8,0:0:0:0:
193,114,25743,1,8,0:0:0:0:
193,114,25827,1,0,0:0:0:0:
193,114,25912,1,0,0:0:0:0:
193,114,25996,1,0,0:0:0:0:
193,114,26080,1,0,0:0:0:0:
193,114,26165,1,8,0:0:0:0:
193,114,26249,1,8,0:0:0:0:
199,117,26333,1,0,0:0:0:0:
197,118,26417,1,0,0:0:0:0:
201,116,26502,1,0,0:0:0:0:
199,117,26586,1,0,0:0:0:0:
198,117,26670,1,8,0:0:0:0:
197,117,26754,1,0,0:0:0:0:
197,118,26839,1,8,0:0:0:0:
195,118,26923,1,8,0:0:0:0:
195,119,27007,1,4,0:0:0:0:
225,153,27176,1,8,0:0:0:0:
225,153,27344,1,0,0:0:0:0:
225,153,27429,1,0,0:0:0:0:
225,153,27513,1,8,0:0:0:0:
229,144,27681,1,0,0:0:0:0:
230,144,27850,1,8,0:0:0:0:
229,144,27934,1,0,0:0:0:0:
229,144,28103,1,0,0:0:0:0:
229,144,28187,1,8,0:0:0:0:
230,144,28356,1,0,0:0:0:0:
229,142,28524,1,8,0:0:0:0:
229,144,28608,1,0,0:0:0:0:
229,144,28693,1,8,0:0:0:0:
230,144,28861,1,8,0:0:0:0:
223,134,29030,1,0,0:0:0:0:
189,80,29198,1,8,0:0:0:0:
200,91,29283,1,0,0:0:0:0:
200,90,29451,1,0,0:0:0:0:
200,94,29535,1,8,0:0:0:0:
189,74,29704,1,0,0:0:0:0:
189,80,29872,1,8,0:0:0:0:
184,77,29957,1,8,0:0:0:0:
189,80,30041,1,0,0:0:0:0:
189,80,30210,1,8,0:0:0:0:
197,80,30378,1,0,0:0:0:0:
196,78,30462,1,8,0:0:0:0:
196,78,30547,1,0,0:0:0:0:
196,78,30631,1,0,0:0:0:0:
196,77,30715,1,8,0:0:0:0:
197,76,30884,1,8,0:0:0:0:
200,117,31052,1,0,0:0:0:0:
196,111,31221,1,8,0:0:0:0:
201,106,31305,1,0,0:0:0:0:
193,106,31474,1,0,0:0:0:0:
191,104,31558,1,8,0:0:0:0:
192,97,31726,1,0,0:0:0:0:
169,101,31811,1,8,0:0:0:0:
189,97,31895,1,8,0:0:0:0:
189,97,31979,1,8,0:0:0:0:
187,97,32063,1,0,0:0:0:0:
174,101,32148,1,0,0:0:0:0:
173,101,32232,1,8,0:0:0:0:
219,110,32316,1,8,0:0:0:0:
206,110,32401,1,4,0:0:0:0:
198,102,32569,1,8,0:0:0:0:
199,102,32738,1,0,0:0:0:0:
201,102,32822,1,0,0:0:0:0:
202,102,32906,1,8,0:0:0:0:
201,97,33075,1,0,0:0:0:0:
202,96,33243,1,8,0:0:0:0:
199,120,33327,1,0,0:0:0:0:
214,118,33496,1,0,0:0:0:0:
208,120,33580,1,8,0:0:0:0:
201,116,33749,1,0,0:0:0:0:
207,92,33833,1,0,0:0:0:0:
202,93,33917,1,8,0:0:0:0:
201,97,34002,1,0,0:0:0:0:
201,97,34086,1,8,0:0:0:0:
202,96,34254,1,8,0:0:0:0:
197,96,34423,1,0,0:0:0:0:
197,96,34592,1,8,0:0:0:0:
195,96,34676,1,0,0:0:0:0:
196,95,34760,1,0,0:0:0:0:
197,95,34844,1,0,0:0:0:0:
202,93,34929,1,8,0:0:0:0:
201,97,35097,1,0,0:0:0:0:
196,96,35266,1,8,0:0:0:0:
197,96,35350,1,0,0:0:0:0:
201,97,35434,1,8,0:0:0:0:
197,96,35603,1,0,0:0:0:0:
196,95,35771,1,8,0:0:0:0:
203,83,35856,1,0,0:0:0:0:
203,83,35940,1,8,0:0:0:0:
201,83,36024,1,8,0:0:0:0:
206,75,36108,1,0,0:0:0:0:
206,91,36277,1,0,0:0:0:0:
208,72,36445,1,0,0:0:0:0:
202,72,36530,1,8,0:0:0:0:
201,73,36614,1,8,0:0:0:0:
202,72,36698,1,0,0:0:0:0:
206,72,36783,1,0,0:0:0:0:
209,71,36951,1,8,0:0:0:0:
188,109,37120,1,8,0:0:0:0:
188,109,37204,1,0,0:0:0:0:
188,109,37288,1,8,0:0:0:0:
188,109,37372,1,8,0:0:0:0:
188,109,37457,1,0,0:0:0:0:
188,109,37541,1,0,0:0:0:0:
188,109,37625,1,8,0:0:0:0:
188,109,37710,1,8,0:0:0:0:
188,109,37794,1,4,0:0:0:0:
198,101,37962,1,8,0:0:0:0:
199,97,38047,1,0,0:0:0:0:
197,99,38131,1,0,0:0:0:0:
195,97,38215,1,0,0:0:0:0:
195,98,38299,1,8,0:0:0:0:
197,97,38468,1,0,0:0:0:0:
193,97,38636,1,8,0:0:0:0:
188,97,38721,1,8,0:0:0:0:
191,97,38805,1,0,0:0:0:0:
194,97,38889,1,8,0:0:0:0:
193,99,38974,1,8,0:0:0:0:
206,86,39142,1,0,0:0:0:0:
174,76,39226,1,8,0:0:0:0:
177,77,39311,1,0,0:0:0:0:
182,79,39395,1,0,0:0:0:0:
183,81,39479,1,8,0:0:0:0:
182,81,39648,1,8,0:0:0:0:
188,80,39816,1,0,0:0:0:0:
188,80,39985,1,8,0:0:0:0:
187,80,40069,1,8,0:0:0:0:
189,81,40153,1,0,0:0:0:0:
190,81,40238,1,0,0:0:0:0:
190,81,40322,1,8,0:0:0:0:
191,78,40490,1,0,0:0:0:0:
189,78,40659,1,8,0:0:0:0:
188,80,40743,1,0,0:0:0:0:
188,80,40827,1,8,0:0:0:0:
188,80,40996,1,8,0:0:0:0:
189,68,41165,1,0,0:0:0:0:
194,68,41249,1,8,0:0:0:0:
193,69,41333,1,8,0:0:0:0:
193,69,41417,1,0,0:0:0:0:
193,69,41502,1,8,0:0:0:0:
193,69,41670,1,8,0:0:0:0:
196,68,41839,1,0,0:0:0:0:
199,75,42007,1,8,0:0:0:0:
197,75,42092,1,8,0:0:0:0:
198,75,42176,1,0,0:0:0:0:
201,75,42344,1,0,0:0:0:0:
215,127,42513,1,8,0:0:0:0:
224,192,42681,1,8,0:0:0:0:
214,119,42766,1,0,0:0:0:0:
214,118,42850,1,8,0:0:0:0:
232,148,42934,1,8,0:0:0:0:
232,148,43019,1,0,0:0:0:0:
232,148,43103,1,8,0:0:0:0:
232,148,43187,1,4,0:0:0:0:
219,118,43356,1,8,0:0:0:0:
215,119,43440,1,0,0:0:0:0:
215,127,43524,1,8,0:0:0:0:
209,122,43608,1,0,0:0:0:0:
213,124,43693,1,8,0:0:0:0:
209,123,43861,1,0,0:0:0:0:
204,119,44030,1,8,0:0:0:0:
204,119,44114,1,0,0:0:0:0:
201,117,44198,1,0,0:0:0:0:
208,132,44283,1,8,0:0:0:0:
205,133,44367,1,0,0:0:0:0:
203,142,44535,1,8,0:0:0:0:
199,141,44620,1,8,0:0:0:0:
155,157,44704,1,0,0:0:0:0:
200,141,44788,1,8,0:0:0:0:
201,141,44872,1,0,0:0:0:0:
193,131,45041,1,0,0:0:0:0:
190,128,45210,1,0,0:0:0:0:
219,124,45378,1,8,0:0:0:0:
219,124,45462,1,8,0:0:0:0:
221,124,45547,1,0,0:0:0:0:
219,124,45715,1,8,0:0:0:0:
219,124,45884,1,8,0:0:0:0:
219,124,46052,1,0,0:0:0:0:
219,124,46136,1,8,0:0:0:0:
223,122,46221,1,0,0:0:0:0:
219,124,46389,1,0,0:0:0:0:
235,117,46558,1,8,0:0:0:0:
235,117,46642,1,8,0:0:0:0:
235,117,46726,1,0,0:0:0:0:
235,117,46895,1,8,0:0:0:0:
235,117,47063,1,8,0:0:0:0:
204,107,47232,1,0,0:0:0:0:
205,104,47316,1,0,0:0:0:0:
205,104,47401,1,8,0:0:0:0:
204,107,47485,1,0,0:0:0:0:
204,107,47569,1,8,0:0:0:0:
201,100,47738,1,8,0:0:0:0:
212,95,47906,1,0,0:0:0:0:
209,83,48075,1,0,0:0:0:0:
208,82,48159,1,0,0:0:0:0:
208,82,48243,1,8,0:0:0:0:
207,81,48412,1,8,0:0:0:0:
244,130,48580,1,4,0:0:0:0:
199,169,48749,1,0,0:0:0:0:
228,120,48833,1,8,0:0:0:0:
233,120,48917,1,0,0:0:0:0:
232,120,49002,1,8,0:0:0:0:
213,126,49086,1,8,0:0:0:0:
213,126,49170,1,0,0:0:0:0:
219,130,49254,1,12,0:0:0:0:
199,154,49423,1,0,0:0:0:0:
199,154,49507,1,8,0:0:0:0:
199,154,49592,1,0,0:0:0:0:
199,154,49676,1,0,0:0:0:0:
218,95,49760,1,8,0:0:0:0:
218,95,49844,1,8,0:0:0:0:
218,95,49929,1,4,0:0:0:0:
197,140,50097,1,0,0:0:0:0:
198,140,50181,1,8,0:0:0:0:
200,140,50266,1,0,0:0:0:0:
200,140,50350,1,0,0:0:0:0:
200,140,50434,1,8,0:0:0:0:
208,141,50519,1,0,0:0:0:0:
251,123,50603,1,12,0:0:0:0:
196,136,50771,1,0,0:0:0:0:
197,136,50856,1,0,0:0:0:0:
197,136,50940,1,8,0:0:0:0:
197,140,51024,1,8,0:0:0:0:
197,140,51108,1,0,0:0:0:0:
243,122,51193,1,8,0:0:0:0:
208,128,51277,1,4,0:0:0:0:
224,119,51445,1,0,0:0:0:0:
225,118,51530,1,8,0:0:0:0:
218,214,51614,1,0,0:0:0:0:
224,119,51698,1,0,0:0:0:0:
224,119,51783,1,8,0:0:0:0:
243,122,51867,1,0,0:0:0:0:
251,123,51951,1,12,0:0:0:0:
217,105,52120,1,0,0:0:0:0:
221,191,52288,1,0,0:0:0:0:
205,157,52372,1,8,0:0:0:0:
247,132,52625,1,4,0:0:0:0:
240,136,52794,1,8,0:0:0:0:
232,101,52878,1,8,0:0:0:0:
232,101,52962,1,0,0:0:0:0:
232,101,53047,1,0,0:0:0:0:
232,101,53131,1,8,0:0:0:0:
239,136,53215,1,0,0:0:0:0:
247,132,53299,1,12,0:0:0:0:
210,60,53468,1,0,0:0:0:0:
210,61,53552,1,8,0:0:0:0:
209,60,53636,1,0,0:0:0:0:
232,110,53693,1,0,0:0:0:0:
209,60,53749,1,0,0:0:0:0:
232,110,53805,1,8,0:0:0:0:
209,60,53889,1,0,0:0:0:0:
198,137,53974,1,8,0:0:0:0:
208,165,54142,1,0,0:0:0:0:
215,164,54226,1,8,0:0:0:0:
208,122,54311,1,0,0:0:0:0:
201,123,54395,1,0,0:0:0:0:
208,122,54479,1,8,0:0:0:0:
204,156,54563,1,8,0:0:0:0:
198,161,54648,1,0,0:0:0:0:
265,150,54732,1,0,0:0:0:0:
206,127,54816,1,8,0:0:0:0:
208,126,54901,1,0,0:0:0:0:
207,125,54985,1,8,0:0:0:0:
206,127,55069,1,8,0:0:0:0:
208,128,55153,1,0,0:0:0:0:
180,97,55238,1,8,0:0:0:0:
180,97,55322,1,0,0:0:0:0:
203,109,55490,1,8,0:0:0:0:
200,110,55575,1,8,0:0:0:0:
199,110,55659,1,0,0:0:0:0:
181,103,55743,1,8,0:0:0:0:
192,110,55827,1,8,0:0:0:0:
191,110,55912,1,8,0:0:0:0:
214,95,55996,1,0,0:0:0:0:
235,178,56080,1,0,0:0:0:0:
212,95,56165,1,8,0:0:0:0:
212,94,56249,1,8,0:0:0:0:
210,95,56333,1,0,0:0:0:0:
212,94,56417,1,8,0:0:0:0:
208,93,56502,1,0,0:0:0:0:
206,94,56586,1,0,0:0:0:0:
229,100,56670,1,8,0:0:0:0:
229,100,56839,1,0,0:0:0:0:
229,100,56923,1,0,0:0:0:0:
229,100,57007,1,8,0:0:0:0:
228,100,57092,1,8,0:0:0:0:
229,102,57176,1,0,0:0:0:0:
232,102,57260,1,0,0:0:0:0:
224,97,57344,1,8,0:0:0:0:
252,198,57429,1,8,0:0:0:0:
226,95,57513,1,0,0:0:0:0:
203,159,57597,1,8,0:0:0:0:
236,92,57681,1,0,0:0:0:0:
241,91,57766,1,0,0:0:0:0:
243,91,57850,1,8,0:0:0:0:
243,92,57934,1,8,0:0:0:0:
205,86,58019,1,0,0:0:0:0:
205,87,58187,1,8,0:0:0:0:
203,86,58271,1,8,0:0:0:0:
207,85,58356,1,0,0:0:0:0:
206,85,58440,1,8,0:0:0:0:
206,85,58524,1,0,0:0:0:0:
205,86,58608,1,0,0:0:0:0:
205,86,58693,1,8,0:0:0:0:
205,86,58777,1,0,0:0:0:0:
205,86,58861,1,8,0:0:0:0:
205,86,58945,1,8,0:0:0:0:
205,86,59030,1,0,0:0:0:0:
208,81,59114,1,8,0:0:0:0:
207,81,59198,1,8,0:0:0:0:
207,81,59283,1,8,0:0:0:0:
208,56,59367,1,4,0:0:0:0:
201,51,59535,1,8,0:0:0:0:
204,50,59704,1,0,0:0:0:0:
208,49,59788,1,0,0:0:0:0:
209,49,59872,1,8,0:0:0:0:
190,53,60041,1,0,0:0:0:0:
189,53,60125,1,8,0:0:0:0:
201,51,60210,1,0,0:0:0:0:
200,54,60294,1,0,0:0:0:0:
203,53,60378,1,8,0:0:0:0:
201,51,60462,1,0,0:0:0:0:
201,51,60547,1,8,0:0:0:0:
199,127,60715,1,0,0:0:0:0:
192,121,60884,1,8,0:0:0:0:
199,127,61052,1,0,0:0:0:0:
199,127,61136,1,0,0:0:0:0:
199,127,61221,1,8,0:0:0:0:
227,109,61389,1,8,0:0:0:0:
215,112,61474,1,8,0:0:0:0:
214,112,61558,1,0,0:0:0:0:
214,113,61642,1,8,0:0:0:0:
214,113,61726,1,0,0:0:0:0:
210,114,61811,1,0,0:0:0:0:
209,115,61895,1,8,0:0:0:0:
210,115,61979,1,8,0:0:0:0:
213,114,62063,1,0,0:0:0:0:
199,91,62232,1,8,0:0:0:0:
199,91,62316,1,0,0:0:0:0:
194,91,62485,1,0,0:0:0:0:
213,131,62569,1,8,0:0:0:0:
181,117,62738,1,0,0:0:0:0:
181,117,62822,1,8,0:0:0:0:
181,117,62906,1,8,0:0:0:0:
181,117,62990,1,0,0:0:0:0:
181,117,63075,1,8,0:0:0:0:
181,117,63159,1,8,0:0:0:0:
181,117,63243,1,0,0:0:0:0:
182,122,63327,1,0,0:0:0:0:
208,117,63412,1,8,0:0:0:0:
208,107,63580,1,0,0:0:0:0:
206,107,63665,1,0,0:0:0:0:
206,107,63749,1,8,0:0:0:0:
207,107,63917,1,8,0:0:0:0:
201,86,64002,1,0,0:0:0:0:
204,87,64086,1,8,0:0:0:0:
250,185,64170,1,0,0:0:0:0:
250,185,64254,1,0,0:0:0:0:
195,99,64339,1,8,0:0:0:0:
175,148,64423,1,0,0:0:0:0:
182,153,64507,1,0,0:0:0:0:
198,100,64592,1,8,0:0:0:0:
240,61,64676,1,8,0:0:0:0:
199,97,64760,1,0,0:0:0:0:
215,72,64929,1,0,0:0:0:0:
213,72,65013,1,0,0:0:0:0:
212,71,65097,1,8,0:0:0:0:
225,103,65181,1,0,0:0:0:0:
225,103,65266,1,8,0:0:0:0:
207,63,65434,1,8,0:0:0:0:
206,62,65519,1,0,0:0:0:0:
207,61,65603,1,8,0:0:0:0:
205,60,65687,1,8,0:0:0:0:
203,61,65771,1,0,0:0:0:0:
207,60,65856,1,0,0:0:0:0:
208,60,65940,1,8,0:0:0:0:
234,167,66108,1,0,0:0:0:0:
186,117,66277,1,8,0:0:0:0:
189,81,66361,1,0,0:0:0:0:
189,80,66445,1,8,0:0:0:0:
186,117,66530,1,8,0:0:0:0:
200,64,66614,1,0,0:0:0:0:
232,173,66698,1,8,0:0:0:0:
187,67,66783,1,0,0:0:0:0:
188,69,66951,1,0,0:0:0:0:
194,59,67035,1,0,0:0:0:0:
189,88,67120,1,8,0:0:0:0:
189,80,67457,1,12,0:0:0:0:
195,110,67625,1,0,0:0:0:0:
191,111,67710,1,8,0:0:0:0:
191,113,67794,1,8,0:0:0:0:
193,113,67962,1,0,0:0:0:0:
211,107,68131,1,8,0:0:0:0:
209,107,68215,1,0,0:0:0:0:
208,107,68299,1,8,0:0:0:0:
208,106,68384,1,8,0:0:0:0:
211,105,68468,1,0,0:0:0:0:
212,104,68636,1,8,0:0:0:0:
205,101,68805,1,0,0:0:0:0:
208,102,68889,1,0,0:0:0:0:
206,108,68974,1,8,0:0:0:0:
211,107,69058,1,8,0:0:0:0:
211,107,69142,1,0,0:0:0:0:
209,107,69226,1,8,0:0:0:0:
208,107,69311,1,0,0:0:0:0:
208,106,69395,1,0,0:0:0:0:
211,105,69479,1,8,0:0:0:0:
212,104,69563,1,8,0:0:0:0:
212,104,69648,1,8,0:0:0:0:
211,104,69732,1,8,0:0:0:0:
210,103,69816,1,0,0:0:0:0:
208,102,69901,1,0,0:0:0:0:
213,102,69985,1,8,0:0:0:0:
214,102,70069,1,8,0:0:0:0:
215,102,70153,1,4,0:0:0:0:
211,86,70322,1,8,0:0:0:0:
212,86,70490,1,0,0:0:0:0:
214,84,70575,1,0,0:0:0:0:
213,84,70659,1,8,0:0:0:0:
209,88,70827,1,0,0:0:0:0:
210,86,70912,1,8,0:0:0:0:
210,85,70996,1,8,0:0:0:0:
210,85,71080,1,0,0:0:0:0:
212,84,71165,1,8,0:0:0:0:
211,86,71249,1,0,0:0:0:0:
211,86,71333,1,8,0:0:0:0:
266,136,71417,1,8,0:0:0:0:
233,97,71502,1,0,0:0:0:0:
233,95,71670,1,8,0:0:0:0:
201,152,71839,1,0,0:0:0:0:
210,86,71923,1,8,0:0:0:0:
210,85,72007,1,0,0:0:0:0:
213,78,72176,1,8,0:0:0:0:
202,72,72260,1,8,0:0:0:0:
201,73,72344,1,0,0:0:0:0:
213,79,72429,1,8,0:0:0:0:
214,78,72513,1,0,0:0:0:0:
214,78,72597,1,0,0:0:0:0:
215,78,72681,1,8,0:0:0:0:
210,73,72850,1,0,0:0:0:0:
211,76,73019,1,8,0:0:0:0:
213,78,73103,1,0,0:0:0:0:
210,76,73271,1,0,0:0:0:0:
207,78,73356,1,8,0:0:0:0:
210,39,73524,1,0,0:0:0:0:
210,39,73608,1,8,0:0:0:0:
210,39,73693,1,8,0:0:0:0:
210,39,73777,1,0,0:0:0:0:
210,39,73861,1,8,0:0:0:0:
183,58,73945,1,8,0:0:0:0:
183,58,74030,1,0,0:0:0:0:
183,58,74114,1,0,0:0:0:0:
183,58,74198,1,8,0:0:0:0:
198,85,74367,1,0,0:0:0:0:
204,85,74451,1,0,0:0:0:0:
206,84,74535,1,8,0:0:0:0:
207,70,74704,1,0,0:0:0:0:
208,71,74788,1,8,0:0:0:0:
211,69,74872,1,0,0:0:0:0:
212,69,75041,1,8,0:0:0:0:
211,69,75125,1,0,0:0:0:0:
212,69,75210,1,8,0:0:0:0:
232,94,75266,1,0,0:0:0:0:
228,95,75322,1,0,0:0:0:0:
227,95,75378,1,0,0:0:0:0:
223,151,75462,1,0,0:0:0:0:
218,72,75547,1,8,0:0:0:0:
202,110,75715,1,8,0:0:0:0:
202,115,75799,1,8,0:0:0:0:
204,115,75884,1,0,0:0:0:0:
205,115,76052,1,8,0:0:0:0:
189,106,76221,1,0,0:0:0:0:
190,104,76305,1,8,0:0:0:0:
194,103,76389,1,0,0:0:0:0:
196,103,76474,1,0,0:0:0:0:
201,103,76558,1,8,0:0:0:0:
202,110,76726,1,0,0:0:0:0:
196,110,76895,1,8,0:0:0:0:
198,109,77063,1,0,0:0:0:0:
199,109,77148,1,8,0:0:0:0:
200,106,77232,1,0,0:0:0:0:
202,105,77401,1,0,0:0:0:0:
197,95,77569,1,8,0:0:0:0:
208,90,77653,1,0,0:0:0:0:
204,90,77738,1,0,0:0:0:0:
204,90,77822,1,0,0:0:0:0:
207,89,77906,1,8,0:0:0:0:
207,89,78075,1,8,0:0:0:0:
193,90,78243,1,8,0:0:0:0:
191,82,78412,1,0,0:0:0:0:
188,83,78496,1,0,0:0:0:0:
193,81,78580,1,8,0:0:0:0:
193,79,78749,1,8,0:0:0:0:
200,74,78917,1,0,0:0:0:0:
200,73,79002,1,8,0:0:0:0:
200,73,79086,1,8,0:0:0:0:
201,72,79170,1,0,0:0:0:0:
201,71,79254,1,0,0:0:0:0:
186,63,79423,1,0,0:0:0:0:
185,60,79592,1,8,0:0:0:0:
191,40,79760,1,0,0:0:0:0:
193,40,79844,1,0,0:0:0:0:
191,42,79929,1,8,0:0:0:0:
190,42,80097,1,0,0:0:0:0:
192,44,80181,1,0,0:0:0:0:
191,46,80266,1,8,0:0:0:0:
210,139,80350,1,8,0:0:0:0:
172,57,80434,1,0,0:0:0:0:
179,56,80490,1,0,0:0:0:0:
217,114,80547,1,0,0:0:0:0:
177,55,80603,1,8,0:0:0:0:
181,57,80687,1,0,0:0:0:0:
181,57,80771,1,8,0:0:0:0:
181,56,80856,1,8,0:0:0:0:
180,56,80940,1,4,0:0:0:0:
203,129,81108,1,0,0:0:0:0:
210,139,81193,1,0,0:0:0:0:
207,134,81277,1,8,0:0:0:0:
208,132,81445,1,8,0:0:0:0:
202,119,81614,1,0,0:0:0:0:
202,119,81698,1,0,0:0:0:0:
205,117,81783,1,8,0:0:0:0:
204,117,81867,1,8,0:0:0:0:
206,117,81951,1,0,0:0:0:0:
206,117,82120,1,8,0:0:0:0:
222,105,82288,1,8,0:0:0:0:
218,99,82457,1,8,0:0:0:0:
215,100,82541,1,0,0:0:0:0:
215,100,82625,1,8,0:0:0:0:
202,97,82794,1,8,0:0:0:0:
193,88,82962,1,0,0:0:0:0:
193,89,83047,1,0,0:0:0:0:
192,88,83131,1,8,0:0:0:0:
191,88,83215,1,0,0:0:0:0:
188,86,83299,1,8,0:0:0:0:
190,86,83468,1,0,0:0:0:0:
189,117,83636,1,8,0:0:0:0:
218,119,83805,1,0,0:0:0:0:
218,119,83889,1,8,0:0:0:0:
213,117,84058,1,8,0:0:0:0:
218,119,84142,1,0,0:0:0:0:
207,114,84311,1,0,0:0:0:0:
213,114,84479,1,0,0:0:0:0:
213,115,84563,1,8,0:0:0:0:
213,114,84732,1,8,0:0:0:0:
212,113,84816,1,8,0:0:0:0:
206,101,84985,1,0,0:0:0:0:
201,111,85153,1,8,0:0:0:0:
201,114,85238,1,8,0:0:0:0:
213,114,85322,1,0,0:0:0:0:
214,120,85490,1,8,0:0:0:0:
215,119,85575,1,0,0:0:0:0:
214,119,85659,1,8,0:0:0:0:
214,120,85827,1,0,0:0:0:0:
214,119,85912,1,8,0:0:0:0:
260,172,85996,1,8,0:0:0:0:
210,101,86080,1,0,0:0:0:0:
209,101,86165,1,8,0:0:0:0:
209,101,86333,1,12,0:0:0:0:
200,92,86502,1,0,0:0:0:0:
201,90,86586,1,0,0:0:0:0:
201,90,86670,1,8,0:0:0:0:
202,90,86839,1,0,0:0:0:0:
196,80,87007,1,8,0:0:0:0:
201,79,87092,1,0,0:0:0:0:
202,79,87176,1,8,0:0:0:0:
203,80,87260,1,8,0:0:0:0:
205,79,87344,1,0,0:0:0:0:
202,69,87513,1,8,0:0:0:0:
197,124,87681,1,0,0:0:0:0:
215,88,87850,1,0,0:0:0:0:
213,87,87934,1,0,0:0:0:0:
211,87,88019,1,8,0:0:0:0:
215,90,88187,1,8,0:0:0:0:
188,109,88356,1,0,0:0:0:0:
195,107,88440,1,0,0:0:0:0:
195,107,88524,1,8,0:0:0:0:
188,104,88608,1,0,0:0:0:0:
188,104,88693,1,8,0:0:0:0:
188,109,88861,1,8,0:0:0:0:
177,91,89030,1,0,0:0:0:0:
212,111,89198,1,8,0:0:0:0:
211,109,89283,1,0,0:0:0:0:
206,110,89367,1,0,0:0:0:0:
206,110,89451,1,0,0:0:0:0:
205,110,89535,1,8,0:0:0:0:
185,110,89704,1,0,0:0:0:0:
188,109,89788,1,0,0:0:0:0:
188,109,89872,1,8,0:0:0:0:
198,100,89957,1,0,0:0:0:0:
198,100,90041,1,8,0:0:0:0:
198,100,90210,1,8,0:0:0:0:
205,92,90378,1,8,0:0:0:0:
195,86,90547,1,0,0:0:0:0:
195,86,90631,1,8,0:0:0:0:
196,86,90715,1,0,0:0:0:0:
198,86,90799,1,0,0:0:0:0:
198,85,90884,1,8,0:0:0:0:
198,85,91052,1,0,0:0:0:0:
199,83,91136,1,0,0:0:0:0:
199,83,91221,1,0,0:0:0:0:
195,83,91305,1,0,0:0:0:0:
225,109,91389,1,8,0:0:0:0:
195,87,91558,1,8,0:0:0:0:
195,86,91642,1,8,0:0:0:0:
196,86,91726,1,4,0:0:0:0:
199,70,91895,1,0,0:0:0:0:
198,70,91979,1,0,0:0:0:0:
196,70,92063,1,8,0:0:0:0:
219,67,92148,1,0,0:0:0:0:
219,67,92232,1,8,0:0:0:0:
205,69,92401,1,8,0:0:0:0:
204,68,92485,1,0,0:0:0:0:
202,68,92569,1,8,0:0:0:0:
197,67,92653,1,8,0:0:0:0:
212,62,92738,1,0,0:0:0:0:
212,62,92822,1,0,0:0:0:0:
199,70,92906,1,8,0:0:0:0:
201,64,93075,1,0,0:0:0:0:
200,63,93243,1,8,0:0:0:0:
211,160,93327,1,0,0:0:0:0:
211,160,93412,1,8,0:0:0:0:
202,151,93496,1,0,0:0:0:0:
211,160,93580,1,0,0:0:0:0:
213,101,93665,1,8,0:0:0:0:
203,84,93749,1,0,0:0:0:0:
180,95,93917,1,8,0:0:0:0:
211,160,94002,1,8,0:0:0:0:
176,89,94086,1,0,0:0:0:0:
194,85,94423,1,12,0:0:0:0:
210,103,94592,1,0,0:0:0:0:
205,104,94676,1,8,0:0:0:0:
203,104,94844,1,8,0:0:0:0:
202,104,94929,1,0,0:0:0:0:
195,100,95097,1,0,0:0:0:0:
197,98,95181,1,8,0:0:0:0:
198,100,95266,1,8,0:0:0:0:
197,100,95350,1,0,0:0:0:0:
197,99,95519,1,0,0:0:0:0:
197,98,95603,1,8,0:0:0:0:
199,96,95771,1,8,0:0:0:0:
200,95,95940,1,0,0:0:0:0:
201,94,96024,1,0,0:0:0:0:
200,93,96108,1,8,0:0:0:0:
195,91,96277,1,0,0:0:0:0:
195,91,96361,1,8,0:0:0:0:
198,91,96445,1,0,0:0:0:0:
204,97,96614,1,0,0:0:0:0:
199,96,96698,1,0,0:0:0:0:
199,96,96783,1,8,0:0:0:0:
200,95,96867,1,8,0:0:0:0:
200,95,96951,1,8,0:0:0:0:
205,96,97035,1,0,0:0:0:0:
200,93,97120,1,12,0:0:0:0:
198,100,97288,1,0,0:0:0:0:
195,100,97372,1,0,0:0:0:0:
195,99,97457,1,8,0:0:0:0:
193,98,97625,1,0,0:0:0:0:
178,88,97794,1,8,0:0:0:0:
181,86,97878,1,0,0:0:0:0:
183,86,97962,1,0,0:0:0:0:
182,86,98047,1,8,0:0:0:0:
182,86,98131,1,0,0:0:0:0:
183,86,98299,1,8,0:0:0:0:
217,93,98468,1,0,0:0:0:0:
217,93,98552,1,8,0:0:0:0:
217,93,98636,1,8,0:0:0:0:
217,93,98721,1,8,0:0:0:0:
217,93,98805,1,0,0:0:0:0:
215,116,98974,1,8,0:0:0:0:
213,104,99142,1,0,0:0:0:0:
215,103,99226,1,8,0:0:0:0:
213,102,99311,1,8,0:0:0:0:
212,102,99395,1,0,0:0:0:0:
212,102,99479,1,8,0:0:0:0:
211,91,99816,1,8,0:0:0:0:
215,96,99985,1,0,0:0:0:0:
216,96,100069,1,8,0:0:0:0:
217,94,100153,1,8,0:0:0:0:
217,94,100322,1,0,0:0:0:0:
202,83,100490,1,0,0:0:0:0:
205,78,100575,1,8,0:0:0:0:
211,91,100659,1,8,0:0:0:0:
211,91,100743,1,8,0:0:0:0:
211,91,100827,1,0,0:0:0:0:
208,93,100912,1,0,0:0:0:0:
215,96,100996,1,8,0:0:0:0:
212,92,101080,1,0,0:0:0:0:
226,76,101165,1,8,0:0:0:0:
228,70,101333,1,8,0:0:0:0:
227,69,101502,1,0,0:0:0:0:
225,69,101586,1,0,0:0:0:0:
222,70,101670,1,8,0:0:0:0:
222,69,101754,1,8,0:0:0:0:
221,69,101839,1,8,0:0:0:0:
222,68,102007,1,8,0:0:0:0:
206,69,102176,1,0,0:0:0:0:
207,70,102260,1,8,0:0:0:0:
209,70,102344,1,8,0:0:0:0:
208,72,102429,1,0,0:0:0:0:
207,74,102513,1,8,0:0:0:0:
213,76,102681,1,0,0:0:0:0:
212,78,102766,1,0,0:0:0:0:
214,77,102850,1,8,0:0:0:0:
214,78,103019,1,8,0:0:0:0:
214,77,103103,1,8,0:0:0:0:
215,76,103187,1,0,0:0:0:0:
216,78,103356,1,0,0:0:0:0:
218,82,103440,1,8,0:0:0:0:
222,80,103524,1,8,0:0:0:0:
222,83,103608,1,8,0:0:0:0:
223,82,103693,1,0,0:0:0:0:
220,89,103777,1,0,0:0:0:0:
219,90,103861,1,12,0:0:0:0:
218,88,104030,1,0,0:0:0:0:
217,90,104114,1,0,0:0:0:0:
216,90,104198,1,8,0:0:0:0:
230,100,104367,1,8,0:0:0:0:
212,130,104535,1,0,0:0:0:0:
212,130,104620,1,0,0:0:0:0:
215,125,104704,1,8,0:0:0:0:
212,130,104788,1,8,0:0:0:0:
216,125,104872,1,0,0:0:0:0:
212,130,105041,1,8,0:0:0:0:
223,115,105210,1,8,0:0:0:0:
219,114,105378,1,8,0:0:0:0:
220,114,105462,1,8,0:0:0:0:
215,117,105547,1,0,0:0:0:0:
223,117,105715,1,8,0:0:0:0:
224,117,105799,1,0,0:0:0:0:
224,116,105884,1,8,0:0:0:0:
233,110,106052,1,8,0:0:0:0:
228,110,106136,1,0,0:0:0:0:
227,112,106221,1,8,0:0:0:0:
228,111,106305,1,8,0:0:0:0:
228,110,106389,1,0,0:0:0:0:
228,110,106474,1,0,0:0:0:0:
229,110,106558,1,8,0:0:0:0:
238,103,106726,1,0,0:0:0:0:
235,103,106811,1,8,0:0:0:0:
233,103,106895,1,8,0:0:0:0:
232,103,107063,1,0,0:0:0:0:
234,103,107232,1,8,0:0:0:0:
233,102,107401,1,0,0:0:0:0:
229,102,107485,1,8,0:0:0:0:
226,103,107653,1,8,0:0:0:0:
316,147,107738,1,0,0:0:0:0:
228,120,107906,1,8,0:0:0:0:
228,119,108075,1,0,0:0:0:0:
227,119,108159,1,0,0:0:0:0:
226,119,108243,1,8,0:0:0:0:
228,124,108412,1,8,0:0:0:0:
228,123,108496,1,0,0:0:0:0:
229,122,108580,1,8,0:0:0:0:
228,120,108749,1,8,0:0:0:0:
228,120,108833,1,8,0:0:0:0:
228,120,108917,1,0,0:0:0:0:
228,119,109002,1,0,0:0:0:0:
209,152,109086,1,0,0:0:0:0:
226,119,109254,1,8,0:0:0:0:
226,115,109339,1,8,0:0:0:0:
225,114,109423,1,0,0:0:0:0:
224,114,109507,1,0,0:0:0:0:
222,116,109592,1,8,0:0:0:0:
222,115,109676,1,0,0:0:0:0:
222,115,109760,1,8,0:0:0:0:
223,115,109844,1,8,0:0:0:0:
228,101,109929,1,0,0:0:0:0:
206,99,110013,1,0,0:0:0:0:
204,102,110097,1,0,0:0:0:0:
209,100,110181,1,0,0:0:0:0:
208,101,110266,1,8,0:0:0:0:
207,101,110350,1,8,0:0:0:0:
205,103,110434,1,8,0:0:0:0:
203,102,110519,1,8,0:0:0:0:
202,102,110603,1,0,0:0:0:0:
208,96,110771,1,0,0:0:0:0:
209,96,110856,1,8,0:0:0:0:
207,97,110940,1,0,0:0:0:0:
206,99,111024,1,0,0:0:0:0:
204,102,111108,1,8,0:0:0:0:
209,100,111193,1,8,0:0:0:0:
208,101,111277,1,0,0:0:0:0:
211,137,111361,1,0,0:0:0:0:
211,137,111445,1,0,0:0:0:0:
211,137,111530,1,0,0:0:0:0:
211,137,111614,1,8,0:0:0:0:
211,137,111698,1,8,0:0:0:0:
203,137,111783,1,8,0:0:0:0:
211,137,111867,1,8,0:0:0:0:
211,137,111951,1,0,0:0:0:0:
204,102,112120,1,0,0:0:0:0:
201,104,112204,1,0,0:0:0:0:
198,105,112288,1,8,0:0:0:0:
198,104,112457,1,8,0:0:0:0:
205,106,112625,1,0,0:0:0:0:
204,102,112794,1,8,0:0:0:0:
198,104,112878,1,0,0:0:0:0:
198,103,113047,1,0,0:0:0:0:
200,137,113131,1,8,0:0:0:0:
215,130,113299,1,8,0:0:0:0:
207,133,113384,1,0,0:0:0:0:
206,138,113468,1,0,0:0:0:0:
200,137,113552,1,8,0:0:0:0:
206,137,113636,1,0,0:0:0:0:
208,139,113721,1,0,0:0:0:0:
209,139,113805,1,8,0:0:0:0:
211,137,113889,1,0,0:0:0:0:
211,137,113974,1,8,0:0:0:0:
214,137,114058,1,8,0:0:0:0:
211,137,114142,1,8,0:0:0:0:
209,146,114226,1,8,0:0:0:0:
210,143,114311,1,0,0:0:0:0:
210,143,114395,1,0,0:0:0:0:
206,138,114479,1,0,0:0:0:0:
208,141,114563,1,0,0:0:0:0:
206,137,114648,1,12,0:0:0:0:
202,140,114816,1,0,0:0:0:0:
202,141,114901,1,0,0:0:0:0:
200,141,114985,1,8,0:0:0:0:
199,140,115153,1,8,0:0:0:0:
212,130,115322,1,0,0:0:0:0:
211,129,115406,1,8,0:0:0:0:
208,128,115490,1,0,0:0:0:0:
208,128,115575,1,0,0:0:0:0:
206,128,115659,1,8,0:0:0:0:
206,126,115743,1,8,0:0:0:0:
203,128,115827,1,0,0:0:0:0:
203,127,115912,1,0,0:0:0:0:
199,128,115996,1,8,0:0:0:0:
246,129,116165,1,8,0:0:0:0:
238,124,116249,1,0,0:0:0:0:
238,123,116417,1,0,0:0:0:0:
236,123,116502,1,8,0:0:0:0:
208,116,116670,1,8,0:0:0:0:
206,115,116754,1,0,0:0:0:0:
208,117,116839,1,8,0:0:0:0:
207,119,116923,1,8,0:0:0:0:
207,119,117007,1,0,0:0:0:0:
212,118,117092,1,8,0:0:0:0:
210,120,117176,1,0,0:0:0:0:
209,120,117260,1,0,0:0:0:0:
206,120,117344,1,8,0:0:0:0:
200,123,117513,1,0,0:0:0:0:
199,122,117597,1,0,0:0:0:0:
199,121,117681,1,8,0:0:0:0:
211,133,117850,1,8,0:0:0:0:
197,110,118019,1,0,0:0:0:0:
196,110,118103,1,8,0:0:0:0:
192,110,118187,1,8,0:0:0:0:
190,110,118271,1,0,0:0:0:0:
188,110,118356,1,8,0:0:0:0:
190,111,118440,1,8,0:0:0:0:
186,116,118524,1,0,0:0:0:0:
193,116,118693,1,8,0:0:0:0:
197,112,118861,1,0,0:0:0:0:
197,110,118945,1,8,0:0:0:0:
196,110,119114,1,8,0:0:0:0:
191,117,119198,1,0,0:0:0:0:
207,110,119367,1,0,0:0:0:0:
203,110,119451,1,8,0:0:0:0:
204,110,119535,1,8,0:0:0:0:
200,111,119620,1,0,0:0:0:0:
207,111,119704,1,8,0:0:0:0:
201,111,119872,1,0,0:0:0:0:
189,92,120041,1,8,0:0:0:0:
188,92,120125,1,0,0:0:0:0:
183,94,120210,1,8,0:0:0:0:
184,94,120294,1,8,0:0:0:0:
183,95,120378,1,0,0:0:0:0:
184,95,120462,1,0,0:0:0:0:
183,97,120547,1,8,0:0:0:0:
187,96,120631,1,8,0:0:0:0:
184,95,120715,1,0,0:0:0:0:
181,95,120799,1,8,0:0:0:0:
182,99,120884,1,0,0:0:0:0:
182,101,120968,1,0,0:0:0:0:
181,101,121052,1,8,0:0:0:0:
178,103,121136,1,8,0:0:0:0:
180,101,121221,1,8,0:0:0:0:
178,104,121305,1,8,0:0:0:0:
169,110,121389,1,0,0:0:0:0:
213,101,121558,1,0,0:0:0:0:
211,97,121642,1,8,0:0:0:0:
208,97,121726,1,0,0:0:0:0:
213,101,121811,1,0,0:0:0:0:
208,98,121895,1,8,0:0:0:0:
213,101,121979,1,8,0:0:0:0:
213,101,122063,1,0,0:0:0:0:
213,101,122148,1,8,0:0:0:0:
201,103,122232,1,0,0:0:0:0:
202,102,122316,1,0,0:0:0:0:
201,102,122401,1,8,0:0:0:0:
201,100,122485,1,0,0:0:0:0:
198,103,122569,1,8,0:0:0:0:
199,103,122653,1,8,0:0:0:0:
193,101,122738,1,0,0:0:0:0:
215,96,122906,1,8,0:0:0:0:
213,101,122990,1,0,0:0:0:0:
214,95,123159,1,0,0:0:0:0:
214,94,123243,1,8,0:0:0:0:
204,90,123412,1,0,0:0:0:0:
206,88,123496,1,8,0:0:0:0:
201,88,123580,1,8,0:0:0:0:
202,87,123665,1,8,0:0:0:0:
199,88,123833,1,0,0:0:0:0:
199,87,123917,1,8,0:0:0:0:
203,90,124086,1,8,0:0:0:0:
192,182,124170,1,8,0:0:0:0:
192,182,124254,1,0,0:0:0:0:
204,90,124339,1,0,0:0:0:0:
204,90,124423,1,0,0:0:0:0:
196,159,124507,1,0,0:0:0:0:
196,159,124592,1,8,0:0:0:0:
196,159,124676,1,8,0:0:0:0:
189,159,124760,1,0,0:0:0:0:
196,159,124844,1,0,0:0:0:0:
196,159,124929,1,0,0:0:0:0:
196,159,125013,1,0,0:0:0:0:
196,159,125097,1,8,0:0:0:0:
196,159,125181,1,0,0:0:0:0:
196,159,125266,1,8,0:0:0:0:
228,198,125350,1,8,0:0:0:0:
195,119,125434,1,4,0:0:0:0:
225,153,125603,1,8,0:0:0:0:
225,153,125771,1,0,0:0:0:0:
225,153,125856,1,0,0:0:0:0:
225,153,125940,1,8,0:0:0:0:
229,144,126108,1,0,0:0:0:0:
230,144,126277,1,8,0:0:0:0:
229,144,126361,1,0,0:0:0:0:
229,144,126530,1,0,0:0:0:0:
229,144,126614,1,8,0:0:0:0:
230,144,126783,1,0,0:0:0:0:
229,142,126951,1,8,0:0:0:0:
229,144,127035,1,0,0:0:0:0:
229,144,127120,1,8,0:0:0:0:
230,144,127288,1,8,0:0:0:0:
223,134,127457,1,0,0:0:0:0:
189,80,127625,1,8,0:0:0:0:
200,91,127710,1,0,0:0:0:0:
200,90,127878,1,0,0:0:0:0:
200,94,127962,1,8,0:0:0:0:
189,74,128131,1,0,0:0:0:0:
189,80,128299,1,8,0:0:0:0:
184,77,128384,1,8,0:0:0:0:
189,80,128468,1,0,0:0:0:0:
189,80,128636,1,8,0:0:0:0:
197,80,128805,1,0,0:0:0:0:
196,78,128889,1,8,0:0:0:0:
196,78,128974,1,0,0:0:0:0:
196,78,129058,1,0,0:0:0:0:
196,77,129142,1,8,0:0:0:0:
197,76,129311,1,8,0:0:0:0:
200,117,129479,1,0,0:0:0:0:
196,111,129648,1,8,0:0:0:0:
201,106,129732,1,0,0:0:0:0:
196,125,129901,1,0,0:0:0:0:
191,104,129985,1,8,0:0:0:0:
192,97,130153,1,0,0:0:0:0:
169,101,130238,1,8,0:0:0:0:
189,97,130322,1,8,0:0:0:0:
189,97,130406,1,8,0:0:0:0:
187,97,130490,1,0,0:0:0:0:
174,101,130575,1,0,0:0:0:0:
173,101,130659,1,8,0:0:0:0:
219,110,130743,1,8,0:0:0:0:
206,110,130827,1,4,0:0:0:0:
198,102,130996,1,8,0:0:0:0:
199,102,131165,1,0,0:0:0:0:
201,102,131249,1,0,0:0:0:0:
202,102,131333,1,8,0:0:0:0:
201,97,131502,1,0,0:0:0:0:
202,96,131670,1,8,0:0:0:0:
199,120,131754,1,0,0:0:0:0:
214,118,131923,1,0,0:0:0:0:
208,120,132007,1,8,0:0:0:0:
201,116,132176,1,0,0:0:0:0:
207,92,132260,1,0,0:0:0:0:
202,93,132344,1,8,0:0:0:0:
201,97,132429,1,0,0:0:0:0:
201,97,132513,1,8,0:0:0:0:
202,96,132681,1,8,0:0:0:0:
197,96,132850,1,0,0:0:0:0:
197,96,133019,1,8,0:0:0:0:
195,96,133103,1,0,0:0:0:0:
196,95,133187,1,8,0:0:0:0:
197,95,133271,1,8,0:0:0:0:
202,93,133356,1,8,0:0:0:0:
201,97,133524,1,0,0:0:0:0:
196,96,133693,1,8,0:0:0:0:
197,96,133777,1,0,0:0:0:0:
201,97,133861,1,8,0:0:0:0:
197,96,134030,1,0,0:0:0:0:
196,95,134198,1,8,0:0:0:0:
203,83,134283,1,0,0:0:0:0:
203,83,134367,1,8,0:0:0:0:
201,83,134451,1,0,0:0:0:0:
206,75,134535,1,8,0:0:0:0:
206,91,134704,1,0,0:0:0:0:
208,72,134872,1,0,0:0:0:0:
202,72,134957,1,8,0:0:0:0:
201,73,135041,1,8,0:0:0:0:
202,72,135125,1,0,0:0:0:0:
206,72,135210,1,0,0:0:0:0:
209,71,135378,1,8,0:0:0:0:
188,109,135547,1,8,0:0:0:0:
188,109,135631,1,0,0:0:0:0:
188,109,135715,1,8,0:0:0:0:
188,109,135799,1,8,0:0:0:0:
188,109,135884,1,0,0:0:0:0:
188,109,135968,1,0,0:0:0:0:
188,109,136052,1,8,0:0:0:0:
188,109,136136,1,8,0:0:0:0:
188,109,136221,1,4,0:0:0:0:
198,101,136389,1,8,0:0:0:0:
199,97,136474,1,0,0:0:0:0:
197,99,136558,1,0,0:0:0:0:
195,97,136642,1,0,0:0:0:0:
195,98,136726,1,8,0:0:0:0:
197,97,136895,1,0,0:0:0:0:
193,97,137063,1,8,0:0:0:0:
188,97,137148,1,8,0:0:0:0:
191,97,137232,1,0,0:0:0:0:
194,97,137316,1,8,0:0:0:0:
193,99,137401,1,8,0:0:0:0:
206,86,137569,1,0,0:0:0:0:
174,76,137653,1,8,0:0:0:0:
177,77,137738,1,0,0:0:0:0:
182,79,137822,1,0,0:0:0:0:
183,81,137906,1,8,0:0:0:0:
182,81,138075,1,8,0:0:0:0:
188,80,138243,1,0,0:0:0:0:
188,80,138412,1,8,0:0:0:0:
187,80,138496,1,8,0:0:0:0:
189,81,138580,1,0,0:0:0:0:
190,81,138665,1,0,0:0:0:0:
190,81,138749,1,8,0:0:0:0:
191,78,138917,1,0,0:0:0:0:
189,78,139086,1,8,0:0:0:0:
188,80,139170,1,0,0:0:0:0:
188,80,139254,1,8,0:0:0:0:
188,80,139423,1,8,0:0:0:0:
189,68,139592,1,0,0:0:0:0:
194,68,139676,1,8,0:0:0:0:
193,69,139760,1,8,0:0:0:0:
193,69,139844,1,0,0:0:0:0:
193,69,139929,1,8,0:0:0:0:
193,69,140097,1,8,0:0:0:0:
196,68,140266,1,0,0:0:0:0:
199,75,140434,1,8,0:0:0:0:
197,75,140519,1,8,0:0:0:0:
198,75,140603,1,0,0:0:0:0:
201,75,140771,1,0,0:0:0:0:
215,127,140940,1,8,0:0:0:0:
157,161,141108,1,8,0:0:0:0:
214,119,141193,1,0,0:0:0:0:
214,118,141277,1,8,0:0:0:0:
183,113,141361,1,8,0:0:0:0:
183,113,141445,1,0,0:0:0:0:
179,120,141530,1,8,0:0:0:0:
203,104,141614,1,4,0:0:0:0:
219,118,141783,1,8,0:0:0:0:
215,119,141867,1,0,0:0:0:0:
215,127,141951,1,8,0:0:0:0:
209,122,142035,1,0,0:0:0:0:
213,124,142120,1,8,0:0:0:0:
209,123,142288,1,0,0:0:0:0:
204,119,142457,1,8,0:0:0:0:
204,119,142541,1,0,0:0:0:0:
201,117,142625,1,0,0:0:0:0:
208,132,142710,1,8,0:0:0:0:
205,133,142794,1,0,0:0:0:0:
203,142,142962,1,8,0:0:0:0:
199,141,143047,1,8,0:0:0:0:
155,157,143131,1,0,0:0:0:0:
200,141,143215,1,8,0:0:0:0:
201,141,143299,1,0,0:0:0:0:
193,131,143468,1,8,0:0:0:0:
190,128,143636,1,0,0:0:0:0:
219,124,143805,1,0,0:0:0:0:
219,124,143889,1,8,0:0:0:0:
221,124,143974,1,8,0:0:0:0:
216,136,144058,1,0,0:0:0:0:
219,124,144142,1,8,0:0:0:0:
216,136,144226,1,0,0:0:0:0:
216,136,144311,1,8,0:0:0:0:
219,124,144479,1,0,0:0:0:0:
219,124,144563,1,8,0:0:0:0:
223,122,144648,1,0,0:0:0:0:
219,124,144816,1,0,0:0:0:0:
235,117,144985,1,8,0:0:0:0:
235,117,145069,1,8,0:0:0:0:
235,117,145153,1,0,0:0:0:0:
235,117,145322,1,8,0:0:0:0:
235,117,145490,1,8,0:0:0:0:
250,136,145659,1,8,0:0:0:0:
250,136,145827,1,0,0:0:0:0:
250,136,145912,1,0,0:0:0:0:
250,136,145996,1,8,0:0:0:0:
227,133,146165,1,0,0:0:0:0:
227,133,146333,1,8,0:0:0:0:
227,133,146417,1,0,0:0:0:0:
227,133,146502,1,8,0:0:0:0:
227,133,146586,1,8,0:0:0:0:
227,133,146670,1,0,0:0:0:0:
227,133,146754,1,0,0:0:0:0:
227,133,146839,1,8,0:0:0:0:
227,133,146923,1,8,0:0:0:0:
227,133,147007,1,0,0:0:0:0:
171,90,147176,1,0,0:0:0:0:
174,95,147344,1,8,0:0:0:0:
174,88,147513,1,0,0:0:0:0:
174,88,147681,1,8,0:0:0:0:
176,85,147850,1,0,0:0:0:0:
176,85,148019,1,8,0:0:0:0:
196,83,148187,1,8,0:0:0:0:
204,128,148524,1,0,0:0:0:0:
211,144,148693,1,0,0:0:0:0:
209,143,148861,1,8,0:0:0:0:
205,138,148945,1,0,0:0:0:0:
208,137,149030,1,8,0:0:0:0:
204,137,149198,1,8,0:0:0:0:
205,137,149367,1,0,0:0:0:0:
202,137,149535,1,8,0:0:0:0:
345,182,149620,1,0,0:0:0:0:
189,134,149704,1,0,0:0:0:0:
220,115,149872,1,8,0:0:0:0:
195,171,150041,1,8,0:0:0:0:
211,167,150210,1,0,0:0:0:0:
211,165,150378,1,8,0:0:0:0:
199,131,150547,1,0,0:0:0:0:
205,131,150715,1,8,0:0:0:0:
203,130,150884,1,8,0:0:0:0:
196,145,151221,1,0,0:0:0:0:
195,143,151389,1,8,0:0:0:0:
183,117,151558,1,8,0:0:0:0:
178,136,151642,1,8,0:0:0:0:
178,136,151726,1,0,0:0:0:0:
190,99,151895,1,0,0:0:0:0:
208,109,152063,1,8,0:0:0:0:
208,108,152232,1,8,0:0:0:0:
198,103,152316,1,0,0:0:0:0:
198,103,152401,1,8,0:0:0:0:
179,105,152569,1,0,0:0:0:0:
176,103,152738,1,8,0:0:0:0:
174,102,152906,1,8,0:0:0:0:
186,100,153075,1,0,0:0:0:0:
216,110,153243,1,0,0:0:0:0:
212,109,153327,1,8,0:0:0:0:
196,90,153496,1,0,0:0:0:0:
244,160,153580,1,8,0:0:0:0:
244,160,153665,1,8,0:0:0:0:
209,167,153749,1,0,0:0:0:0:
203,59,153917,1,0,0:0:0:0:
199,60,154086,1,8,0:0:0:0:
197,60,154254,1,8,0:0:0:0:
176,80,154423,1,0,0:0:0:0:
201,111,154592,1,8,0:0:0:0:
201,111,154676,1,8,0:0:0:0:
124,160,154844,1,0,0:0:0:0:
204,106,154929,1,8,0:0:0:0:
198,92,155097,1,0,0:0:0:0:
213,105,155266,1,0,0:0:0:0:
216,107,155350,1,8,0:0:0:0:
235,130,155519,1,8,0:0:0:0:
209,115,155603,1,0,0:0:0:0:
216,114,155771,1,8,0:0:0:0:
211,111,155940,1,0,0:0:0:0:
234,117,156024,1,8,0:0:0:0:
235,117,156193,1,8,0:0:0:0:
223,111,156277,1,0,0:0:0:0:
204,95,156445,1,8,0:0:0:0:
203,94,156530,1,8,0:0:0:0:
196,94,156614,1,0,0:0:0:0:
196,93,156698,1,0,0:0:0:0:
200,91,156783,1,8,0:0:0:0:
197,92,156867,1,8,0:0:0:0:
200,90,156951,1,0,0:0:0:0:
199,88,157035,1,0,0:0:0:0:
199,87,157120,1,8,0:0:0:0:
198,87,157204,1,0,0:0:0:0:
199,86,157288,1,0,0:0:0:0:
199,86,157372,1,0,0:0:0:0:
199,86,157457,1,8,0:0:0:0:
199,86,157541,1,0,0:0:0:0:
199,86,157625,1,8,0:0:0:0:
200,86,157710,1,8,0:0:0:0:
193,157,157794,1,4,0:0:0:0:
199,152,158131,1,8,0:0:0:0:
199,152,158299,1,0,0:0:0:0:
199,152,158468,1,8,0:0:0:0:
192,99,158636,1,8,0:0:0:0:
184,100,158805,1,0,0:0:0:0:
187,99,158974,1,8,0:0:0:0:
195,90,159311,1,8,0:0:0:0:
195,90,159395,1,8,0:0:0:0:
195,90,159479,1,0,0:0:0:0:
195,89,159648,1,8,0:0:0:0:
196,89,159816,1,0,0:0:0:0:
195,88,159985,1,0,0:0:0:0:
195,90,160153,1,8,0:0:0:0:
195,90,160322,1,8,0:0:0:0:
188,142,160490,1,0,0:0:0:0:
198,124,160827,1,8,0:0:0:0:
199,124,160996,1,0,0:0:0:0:
196,123,161165,1,8,0:0:0:0:
193,124,161333,1,8,0:0:0:0:
198,121,161502,1,0,0:0:0:0:
198,124,161670,1,8,0:0:0:0:
223,113,162007,1,8,0:0:0:0:
223,113,162092,1,8,0:0:0:0:
221,111,162176,1,0,0:0:0:0:
199,138,162344,1,0,0:0:0:0:
200,128,162513,1,8,0:0:0:0:
202,127,162681,1,8,0:0:0:0:
198,126,162850,1,0,0:0:0:0:
201,126,163019,1,0,0:0:0:0:
204,114,163187,1,4,0:0:0:0:
201,71,163356,1,8,0:0:0:0:
186,68,163524,1,0,0:0:0:0:
185,68,163608,1,0,0:0:0:0:
186,68,163693,1,8,0:0:0:0:
189,63,163861,1,0,0:0:0:0:
189,63,164030,1,8,0:0:0:0:
189,61,164114,1,0,0:0:0:0:
192,59,164283,1,0,0:0:0:0:
193,58,164367,1,8,0:0:0:0:
205,70,164535,1,0,0:0:0:0:
201,69,164704,1,8,0:0:0:0:
202,70,164788,1,8,0:0:0:0:
202,68,164872,1,0,0:0:0:0:
202,70,165041,1,8,0:0:0:0:
209,69,165210,1,0,0:0:0:0:
208,68,165294,1,8,0:0:0:0:
208,68,165378,1,8,0:0:0:0:
205,70,165462,1,0,0:0:0:0:
205,70,165547,1,8,0:0:0:0:
205,66,165715,1,8,0:0:0:0:
183,45,165884,1,0,0:0:0:0:
183,45,166052,1,8,0:0:0:0:
186,51,166136,1,8,0:0:0:0:
188,51,166221,1,0,0:0:0:0:
188,50,166389,1,8,0:0:0:0:
183,45,166558,1,0,0:0:0:0:
183,45,166642,1,8,0:0:0:0:
183,45,166726,1,8,0:0:0:0:
183,45,166811,1,0,0:0:0:0:
183,45,166895,1,0,0:0:0:0:
183,45,167063,1,8,0:0:0:0:
205,83,167232,1,8,0:0:0:0:
202,76,167316,1,0,0:0:0:0:
205,83,167401,1,8,0:0:0:0:
205,83,167485,1,8,0:0:0:0:
205,83,167569,1,0,0:0:0:0:
205,83,167738,1,8,0:0:0:0:
212,98,167906,1,0,0:0:0:0:
210,97,167990,1,0,0:0:0:0:
208,97,168075,1,0,0:0:0:0:
208,97,168159,1,0,0:0:0:0:
206,97,168243,1,8,0:0:0:0:
206,97,168327,1,8,0:0:0:0:
204,98,168412,1,8,0:0:0:0:
163,91,168496,1,0,0:0:0:0:
205,99,168580,1,8,0:0:0:0:
209,97,168665,1,8,0:0:0:0:
204,99,168749,1,0,0:0:0:0:
204,99,168833,1,8,0:0:0:0:
204,99,168917,1,0,0:0:0:0:
203,99,169002,1,0,0:0:0:0:
202,99,169086,1,8,0:0:0:0:
202,99,169170,1,8,0:0:0:0:
185,88,169254,1,0,0:0:0:0:
187,88,169339,1,8,0:0:0:0:
189,88,169423,1,8,0:0:0:0:
189,87,169507,1,0,0:0:0:0:
189,87,169592,1,8,0:0:0:0:
190,87,169676,1,8,0:0:0:0:
190,86,169760,1,0,0:0:0:0:
190,87,169844,1,0,0:0:0:0:
190,87,169929,1,8,0:0:0:0:
184,85,170013,1,8,0:0:0:0:
181,83,170097,1,0,0:0:0:0:
185,82,170181,1,0,0:0:0:0:
181,81,170266,1,8,0:0:0:0:
181,81,170350,1,0,0:0:0:0:
181,79,170434,1,8,0:0:0:0:
181,78,170519,1,8,0:0:0:0:
194,69,170603,1,8,0:0:0:0:
195,69,170687,1,8,0:0:0:0:
195,68,170771,1,0,0:0:0:0:
194,67,170856,1,8,0:0:0:0:
197,77,170940,1,0,0:0:0:0:
201,78,171024,1,0,0:0:0:0:
202,78,171108,1,8,0:0:0:0:
196,78,171193,1,0,0:0:0:0:
205,71,171277,1,8,0:0:0:0:
204,59,171361,1,0,0:0:0:0:
202,60,171445,1,8,0:0:0:0:
201,59,171530,1,8,0:0:0:0:
197,51,171614,1,0,0:0:0:0:
192,51,171698,1,0,0:0:0:0:
197,51,171783,1,8,0:0:0:0:
208,183,171867,1,0,0:0:0:0:
208,150,171951,1,8,0:0:0:0:
208,150,172035,1,8,0:0:0:0:
208,150,172120,1,0,0:0:0:0:
208,150,172204,1,0,0:0:0:0:
208,150,172288,1,8,0:0:0:0:
208,150,172372,1,0,0:0:0:0:
208,150,172457,1,8,0:0:0:0:
208,150,172541,1,8,0:0:0:0:
197,132,172625,1,0,0:0:0:0:
197,132,172710,1,0,0:0:0:0:
195,128,172794,1,8,0:0:0:0:
197,132,172878,1,8,0:0:0:0:
194,127,172962,1,0,0:0:0:0:
195,127,173047,1,0,0:0:0:0:
197,132,173131,1,8,0:0:0:0:
196,130,173215,1,8,0:0:0:0:
198,128,173299,1,0,0:0:0:0:
198,128,173384,1,8,0:0:0:0:
197,124,173468,1,8,0:0:0:0:
200,124,173552,1,0,0:0:0:0:
197,124,173636,1,8,0:0:0:0:
197,124,173721,1,8,0:0:0:0:
195,128,173805,1,0,0:0:0:0:
197,132,173889,1,8,0:0:0:0:
200,97,173974,1,0,0:0:0:0:
190,95,174142,1,0,0:0:0:0:
194,94,174226,1,0,0:0:0:0:
200,97,174311,1,8,0:0:0:0:
195,91,174395,1,8,0:0:0:0:
195,90,174479,1,0,0:0:0:0:
196,89,174563,1,8,0:0:0:0:
195,84,174648,1,0,0:0:0:0:
197,84,174732,1,0,0:0:0:0:
197,83,174816,1,8,0:0:0:0:
197,83,174901,1,8,0:0:0:0:
196,80,174985,1,0,0:0:0:0:
197,82,175069,1,0,0:0:0:0:
197,82,175153,1,8,0:0:0:0:
198,82,175238,1,0,0:0:0:0:
201,96,175322,1,8,0:0:0:0:
195,91,175406,1,0,0:0:0:0:
195,90,175490,1,8,0:0:0:0:
199,92,175575,1,8,0:0:0:0:
199,92,175659,1,0,0:0:0:0:
203,94,175743,1,0,0:0:0:0:
203,95,175827,1,8,0:0:0:0:
202,94,175912,1,0,0:0:0:0:
202,86,175996,1,8,0:0:0:0:
201,85,176080,1,0,0:0:0:0:
201,84,176165,1,0,0:0:0:0:
198,82,176249,1,8,0:0:0:0:
201,83,176333,1,8,0:0:0:0:
201,83,176417,1,0,0:0:0:0:
201,82,176502,1,8,0:0:0:0:
200,82,176586,1,8,0:0:0:0:
199,83,176670,1,0,0:0:0:0:
179,131,176839,1,8,0:0:0:0:
179,131,177007,1,0,0:0:0:0:
179,131,177176,1,0,0:0:0:0:
181,119,177344,1,8,0:0:0:0:
183,118,177513,1,0,0:0:0:0:
184,117,177597,1,8,0:0:0:0:
184,116,177766,1,8,0:0:0:0:
187,115,177850,1,0,0:0:0:0:
182,111,178019,1,0,0:0:0:0:
201,109,178187,1,8,0:0:0:0:
200,108,178271,1,0,0:0:0:0:
196,108,178356,1,0,0:0:0:0:
196,109,178440,1,0,0:0:0:0:
196,108,178524,1,8,0:0:0:0:
191,103,178693,1,8,0:0:0:0:
190,102,178777,1,8,0:0:0:0:
191,102,178861,1,0,0:0:0:0:
192,102,178945,1,0,0:0:0:0:
191,102,179030,1,8,0:0:0:0:
191,99,179198,1,8,0:0:0:0:
190,99,179283,1,0,0:0:0:0:
190,99,179367,1,8,0:0:0:0:
185,97,179535,1,8,0:0:0:0:
185,97,179620,1,8,0:0:0:0:
185,97,179704,1,0,0:0:0:0:
185,96,179788,1,0,0:0:0:0:
186,95,179872,1,8,0:0:0:0:
186,95,179957,1,0,0:0:0:0:
183,94,180041,1,0,0:0:0:0:
189,83,180210,1,0,0:0:0:0:
190,83,180294,1,8,0:0:0:0:
190,83,180378,1,8,0:0:0:0:
190,82,180462,1,0,0:0:0:0:
190,82,180547,1,8,0:0:0:0:
186,84,180715,1,4,0:0:0:0:
191,89,180884,1,8,0:0:0:0:
190,90,180968,1,8,0:0:0:0:
192,89,181052,1,0,0:0:0:0:
197,86,181221,1,8,0:0:0:0:
197,83,181389,1,0,0:0:0:0:
198,81,181558,1,8,0:0:0:0:
197,77,181642,1,0,0:0:0:0:
196,75,181726,1,8,0:0:0:0:
197,75,181895,1,8,0:0:0:0:
193,76,182063,1,0,0:0:0:0:
197,76,182148,1,8,0:0:0:0:
199,76,182232,1,8,0:0:0:0:
199,76,182316,1,0,0:0:0:0:
199,76,182401,1,8,0:0:0:0:
199,74,182569,1,8,0:0:0:0:
196,75,182738,1,0,0:0:0:0:
193,69,182906,1,8,0:0:0:0:
193,68,182990,1,0,0:0:0:0:
196,66,183075,1,8,0:0:0:0:
195,66,183243,1,0,0:0:0:0:
195,62,183412,1,0,0:0:0:0:
197,61,183496,1,8,0:0:0:0:
196,61,183580,1,8,0:0:0:0:
196,61,183665,1,0,0:0:0:0:
196,61,183749,1,0,0:0:0:0:
195,60,183917,1,8,0:0:0:0:
191,56,184086,1,8,0:0:0:0:
192,54,184254,1,8,0:0:0:0:
192,54,184339,1,8,0:0:0:0:
192,54,184423,1,0,0:0:0:0:
190,53,184592,1,8,0:0:0:0:
203,106,184760,1,0,0:0:0:0:
203,106,184844,1,8,0:0:0:0:
203,106,184929,1,0,0:0:0:0:
203,106,185013,1,0,0:0:0:0:
203,106,185097,1,8,0:0:0:0:
203,106,185181,1,0,0:0:0:0:
203,106,185266,1,8,0:0:0:0:
203,106,185350,1,8,0:0:0:0:
203,106,185434,1,0,0:0:0:0:
219,82,185603,1,0,0:0:0:0:
276,142,185659,1,0,0:0:0:0:
280,159,185715,1,0,0:0:0:0:
208,89,185771,1,8,0:0:0:0:
208,85,185856,1,8,0:0:0:0:
146,170,185940,1,0,0:0:0:0:
212,126,186108,1,12,0:0:0:0:
197,100,186277,1,0,0:0:0:0:
197,100,186361,1,8,0:0:0:0:
196,96,186445,1,8,0:0:0:0:
200,94,186614,1,8,0:0:0:0:
219,97,186783,1,0,0:0:0:0:
215,92,186951,1,8,0:0:0:0:
214,92,187035,1,0,0:0:0:0:
211,92,187120,1,8,0:0:0:0:
210,92,187288,1,8,0:0:0:0:
206,86,187457,1,0,0:0:0:0:
206,86,187625,1,8,0:0:0:0:
206,86,187794,1,8,0:0:0:0:
206,86,187962,1,0,0:0:0:0:
220,87,188131,1,0,0:0:0:0:
224,86,188299,1,8,0:0:0:0:
224,86,188384,1,8,0:0:0:0:
222,84,188468,1,0,0:0:0:0:
184,154,188805,1,0,0:0:0:0:
184,154,188889,1,8,0:0:0:0:
184,154,188974,1,8,0:0:0:0:
179,149,189058,1,0,0:0:0:0:
180,149,189142,1,0,0:0:0:0:
181,147,189311,1,8,0:0:0:0:
180,146,189479,1,0,0:0:0:0:
220,109,189648,1,8,0:0:0:0:
220,109,189732,1,0,0:0:0:0:
220,109,189816,1,0,0:0:0:0:
220,109,189985,1,8,0:0:0:0:
208,114,190153,1,0,0:0:0:0:
196,103,190322,1,8,0:0:0:0:
195,103,190406,1,8,0:0:0:0:
192,97,190490,1,0,0:0:0:0:
195,102,190659,1,8,0:0:0:0:
206,130,190827,1,0,0:0:0:0:
254,153,190912,1,8,0:0:0:0:
198,127,190996,1,0,0:0:0:0:
203,127,191080,1,0,0:0:0:0:
201,128,191165,1,8,0:0:0:0:
189,114,191333,1,8,0:0:0:0:
264,154,191502,1,4,0:0:0:0:
226,133,191670,1,8,0:0:0:0:
223,132,191754,1,8,0:0:0:0:
223,132,191839,1,0,0:0:0:0:
223,131,191923,1,8,0:0:0:0:
225,130,192007,1,8,0:0:0:0:
222,130,192092,1,8,0:0:0:0:
211,116,192176,1,0,0:0:0:0:
224,105,192260,1,8,0:0:0:0:
223,104,192344,1,8,0:0:0:0:
224,104,192429,1,8,0:0:0:0:
224,104,192513,1,0,0:0:0:0:
225,104,192597,1,0,0:0:0:0:
226,104,192681,1,8,0:0:0:0:
226,104,192766,1,8,0:0:0:0:
232,97,192850,1,0,0:0:0:0:
230,98,192934,1,8,0:0:0:0:
192,107,193019,1,8,0:0:0:0:
196,108,193103,1,8,0:0:0:0:
195,110,193187,1,0,0:0:0:0:
195,110,193271,1,0,0:0:0:0:
192,107,193356,1,8,0:0:0:0:
195,110,193440,1,0,0:0:0:0:
181,95,193524,1,8,0:0:0:0:
183,96,193608,1,8,0:0:0:0:
187,99,193693,1,0,0:0:0:0:
187,102,193777,1,8,0:0:0:0:
206,126,193861,1,0,0:0:0:0:
206,125,193945,1,0,0:0:0:0:
196,83,194030,1,8,0:0:0:0:
196,83,194114,1,0,0:0:0:0:
196,120,194198,1,8,0:0:0:0:
198,145,194283,1,8,0:0:0:0:
199,139,194367,1,0,0:0:0:0:
199,139,194451,1,8,0:0:0:0:
197,130,194535,1,0,0:0:0:0:
200,130,194620,1,0,0:0:0:0:
206,126,194704,1,8,0:0:0:0:
206,126,194788,1,8,0:0:0:0:
206,126,194872,1,0,0:0:0:0:
210,130,194957,1,0,0:0:0:0:
208,130,195041,1,8,0:0:0:0:
207,130,195125,1,0,0:0:0:0:
207,130,195210,1,8,0:0:0:0:
207,130,195294,1,8,0:0:0:0:
207,130,195378,1,0,0:0:0:0:
207,130,195462,1,0,0:0:0:0:
188,124,195547,1,8,0:0:0:0:
192,122,195631,1,8,0:0:0:0:
193,122,195715,1,0,0:0:0:0:
192,122,195799,1,8,0:0:0:0:
192,122,195884,1,0,0:0:0:0:
192,122,195968,1,0,0:0:0:0:
193,121,196052,1,8,0:0:0:0:
195,120,196108,1,0,0:0:0:0:
215,128,196165,1,0,0:0:0:0:
210,137,196221,1,0,0:0:0:0:
195,120,196305,1,8,0:0:0:0:
183,105,196389,1,0,0:0:0:0:
188,105,196474,1,0,0:0:0:0:
186,105,196558,1,8,0:0:0:0:
186,105,196642,1,0,0:0:0:0:
188,105,196726,1,8,0:0:0:0:
188,105,196811,1,8,0:0:0:0:
195,119,196895,1,4,0:0:0:0:
225,153,197063,1,8,0:0:0:0:
225,153,197232,1,0,0:0:0:0:
225,153,197316,1,0,0:0:0:0:
225,153,197401,1,8,0:0:0:0:
229,144,197569,1,0,0:0:0:0:
230,144,197738,1,8,0:0:0:0:
229,144,197822,1,0,0:0:0:0:
229,144,197990,1,0,0:0:0:0:
229,144,198075,1,8,0:0:0:0:
189,80,198243,1,0,0:0:0:0:
229,142,198412,1,8,0:0:0:0:
192,65,198496,1,0,0:0:0:0:
229,144,198580,1,8,0:0:0:0:
230,144,198749,1,8,0:0:0:0:
223,134,198917,1,0,0:0:0:0:
189,80,199086,1,8,0:0:0:0:
200,91,199170,1,0,0:0:0:0:
200,90,199339,1,0,0:0:0:0:
200,94,199423,1,8,0:0:0:0:
189,74,199592,1,0,0:0:0:0:
215,127,199676,1,0,0:0:0:0:
189,80,199760,1,8,0:0:0:0:
184,77,199844,1,8,0:0:0:0:
189,80,199929,1,0,0:0:0:0:
189,80,200097,1,8,0:0:0:0:
197,80,200266,1,0,0:0:0:0:
196,78,200350,1,8,0:0:0:0:
196,78,200434,1,0,0:0:0:0:
196,78,200519,1,0,0:0:0:0:
196,77,200603,1,8,0:0:0:0:
197,76,200771,1,8,0:0:0:0:
200,117,200940,1,0,0:0:0:0:
196,111,201108,1,8,0:0:0:0:
201,106,201193,1,0,0:0:0:0:
193,106,201361,1,0,0:0:0:0:
191,104,201445,1,8,0:0:0:0:
192,97,201614,1,0,0:0:0:0:
169,101,201698,1,8,0:0:0:0:
189,97,201783,1,8,0:0:0:0:
189,97,201867,1,8,0:0:0:0:
187,97,201951,1,0,0:0:0:0:
174,101,202035,1,0,0:0:0:0:
173,101,202120,1,8,0:0:0:0:
219,110,202204,1,8,0:0:0:0:
206,110,202288,1,4,0:0:0:0:
198,102,202457,1,8,0:0:0:0:
199,102,202625,1,0,0:0:0:0:
201,102,202710,1,0,0:0:0:0:
202,102,202794,1,8,0:0:0:0:
201,97,202962,1,0,0:0:0:0:
202,96,203131,1,8,0:0:0:0:
199,120,203215,1,0,0:0:0:0:
214,118,203384,1,0,0:0:0:0:
208,120,203468,1,8,0:0:0:0:
201,116,203636,1,0,0:0:0:0:
207,92,203721,1,0,0:0:0:0:
202,93,203805,1,8,0:0:0:0:
201,97,203889,1,0,0:0:0:0:
201,97,203974,1,8,0:0:0:0:
202,96,204142,1,8,0:0:0:0:
197,96,204311,1,0,0:0:0:0:
197,96,204479,1,8,0:0:0:0:
195,96,204563,1,0,0:0:0:0:
196,95,204648,1,0,0:0:0:0:
197,95,204732,1,0,0:0:0:0:
202,93,204816,1,8,0:0:0:0:
201,97,204985,1,0,0:0:0:0:
196,96,205153,1,8,0:0:0:0:
197,96,205238,1,0,0:0:0:0:
201,97,205322,1,8,0:0:0:0:
197,96,205490,1,0,0:0:0:0:
196,95,205659,1,8,0:0:0:0:
203,83,205743,1,0,0:0:0:0:
203,83,205827,1,0,0:0:0:0:
201,83,205912,1,0,0:0:0:0:
206,75,205996,1,8,0:0:0:0:
206,91,206165,1,0,0:0:0:0:
208,72,206333,1,0,0:0:0:0:
202,72,206417,1,8,0:0:0:0:
201,73,206502,1,8,0:0:0:0:
202,72,206586,1,0,0:0:0:0:
206,72,206670,1,0,0:0:0:0:
209,71,206839,1,8,0:0:0:0:
188,109,207007,1,8,0:0:0:0:
188,109,207092,1,0,0:0:0:0:
188,109,207176,1,8,0:0:0:0:
188,109,207260,1,0,0:0:0:0:
188,109,207344,1,0,0:0:0:0:
219,198,207429,1,0,0:0:0:0:
188,109,207513,1,8,0:0:0:0:
188,109,207597,1,8,0:0:0:0:
188,109,207681,1,4,0:0:0:0:
198,101,207850,1,8,0:0:0:0:
199,97,207934,1,0,0:0:0:0:
197,99,208019,1,0,0:0:0:0:
195,97,208103,1,0,0:0:0:0:
195,98,208187,1,8,0:0:0:0:
197,97,208356,1,0,0:0:0:0:
193,97,208524,1,8,0:0:0:0:
188,97,208608,1,8,0:0:0:0:
191,97,208693,1,0,0:0:0:0:
194,97,208777,1,8,0:0:0:0:
193,99,208861,1,8,0:0:0:0:
206,86,209030,1,0,0:0:0:0:
174,76,209114,1,8,0:0:0:0:
177,77,209198,1,0,0:0:0:0:
182,79,209283,1,0,0:0:0:0:
183,81,209367,1,8,0:0:0:0:
182,81,209535,1,8,0:0:0:0:
188,80,209704,1,0,0:0:0:0:
188,80,209872,1,8,0:0:0:0:
187,80,209957,1,8,0:0:0:0:
190,81,210041,1,0,0:0:0:0:
189,81,210125,1,0,0:0:0:0:
190,81,210210,1,8,0:0:0:0:
191,78,210378,1,0,0:0:0:0:
189,78,210547,1,8,0:0:0:0:
188,80,210631,1,0,0:0:0:0:
188,80,210715,1,8,0:0:0:0:
188,80,210884,1,8,0:0:0:0:
189,68,211052,1,0,0:0:0:0:
194,68,211136,1,8,0:0:0:0:
193,69,211221,1,8,0:0:0:0:
193,69,211305,1,0,0:0:0:0:
193,69,211389,1,8,0:0:0:0:
193,69,211558,1,8,0:0:0:0:
196,68,211726,1,0,0:0:0:0:
199,75,211895,1,8,0:0:0:0:
197,75,211979,1,8,0:0:0:0:
198,75,212063,1,0,0:0:0:0:
201,75,212232,1,0,0:0:0:0:
215,127,212401,1,8,0:0:0:0:
231,167,212569,1,8,0:0:0:0:
214,119,212653,1,0,0:0:0:0:
214,118,212738,1,8,0:0:0:0:
201,133,212822,1,8,0:0:0:0:
205,127,212906,1,0,0:0:0:0:
205,127,212990,1,8,0:0:0:0:
203,104,213075,1,4,0:0:0:0:
219,118,213243,1,8,0:0:0:0:
215,119,213327,1,0,0:0:0:0:
215,127,213412,1,8,0:0:0:0:
209,122,213496,1,0,0:0:0:0:
213,124,213580,1,8,0:0:0:0:
209,123,213749,1,0,0:0:0:0:
204,119,213917,1,8,0:0:0:0:
204,119,214002,1,0,0:0:0:0:
201,117,214086,1,0,0:0:0:0:
208,132,214170,1,0,0:0:0:0:
205,133,214254,1,8,0:0:0:0:
203,142,214423,1,8,0:0:0:0:
199,141,214507,1,8,0:0:0:0:
155,157,214592,1,0,0:0:0:0:
200,141,214676,1,8,0:0:0:0:
201,141,214760,1,0,0:0:0:0:
193,131,214929,1,8,0:0:0:0:
190,128,215097,1,0,0:0:0:0:
219,124,215266,1,0,0:0:0:0:
219,124,215350,1,0,0:0:0:0:
221,124,215434,1,8,0:0:0:0:
219,124,215603,1,8,0:0:0:0:
219,124,215771,1,8,0:0:0:0:
219,124,215940,1,0,0:0:0:0:
219,124,216024,1,8,0:0:0:0:
223,122,216108,1,0,0:0:0:0:
219,124,216277,1,0,0:0:0:0:
235,117,216445,1,8,0:0:0:0:
235,117,216530,1,8,0:0:0:0:
235,117,216614,1,0,0:0:0:0:
235,117,216783,1,8,0:0:0:0:
235,117,216951,1,8,0:0:0:0:
204,107,217120,1,0,0:0:0:0:
205,104,217204,1,0,0:0:0:0:
205,104,217288,1,8,0:0:0:0:
204,107,217372,1,0,0:0:0:0:
204,107,217457,1,8,0:0:0:0:
201,100,217625,1,8,0:0:0:0:
212,95,217794,1,0,0:0:0:0:
191,212,217878,1,8,0:0:0:0:
191,212,217962,1,0,0:0:0:0:
208,82,218047,1,0,0:0:0:0:
208,82,218131,1,8,0:0:0:0:
179,121,218215,1,0,0:0:0:0:
317,129,218299,1,8,0:0:0:0:
317,129,218384,1,8,0:0:0:0:
208,56,218468,1,4,0:0:0:0:
201,51,218636,1,8,0:0:0:0:
178,128,218721,1,8,0:0:0:0:
204,50,218805,1,0,0:0:0:0:
208,49,218889,1,0,0:0:0:0:
209,49,218974,1,8,0:0:0:0:
190,53,219142,1,0,0:0:0:0:
189,53,219226,1,8,0:0:0:0:
201,51,219311,1,0,0:0:0:0:
200,54,219395,1,0,0:0:0:0:
203,53,219479,1,8,0:0:0:0:
201,51,219563,1,0,0:0:0:0:
201,51,219648,1,8,0:0:0:0:
199,127,219816,1,0,0:0:0:0:
192,121,219985,1,8,0:0:0:0:
226,147,220069,1,0,0:0:0:0:
199,127,220153,1,0,0:0:0:0:
199,127,220238,1,0,0:0:0:0:
199,127,220322,1,8,0:0:0:0:
227,109,220490,1,8,0:0:0:0:
215,112,220575,1,8,0:0:0:0:
214,112,220659,1,0,0:0:0:0:
214,113,220743,1,8,0:0:0:0:
214,113,220827,1,0,0:0:0:0:
210,114,220912,1,8,0:0:0:0:
209,115,220996,1,8,0:0:0:0:
210,115,221080,1,8,0:0:0:0:
213,114,221165,1,0,0:0:0:0:
199,91,221333,1,8,0:0:0:0:
199,91,221417,1,0,0:0:0:0:
194,91,221586,1,0,0:0:0:0:
213,131,221670,1,8,0:0:0:0:
181,117,221839,1,0,0:0:0:0:
181,117,221923,1,8,0:0:0:0:
181,117,222007,1,8,0:0:0:0:
181,117,222092,1,8,0:0:0:0:
197,178,222176,1,0,0:0:0:0:
181,117,222260,1,8,0:0:0:0:
181,117,222344,1,0,0:0:0:0:
182,122,222429,1,0,0:0:0:0:
208,117,222513,1,8,0:0:0:0:
208,107,222681,1,0,0:0:0:0:
206,107,222766,1,0,0:0:0:0:
206,107,222850,1,8,0:0:0:0:
207,107,223019,1,0,0:0:0:0:
201,86,223103,1,8,0:0:0:0:
248,136,223187,1,8,0:0:0:0:
248,136,223271,1,0,0:0:0:0:
228,175,223356,1,0,0:0:0:0:
228,175,223440,1,8,0:0:0:0:
248,136,223524,1,0,0:0:0:0:
191,90,223608,1,0,0:0:0:0:
198,100,223693,1,8,0:0:0:0:
199,98,223777,1,8,0:0:0:0:
199,97,223861,1,0,0:0:0:0:
215,72,224030,1,0,0:0:0:0:
213,72,224114,1,0,0:0:0:0:
212,71,224198,1,8,0:0:0:0:
166,129,224283,1,0,0:0:0:0:
205,108,224367,1,8,0:0:0:0:
207,63,224535,1,8,0:0:0:0:
206,62,224620,1,0,0:0:0:0:
207,61,224704,1,8,0:0:0:0:
205,60,224788,1,8,0:0:0:0:
203,61,224872,1,0,0:0:0:0:
207,60,224957,1,0,0:0:0:0:
208,60,225041,1,8,0:0:0:0:
180,85,225210,1,0,0:0:0:0:
189,83,225378,1,8,0:0:0:0:
189,81,225462,1,0,0:0:0:0:
205,55,225547,1,8,0:0:0:0:
224,111,225631,1,0,0:0:0:0:
208,55,225715,1,0,0:0:0:0:
208,55,225799,1,8,0:0:0:0:
187,67,225884,1,8,0:0:0:0:
188,69,226052,1,0,0:0:0:0:
225,96,226136,1,0,0:0:0:0:
189,88,226221,1,8,0:0:0:0:
189,80,226558,1,12,0:0:0:0:
195,110,226726,1,0,0:0:0:0:
191,111,226811,1,8,0:0:0:0:
191,113,226895,1,8,0:0:0:0:
193,113,227063,1,0,0:0:0:0:
211,107,227232,1,8,0:0:0:0:
209,107,227316,1,0,0:0:0:0:
208,107,227401,1,8,0:0:0:0:
208,106,227485,1,8,0:0:0:0:
212,36,227569,1,0,0:0:0:0:
212,104,227738,1,8,0:0:0:0:
205,101,227906,1,0,0:0:0:0:
208,102,227990,1,8,0:0:0:0:
206,108,228075,1,8,0:0:0:0:
211,107,228159,1,0,0:0:0:0:
211,107,228243,1,8,0:0:0:0:
209,107,228327,1,8,0:0:0:0:
208,107,228412,1,0,0:0:0:0:
208,106,228496,1,0,0:0:0:0:
211,105,228580,1,8,0:0:0:0:
212,104,228665,1,0,0:0:0:0:
212,104,228749,1,8,0:0:0:0:
211,104,228833,1,8,0:0:0:0:
210,103,228917,1,0,0:0:0:0:
208,102,229002,1,0,0:0:0:0:
213,102,229086,1,8,0:0:0:0:
214,102,229170,1,8,0:0:0:0:
190,173,229254,1,4,0:0:0:0:
201,158,229423,1,8,0:0:0:0:
170,148,229507,1,0,0:0:0:0:
170,148,229592,1,0,0:0:0:0:
190,145,229676,1,0,0:0:0:0:
190,145,229760,1,8,0:0:0:0:
184,90,229929,1,8,0:0:0:0:
185,95,230013,1,0,0:0:0:0:
186,98,230097,1,8,0:0:0:0:
186,98,230181,1,8,0:0:0:0:
185,98,230266,1,0,0:0:0:0:
187,96,230350,1,0,0:0:0:0:
187,97,230434,1,8,0:0:0:0:
182,98,230519,1,8,0:0:0:0:
188,99,230603,1,0,0:0:0:0:
188,99,230771,1,8,0:0:0:0:
188,83,230856,1,8,0:0:0:0:
188,83,230940,1,0,0:0:0:0:
188,83,231024,1,0,0:0:0:0:
188,83,231108,1,8,0:0:0:0:
185,98,231277,1,0,0:0:0:0:
187,96,231361,1,0,0:0:0:0:
187,91,231445,1,8,0:0:0:0:
187,92,231530,1,8,0:0:0:0:
187,92,231614,1,0,0:0:0:0:
188,92,231698,1,8,0:0:0:0:
215,143,231783,1,8,0:0:0:0:
217,137,231867,1,8,0:0:0:0:
217,134,231951,1,0,0:0:0:0:
206,80,232120,1,8,0:0:0:0:
208,146,232204,1,0,0:0:0:0:
215,143,232372,1,0,0:0:0:0:
215,143,232457,1,8,0:0:0:0:
183,128,232625,1,0,0:0:0:0:
189,127,232710,1,8,0:0:0:0:
190,128,232794,1,8,0:0:0:0:
190,129,232878,1,0,0:0:0:0:
190,129,232962,1,8,0:0:0:0:
191,129,233047,1,0,0:0:0:0:
191,128,233131,1,8,0:0:0:0:
183,128,233215,1,8,0:0:0:0:
183,128,233299,1,0,0:0:0:0:
189,108,233468,1,8,0:0:0:0:
189,105,233552,1,8,0:0:0:0:
189,105,233636,1,0,0:0:0:0:
196,98,233805,1,8,0:0:0:0:
198,100,233889,1,0,0:0:0:0:
197,99,233974,1,8,0:0:0:0:
198,98,234142,1,0,0:0:0:0:
196,96,234226,1,0,0:0:0:0:
199,94,234311,1,8,0:0:0:0:
197,94,234395,1,8,0:0:0:0:
199,93,234479,1,0,0:0:0:0:
195,103,234563,1,0,0:0:0:0:
189,105,234648,1,8,0:0:0:0:
197,114,234732,1,0,0:0:0:0:
201,115,234816,1,8,0:0:0:0:
201,114,234901,1,8,0:0:0:0:
201,115,234985,1,0,0:0:0:0:
202,115,235153,1,8,0:0:0:0:
207,114,235322,1,0,0:0:0:0:
208,113,235406,1,8,0:0:0:0:
207,112,235490,1,8,0:0:0:0:
205,112,235575,1,0,0:0:0:0:
207,109,235659,1,0,0:0:0:0:
207,109,235743,1,8,0:0:0:0:
205,112,235827,1,8,0:0:0:0:
207,104,235996,1,0,0:0:0:0:
194,84,236165,1,8,0:0:0:0:
194,83,236249,1,8,0:0:0:0:
194,84,236333,1,0,0:0:0:0:
183,87,236502,1,8,0:0:0:0:
192,78,236670,1,0,0:0:0:0:
195,83,236754,1,0,0:0:0:0:
194,84,236839,1,8,0:0:0:0:
194,78,236923,1,0,0:0:0:0:
194,77,237007,1,8,0:0:0:0:
194,77,237092,1,0,0:0:0:0:
195,76,237176,1,8,0:0:0:0:
199,72,237344,1,8,0:0:0:0:
201,71,237513,1,8,0:0:0:0:
201,71,237597,1,8,0:0:0:0:
203,70,237681,1,0,0:0:0:0:
203,69,237850,1,8,0:0:0:0:
195,57,238019,1,0,0:0:0:0:
197,57,238103,1,8,0:0:0:0:
200,56,238187,1,8,0:0:0:0:
200,57,238271,1,8,0:0:0:0:
201,58,238356,1,0,0:0:0:0:
205,59,238524,1,0,0:0:0:0:
188,112,238693,1,8,0:0:0:0:
195,110,238777,1,8,0:0:0:0:
195,109,238861,1,0,0:0:0:0:
195,109,238945,1,0,0:0:0:0:
194,109,239030,1,8,0:0:0:0:
195,109,239114,1,0,0:0:0:0:
195,110,239198,1,0,0:0:0:0:
193,112,239283,1,0,0:0:0:0:
188,112,239367,1,8,0:0:0:0:
188,112,239451,1,8,0:0:0:0:
188,112,239535,1,0,0:0:0:0:
208,142,239592,1,0,0:0:0:0:
188,112,239648,1,0,0:0:0:0:
188,112,239704,1,8,0:0:0:0:
189,111,239788,1,0,0:0:0:0:
189,111,239872,1,8,0:0:0:0:
232,138,239957,1,8,0:0:0:0:
232,138,240041,1,4,0:0:0:0:
201,148,240378,1,8,0:0:0:0:
219,158,240547,1,0,0:0:0:0:
219,158,240715,1,8,0:0:0:0:
218,159,240884,1,0,0:0:0:0:
239,136,241052,1,8,0:0:0:0:
239,136,241221,1,8,0:0:0:0:
239,136,241389,1,0,0:0:0:0:
239,136,241558,1,8,0:0:0:0:
239,136,241726,1,8,0:0:0:0:
239,136,241895,1,0,0:0:0:0:
181,157,242063,1,8,0:0:0:0:
181,157,242401,1,0,0:0:0:0:
220,102,242485,1,0,0:0:0:0:
213,106,242569,1,0,0:0:0:0:
226,108,242653,1,0,0:0:0:0:
181,157,242738,1,8,0:0:0:0:
181,109,242906,1,0,0:0:0:0:
201,103,242990,1,8,0:0:0:0:
199,103,243159,1,8,0:0:0:0:
198,103,243243,1,0,0:0:0:0:
193,110,243412,1,0,0:0:0:0:
193,110,243580,1,0,0:0:0:0:
193,110,243665,1,8,0:0:0:0:
192,111,243833,1,8,0:0:0:0:
193,111,243917,1,8,0:0:0:0:
231,131,244086,1,0,0:0:0:0:
231,131,244423,1,0,0:0:0:0:
228,123,244592,1,8,0:0:0:0:
225,118,244676,1,8,0:0:0:0:
224,118,244760,1,0,0:0:0:0:
213,120,244929,1,0,0:0:0:0:
212,117,245097,1,8,0:0:0:0:
212,117,245181,1,0,0:0:0:0:
213,117,245266,1,8,0:0:0:0:
214,117,245350,1,8,0:0:0:0:
214,115,245434,1,4,0:0:0:0:
259,97,245771,1,8,0:0:0:0:
259,97,245940,1,0,0:0:0:0:
259,97,246108,1,8,0:0:0:0:
223,147,246277,1,8,0:0:0:0:
223,147,246445,1,0,0:0:0:0:
223,147,246614,1,8,0:0:0:0:
236,154,246783,1,0,0:0:0:0:
269,134,247120,1,8,0:0:0:0:
269,134,247288,1,0,0:0:0:0:
269,134,247457,1,8,0:0:0:0:
235,124,247794,1,8,0:0:0:0:
235,124,247878,1,0,0:0:0:0:
235,124,247962,1,0,0:0:0:0:
235,124,248047,1,0,0:0:0:0:
235,124,248131,1,0,0:0:0:0:
223,138,248299,1,8,0:0:0:0:
222,138,248468,1,0,0:0:0:0:
222,138,248636,1,0,0:0:0:0:
222,138,248805,1,8,0:0:0:0:
222,138,248974,1,0,0:0:0:0:
196,73,249142,1,8,0:0:0:0:
196,73,249311,1,8,0:0:0:0:
236,147,249479,1,8,0:0:0:0:
236,147,249563,1,8,0:0:0:0:
199,79,249648,1,0,0:0:0:0:
198,79,249732,1,0,0:0:0:0:
196,80,249816,1,0,0:0:0:0:
196,80,249901,1,0,0:0:0:0:
195,80,249985,1,8,0:0:0:0:
236,147,250069,1,8,0:0:0:0:
185,74,250153,1,0,0:0:0:0:
185,74,250238,1,8,0:0:0:0:
185,74,250322,1,0,0:0:0:0:
185,74,250406,1,0,0:0:0:0:
185,74,250490,1,8,0:0:0:0:
185,74,250575,1,0,0:0:0:0:
185,74,250659,1,8,0:0:0:0:
185,74,250743,1,8,0:0:0:0:
187,71,250827,1,4,0:0:0:0:
171,69,250996,1,0,0:0:0:0:
169,73,251080,1,0,0:0:0:0:
169,73,251165,1,8,0:0:0:0:
246,155,251249,1,0,0:0:0:0:
246,155,251333,1,8,0:0:0:0:
196,75,251502,1,8,0:0:0:0:
194,74,251586,1,8,0:0:0:0:
191,73,251670,1,0,0:0:0:0:
191,73,251754,1,0,0:0:0:0:
187,71,251839,1,8,0:0:0:0:
188,71,251923,1,0,0:0:0:0:
209,73,252007,1,8,0:0:0:0:
188,71,252176,1,0,0:0:0:0:
174,94,252344,1,8,0:0:0:0:
174,94,252429,1,8,0:0:0:0:
174,94,252513,1,0,0:0:0:0:
261,148,252597,1,0,0:0:0:0:
174,94,252681,1,8,0:0:0:0:
191,53,252850,1,0,0:0:0:0:
195,53,252934,1,8,0:0:0:0:
201,52,253019,1,0,0:0:0:0:
198,53,253103,1,0,0:0:0:0:
194,54,253187,1,8,0:0:0:0:
191,53,253524,1,12,0:0:0:0:
202,94,253693,1,0,0:0:0:0:
202,94,253777,1,8,0:0:0:0:
202,94,253945,1,8,0:0:0:0:
207,94,254030,1,0,0:0:0:0:
210,90,254198,1,0,0:0:0:0:
210,90,254367,1,0,0:0:0:0:
210,88,254451,1,8,0:0:0:0:
211,85,254620,1,8,0:0:0:0:
209,81,254704,1,8,0:0:0:0:
208,84,254872,1,0,0:0:0:0:
205,146,255041,1,8,0:0:0:0:
205,146,255125,1,8,0:0:0:0:
205,146,255210,1,0,0:0:0:0:
218,143,255378,1,8,0:0:0:0:
219,140,255462,1,0,0:0:0:0:
218,140,255547,1,8,0:0:0:0:
218,156,255715,1,0,0:0:0:0:
218,140,255799,1,8,0:0:0:0:
218,140,255884,1,0,0:0:0:0:
218,140,255968,1,0,0:0:0:0:
218,140,256052,1,8,0:0:0:0:
218,140,256136,1,8,0:0:0:0:
214,149,256221,1,4,0:0:0:0:
213,168,256389,1,8,0:0:0:0:
213,167,256474,1,8,0:0:0:0:
214,166,256558,1,0,0:0:0:0:
214,165,256726,1,8,0:0:0:0:
220,157,256895,1,0,0:0:0:0:
220,157,256979,1,8,0:0:0:0:
220,157,257063,1,8,0:0:0:0:
220,157,257148,1,0,0:0:0:0:
220,157,257232,1,8,0:0:0:0:
220,157,257316,1,0,0:0:0:0:
220,157,257401,1,8,0:0:0:0:
204,159,257569,1,0,0:0:0:0:
219,108,257738,1,8,0:0:0:0:
219,108,257822,1,0,0:0:0:0:
219,108,257906,1,0,0:0:0:0:
219,108,258075,1,8,0:0:0:0:
206,142,258243,1,0,0:0:0:0:
208,141,258327,1,0,0:0:0:0:
205,138,258412,1,8,0:0:0:0:
201,136,258496,1,8,0:0:0:0:
202,134,258580,1,8,0:0:0:0:
228,156,258917,1,8,0:0:0:0:
206,142,259086,1,0,0:0:0:0:
206,142,259170,1,0,0:0:0:0:
206,142,259254,1,8,0:0:0:0:
201,143,259423,1,8,0:0:0:0:
210,130,259592,1,8,0:0:0:0:
211,130,259676,1,0,0:0:0:0:
210,130,259760,1,8,0:0:0:0:
213,127,259844,1,8,0:0:0:0:
213,127,259929,1,0,0:0:0:0:
214,127,260013,1,0,0:0:0:0:
214,127,260097,1,8,0:0:0:0:
214,127,260266,1,0,0:0:0:0:
207,134,260434,1,0,0:0:0:0:
203,129,260603,1,8,0:0:0:0:
206,124,260687,1,8,0:0:0:0:
206,124,260771,1,0,0:0:0:0:
206,124,260856,1,8,0:0:0:0:
206,124,260940,1,0,0:0:0:0:
206,124,261108,1,0,0:0:0:0:
213,118,261277,1,8,0:0:0:0:
213,118,261361,1,8,0:0:0:0:
213,118,261445,1,0,0:0:0:0:
213,118,261530,1,0,0:0:0:0:
211,118,261614,1,12,0:0:0:0:
215,117,261951,1,8,0:0:0:0:
215,117,262120,1,0,0:0:0:0:
200,157,262457,1,0,0:0:0:0:
209,146,262625,1,0,0:0:0:0:
193,159,262794,1,8,0:0:0:0:
193,159,262962,1,8,0:0:0:0:
192,159,263299,1,8,0:0:0:0:
192,159,263636,1,0,0:0:0:0:
184,164,263974,1,0,0:0:0:0:
181,168,264311,1,8,0:0:0:0:
181,170,264816,1,0,0:0:0:0:
177,171,264985,1,8,0:0:0:0:
175,171,265153,1,0,0:0:0:0:
175,171,265322,1,8,0:0:0:0:
175,171,265490,1,8,0:0:0:0:
175,171,265659,1,8,0:0:0:0:
194,91,266165,1,8,0:0:0:0:
194,91,266249,1,0,0:0:0:0:
194,91,266333,1,8,0:0:0:0:
211,115,266502,1,0,0:0:0:0:
211,115,266670,1,8,0:0:0:0:
211,115,266839,1,8,0:0:0:0:
211,115,267007,1,0,0:0:0:0:
211,115,267344,1,8,0:0:0:0:
211,115,267513,1,0,0:0:0:0:
200,132,267850,1,8,0:0:0:0:
199,132,268019,1,0,0:0:0:0:
199,132,268187,1,8,0:0:0:0:
199,132,268356,1,8,0:0:0:0:
206,137,268693,1,0,0:0:0:0:
206,137,269030,1,8,0:0:0:0:
208,148,269367,1,8,0:0:0:0:
202,151,269704,1,8,0:0:0:0:
220,130,270210,1,0,0:0:0:0:
220,130,270715,1,8,0:0:0:0:
220,130,271052,1,8,0:0:0:0:
219,105,271221,1,0,0:0:0:0:
209,109,271389,1,0,0:0:0:0:
209,109,271558,1,0,0:0:0:0:
209,109,271726,1,12,0:0:0:0:
219,105,272063,1,0,0:0:0:0:
219,105,272232,1,8,0:0:0:0:
219,103,272401,1,12,0:0:0:0:
192,135,272569,1,0,0:0:0:0:
188,104,272738,1,8,0:0:0:0:
200,107,272822,1,8,0:0:0:0:
200,107,272906,1,0,0:0:0:0:
190,99,273075,1,0,0:0:0:0:
191,99,273243,1,8,0:0:0:0:
191,98,273327,1,8,0:0:0:0:
245,197,273412,1,8,0:0:0:0:
191,98,273496,1,0,0:0:0:0:
190,98,273580,1,8,0:0:0:0:
195,98,273749,1,0,0:0:0:0:
195,98,273917,1,8,0:0:0:0:
182,113,274002,1,0,0:0:0:0:
185,113,274086,1,0,0:0:0:0:
185,117,274254,1,8,0:0:0:0:
190,117,274423,1,0,0:0:0:0:
189,114,274507,1,8,0:0:0:0:
186,117,274592,1,8,0:0:0:0:
188,114,274676,1,0,0:0:0:0:
186,115,274760,1,8,0:0:0:0:
186,115,274929,1,8,0:0:0:0:
206,115,275097,1,0,0:0:0:0:
208,110,275266,1,8,0:0:0:0:
208,110,275350,1,8,0:0:0:0:
208,109,275434,1,0,0:0:0:0:
208,109,275603,1,8,0:0:0:0:
208,109,275687,1,0,0:0:0:0:
208,109,275771,1,8,0:0:0:0:
201,109,275940,1,0,0:0:0:0:
196,110,276108,1,8,0:0:0:0:
196,110,276277,1,8,0:0:0:0:
208,109,276445,1,0,0:0:0:0:
212,102,276614,1,0,0:0:0:0:
210,103,276698,1,0,0:0:0:0:
212,102,276783,1,8,0:0:0:0:
212,101,276867,1,0,0:0:0:0:
212,101,276951,1,8,0:0:0:0:
215,99,277120,1,0,0:0:0:0:
214,97,277288,1,8,0:0:0:0:
214,97,277372,1,0,0:0:0:0:
214,97,277457,1,8,0:0:0:0:
212,102,277541,1,8,0:0:0:0:
212,102,277625,1,8,0:0:0:0:
191,148,277794,1,4,0:0:0:0:
208,120,277962,1,8,0:0:0:0:
213,120,278047,1,0,0:0:0:0:
211,119,278131,1,0,0:0:0:0:
211,119,278299,1,8,0:0:0:0:
200,116,278468,1,0,0:0:0:0:
199,116,278552,1,8,0:0:0:0:
199,116,278636,1,0,0:0:0:0:
199,116,278721,1,0,0:0:0:0:
197,116,278805,1,8,0:0:0:0:
199,116,278974,1,8,0:0:0:0:
195,124,279142,1,0,0:0:0:0:
192,122,279311,1,0,0:0:0:0:
193,122,279395,1,0,0:0:0:0:
195,121,279479,1,8,0:0:0:0:
203,127,279648,1,0,0:0:0:0:
206,122,279732,1,8,0:0:0:0:
206,122,279816,1,8,0:0:0:0:
195,121,279985,1,0,0:0:0:0:
195,124,280069,1,0,0:0:0:0:
195,118,280153,1,8,0:0:0:0:
192,122,280238,1,0,0:0:0:0:
198,118,280322,1,8,0:0:0:0:
193,122,280406,1,8,0:0:0:0:
195,121,280490,1,0,0:0:0:0:
199,119,280659,1,8,0:0:0:0:
201,111,280743,1,0,0:0:0:0:
201,111,280827,1,8,0:0:0:0:
201,111,280996,1,8,0:0:0:0:
205,101,281165,1,0,0:0:0:0:
205,101,281249,1,8,0:0:0:0:
205,101,281333,1,8,0:0:0:0:
205,101,281417,1,0,0:0:0:0:
203,101,281502,1,8,0:0:0:0:
202,101,281670,1,8,0:0:0:0:
195,98,281839,1,0,0:0:0:0:
205,97,282007,1,0,0:0:0:0:
197,102,282092,1,0,0:0:0:0:
194,98,282176,1,8,0:0:0:0:
199,96,282344,1,8,0:0:0:0:
199,96,282429,1,8,0:0:0:0:
198,95,282513,1,0,0:0:0:0:
192,89,282681,1,0,0:0:0:0:
226,154,282766,1,0,0:0:0:0:
206,147,282850,1,8,0:0:0:0:
206,147,282934,1,8,0:0:0:0:
206,147,283019,1,8,0:0:0:0:
206,147,283103,1,0,0:0:0:0:
194,144,283187,1,12,0:0:0:0:
176,89,283356,1,0,0:0:0:0:
176,89,283440,1,0,0:0:0:0:
176,89,283524,1,8,0:0:0:0:
176,89,283693,1,8,0:0:0:0:
178,87,283861,1,0,0:0:0:0:
174,89,284030,1,8,0:0:0:0:
174,89,284114,1,0,0:0:0:0:
174,89,284198,1,8,0:0:0:0:
176,89,284283,1,8,0:0:0:0:
176,89,284367,1,0,0:0:0:0:
176,89,284451,1,0,0:0:0:0:
181,88,284535,1,8,0:0:0:0:
199,76,284704,1,0,0:0:0:0:
203,82,284788,1,0,0:0:0:0:
203,82,284872,1,8,0:0:0:0:
200,85,285041,1,8,0:0:0:0:
174,89,285210,1,0,0:0:0:0:
176,89,285378,1,8,0:0:0:0:
176,89,285462,1,0,0:0:0:0:
174,87,285547,1,8,0:0:0:0:
174,89,285631,1,8,0:0:0:0:
174,89,285715,1,8,0:0:0:0:
174,89,285799,1,0,0:0:0:0:
174,89,285884,1,8,0:0:0:0:
175,82,286052,1,0,0:0:0:0:
176,81,286136,1,8,0:0:0:0:
176,81,286221,1,8,0:0:0:0:
174,80,286389,1,8,0:0:0:0:
185,74,286558,1,0,0:0:0:0:
185,70,286726,1,0,0:0:0:0:
180,70,286811,1,8,0:0:0:0:
178,70,286895,1,8,0:0:0:0:
177,70,286979,1,8,0:0:0:0:
171,72,287063,1,0,0:0:0:0:
171,72,287148,1,0,0:0:0:0:
177,73,287232,1,8,0:0:0:0:
209,89,287401,1,0,0:0:0:0:
209,89,287485,1,0,0:0:0:0:
209,89,287569,1,8,0:0:0:0:
209,89,287738,1,8,0:0:0:0:
215,127,287906,1,0,0:0:0:0:
215,127,288075,1,8,0:0:0:0:
215,127,288159,1,0,0:0:0:0:
215,127,288243,1,8,0:0:0:0:
215,127,288327,1,0,0:0:0:0:
215,127,288412,1,8,0:0:0:0:
215,127,288496,1,8,0:0:0:0:
215,127,288580,1,0,0:0:0:0:
188,165,288749,1,8,0:0:0:0:
199,162,288917,1,0,0:0:0:0:
217,139,289002,1,0,0:0:0:0:
207,149,289086,1,8,0:0:0:0:
206,149,289170,1,0,0:0:0:0:
206,149,289254,1,8,0:0:0:0:
224,119,289423,1,0,0:0:0:0:
224,118,289507,1,8,0:0:0:0:
222,119,289676,1,8,0:0:0:0:
222,119,289760,1,0,0:0:0:0:
220,107,289929,1,0,0:0:0:0:
220,107,290097,1,8,0:0:0:0:
212,102,290266,1,0,0:0:0:0:
211,101,290350,1,8,0:0:0:0:
204,99,290434,1,8,0:0:0:0:
206,98,290519,1,0,0:0:0:0:
206,97,290603,1,8,0:0:0:0:
213,110,290771,1,0,0:0:0:0:
195,97,290856,1,8,0:0:0:0:
207,108,291024,1,8,0:0:0:0:
196,98,291108,1,0,0:0:0:0:
194,106,291277,1,0,0:0:0:0:
186,105,291445,1,8,0:0:0:0:
184,104,291530,1,8,0:0:0:0:
184,104,291614,1,0,0:0:0:0:
184,104,291783,1,8,0:0:0:0:
179,94,291951,1,0,0:0:0:0:
179,94,292035,1,0,0:0:0:0:
179,94,292120,1,8,0:0:0:0:
179,94,292204,1,0,0:0:0:0:
179,94,292288,1,8,0:0:0:0:
179,94,292457,1,8,0:0:0:0:
174,90,292625,1,0,0:0:0:0:
174,90,292794,1,0,0:0:0:0:
174,90,292878,1,0,0:0:0:0:
193,83,292962,1,8,0:0:0:0:
189,77,293131,1,8,0:0:0:0:
193,74,293299,1,0,0:0:0:0:
202,154,293384,1,0,0:0:0:0:
192,74,293468,1,8,0:0:0:0:
192,74,293552,1,0,0:0:0:0:
192,74,293636,1,8,0:0:0:0:
189,76,293721,1,8,0:0:0:0:
189,76,293805,1,0,0:0:0:0:
189,76,293889,1,0,0:0:0:0:
189,76,293974,1,12,0:0:0:0:
219,137,294142,1,8,0:0:0:0:
218,137,294226,1,8,0:0:0:0:
217,137,294311,1,0,0:0:0:0:
219,137,294479,1,8,0:0:0:0:
211,140,294648,1,0,0:0:0:0:
213,135,294816,1,8,0:0:0:0:
213,135,294901,1,0,0:0:0:0:
210,135,294985,1,8,0:0:0:0:
210,135,295069,1,0,0:0:0:0:
210,135,295153,1,8,0:0:0:0:
209,135,295238,1,8,0:0:0:0:
209,135,295322,1,0,0:0:0:0:
199,137,295490,1,8,0:0:0:0:
199,137,295575,1,8,0:0:0:0:
199,137,295659,1,0,0:0:0:0:
199,137,295827,1,8,0:0:0:0:
204,135,295996,1,0,0:0:0:0:
202,84,296165,1,0,0:0:0:0:
202,84,296221,1,8,0:0:0:0:
202,84,296277,1,8,0:0:0:0:
202,84,296333,1,0,0:0:0:0:
187,119,296502,1,0,0:0:0:0:
211,82,296670,1,8,0:0:0:0:
203,154,296839,1,0,0:0:0:0:
197,153,296923,1,0,0:0:0:0:
201,126,297007,1,8,0:0:0:0:
197,133,297176,1,8,0:0:0:0:
171,142,297344,1,0,0:0:0:0:
176,138,297513,1,8,0:0:0:0:
176,137,297597,1,0,0:0:0:0:
180,136,297681,1,8,0:0:0:0:
181,136,297766,1,8,0:0:0:0:
181,135,297850,1,0,0:0:0:0:
181,135,297934,1,0,0:0:0:0:
181,135,298019,1,8,0:0:0:0:
191,124,298187,1,8,0:0:0:0:
191,124,298271,1,0,0:0:0:0:
191,124,298356,1,8,0:0:0:0:
191,124,298524,1,8,0:0:0:0:
181,105,298693,1,0,0:0:0:0:
187,103,298861,1,8,0:0:0:0:
185,103,298945,1,0,0:0:0:0:
181,103,299030,1,8,0:0:0:0:
181,105,299114,1,8,0:0:0:0:
181,105,299198,1,0,0:0:0:0:
183,99,299283,1,0,0:0:0:0:
185,103,299367,1,8,0:0:0:0:
189,103,299451,1,0,0:0:0:0:
191,103,299535,1,8,0:0:0:0:
191,103,299620,1,8,0:0:0:0:
191,103,299704,1,0,0:0:0:0:
187,103,299788,1,0,0:0:0:0:
187,103,299872,1,8,0:0:0:0:
196,103,299957,1,0,0:0:0:0:
196,101,300041,1,8,0:0:0:0:
194,101,300125,1,8,0:0:0:0:
195,84,300210,1,8,0:0:0:0:
195,85,300294,1,0,0:0:0:0:
193,86,300378,1,8,0:0:0:0:
193,86,300462,1,8,0:0:0:0:
194,85,300547,1,0,0:0:0:0:
195,84,300631,1,0,0:0:0:0:
194,85,300715,1,8,0:0:0:0:
206,80,300884,1,0,0:0:0:0:
207,81,300968,1,8,0:0:0:0:
207,81,301052,1,8,0:0:0:0:
201,106,301221,1,0,0:0:0:0:
200,106,301389,1,8,0:0:0:0:
195,107,301474,1,0,0:0:0:0:
195,107,301558,1,0,0:0:0:0:
195,109,301642,1,0,0:0:0:0:
196,108,301726,1,8,0:0:0:0:
196,108,301811,1,8,0:0:0:0:
196,108,301895,1,0,0:0:0:0:
201,106,301979,1,0,0:0:0:0:
201,106,302063,1,8,0:0:0:0:
181,107,302232,1,0,0:0:0:0:
181,106,302316,1,0,0:0:0:0:
181,106,302401,1,8,0:0:0:0:
181,106,302485,1,0,0:0:0:0:
181,106,302569,1,8,0:0:0:0:
181,106,302653,1,8,0:0:0:0:
181,106,302738,1,8,0:0:0:0:
181,106,302906,1,0,0:0:0:0:
191,105,303075,1,8,0:0:0:0:
195,105,303243,1,0,0:0:0:0:
209,96,303412,1,8,0:0:0:0:
199,117,303580,1,8,0:0:0:0:
196,118,303665,1,8,0:0:0:0:
191,107,303749,1,0,0:0:0:0:
188,107,303833,1,8,0:0:0:0:
188,107,303917,1,0,0:0:0:0:
190,78,304086,1,8,0:0:0:0:
190,78,304170,1,0,0:0:0:0:
188,81,304254,1,0,0:0:0:0:
265,88,304339,1,0,0:0:0:0:
190,78,304423,1,8,0:0:0:0:
190,78,304592,1,0,0:0:0:0:
190,78,304760,1,8,0:0:0:0:
173,157,304844,1,8,0:0:0:0:
200,104,304929,1,0,0:0:0:0:
201,103,305013,1,0,0:0:0:0:
201,103,305097,1,8,0:0:0:0:
197,102,305181,1,0,0:0:0:0:
197,102,305266,1,8,0:0:0:0:
195,102,305350,1,8,0:0:0:0:
195,102,305434,1,0,0:0:0:0:
193,104,305519,1,8,0:0:0:0:
193,104,305603,1,8,0:0:0:0:
193,104,305687,1,8,0:0:0:0:
195,105,305771,1,0,0:0:0:0:
190,103,305856,1,0,0:0:0:0:
190,103,305940,1,8,0:0:0:0:
190,103,306024,1,0,0:0:0:0:
190,103,306108,1,8,0:0:0:0:
189,146,306277,1,0,0:0:0:0:
189,146,306361,1,8,0:0:0:0:
194,145,306530,1,8,0:0:0:0:
243,130,306614,1,0,0:0:0:0:
223,115,306783,1,8,0:0:0:0:
223,115,306867,1,0,0:0:0:0:
223,115,306951,1,0,0:0:0:0:
223,115,307035,1,0,0:0:0:0:
223,115,307120,1,8,0:0:0:0:
223,115,307204,1,0,0:0:0:0:
202,89,307457,1,8,0:0:0:0:
208,91,307625,1,0,0:0:0:0:
208,91,307710,1,8,0:0:0:0:
195,117,307878,1,8,0:0:0:0:
209,92,308047,1,8,0:0:0:0:
209,92,308131,1,0,0:0:0:0:
195,105,308299,1,8,0:0:0:0:
195,105,308468,1,0,0:0:0:0:
195,105,308552,1,8,0:0:0:0:
195,105,308636,1,8,0:0:0:0:
195,105,308805,1,0,0:0:0:0:
207,118,308974,1,0,0:0:0:0:
214,117,309058,1,8,0:0:0:0:
216,116,309226,1,8,0:0:0:0:
216,116,309311,1,0,0:0:0:0:
208,105,309479,1,0,0:0:0:0:
215,84,309563,1,8,0:0:0:0:
215,84,309648,1,8,0:0:0:0:
215,84,309732,1,0,0:0:0:0:
215,84,309816,1,0,0:0:0:0:
211,97,309901,1,8,0:0:0:0:
208,102,310153,1,0,0:0:0:0:
204,172,310322,1,8,0:0:0:0:
204,172,310406,1,8,0:0:0:0:
204,172,310490,1,0,0:0:0:0:
204,172,310659,1,0,0:0:0:0:
204,172,310743,1,8,0:0:0:0:
204,172,310827,1,0,0:0:0:0:
215,110,310996,1,0,0:0:0:0:
216,111,311080,1,8,0:0:0:0:
215,110,311249,1,8,0:0:0:0:
215,110,311333,1,8,0:0:0:0:
218,122,311502,1,0,0:0:0:0:
218,122,311670,1,8,0:0:0:0:
218,122,311754,1,8,0:0:0:0:
218,122,311839,1,0,0:0:0:0:
210,102,312007,1,8,0:0:0:0:
213,102,312092,1,0,0:0:0:0:
208,101,312176,1,8,0:0:0:0:
208,104,312344,1,0,0:0:0:0:
208,104,312429,1,8,0:0:0:0:
208,104,312597,1,8,0:0:0:0:
208,104,312681,1,0,0:0:0:0:
235,99,312850,1,0,0:0:0:0:
234,96,313019,1,8,0:0:0:0:
233,95,313103,1,8,0:0:0:0:
231,95,313187,1,0,0:0:0:0:
214,136,313356,1,0,0:0:0:0:
209,133,313440,1,0,0:0:0:0:
214,136,313524,1,8,0:0:0:0:
208,133,313693,1,8,0:0:0:0:
210,80,313777,1,8,0:0:0:0:
199,77,313861,1,0,0:0:0:0:
210,80,313945,1,8,0:0:0:0:
210,80,314030,1,0,0:0:0:0:
196,76,314198,1,0,0:0:0:0:
198,84,314367,1,8,0:0:0:0:
198,84,314451,1,8,0:0:0:0:
198,84,314535,1,0,0:0:0:0:
200,83,314704,1,8,0:0:0:0:
200,83,314788,1,0,0:0:0:0:
200,83,314872,1,8,0:0:0:0:
188,83,315041,1,0,0:0:0:0:
187,81,315125,1,0,0:0:0:0:
189,77,315210,1,8,0:0:0:0:
188,79,315294,1,8,0:0:0:0:
188,79,315378,1,0,0:0:0:0:
188,79,315462,1,0,0:0:0:0:
188,79,315547,1,12,0:0:0:0:
195,79,315715,1,8,0:0:0:0:
195,79,315799,1,0,0:0:0:0:
195,79,315884,1,8,0:0:0:0:
201,73,316052,1,8,0:0:0:0:
194,77,316221,1,0,0:0:0:0:
212,107,316389,1,8,0:0:0:0:
212,107,316474,1,0,0:0:0:0:
212,107,316558,1,0,0:0:0:0:
212,107,316642,1,8,0:0:0:0:
212,107,316726,1,8,0:0:0:0:
212,107,316811,1,0,0:0:0:0:
212,107,316895,1,8,0:0:0:0:
210,102,317063,1,8,0:0:0:0:
210,102,317148,1,8,0:0:0:0:
210,102,317232,1,0,0:0:0:0:
210,102,317401,1,8,0:0:0:0:
215,100,317569,1,0,0:0:0:0:
220,88,317738,1,8,0:0:0:0:
219,85,317794,1,0,0:0:0:0:
219,85,317850,1,0,0:0:0:0:
219,84,317906,1,8,0:0:0:0:
219,83,318075,1,8,0:0:0:0:
215,120,318243,1,0,0:0:0:0:
185,89,318412,1,0,0:0:0:0:
194,105,318496,1,8,0:0:0:0:
195,102,318580,1,0,0:0:0:0:
196,101,318749,1,8,0:0:0:0:
198,96,318917,1,0,0:0:0:0:
185,89,319086,1,8,0:0:0:0:
185,89,319170,1,0,0:0:0:0:
185,89,319254,1,0,0:0:0:0:
185,89,319339,1,8,0:0:0:0:
185,89,319423,1,8,0:0:0:0:
187,85,319507,1,0,0:0:0:0:
187,87,319592,1,8,0:0:0:0:
194,79,319760,1,8,0:0:0:0:
195,78,319844,1,8,0:0:0:0:
194,77,319929,1,0,0:0:0:0:
194,77,320097,1,8,0:0:0:0:
222,73,320266,1,0,0:0:0:0:
228,67,320434,1,0,0:0:0:0:
228,67,320519,1,8,0:0:0:0:
227,65,320603,1,8,0:0:0:0:
227,65,320687,1,0,0:0:0:0:
227,65,320771,1,8,0:0:0:0:
227,65,320856,1,8,0:0:0:0:
227,65,320940,1,0,0:0:0:0:
227,65,321024,1,0,0:0:0:0:
227,65,321108,1,8,0:0:0:0:
227,65,321193,1,0,0:0:0:0:
227,65,321277,1,8,0:0:0:0:
228,67,321361,1,8,0:0:0:0:
228,67,321445,1,0,0:0:0:0:
228,67,321530,1,8,0:0:0:0:
227,65,321614,1,0,0:0:0:0:
227,65,321698,1,8,0:0:0:0:
227,65,321783,1,8,0:0:0:0:
227,65,321867,1,8,0:0:0:0:
227,65,321951,1,0,0:0:0:0:
227,65,322035,1,0,0:0:0:0:
227,65,322120,1,8,0:0:0:0:
227,65,322204,1,0,0:0:0:0:
227,65,322288,1,8,0:0:0:0:
196,133,322457,1,0,0:0:0:0:
196,133,322541,1,0,0:0:0:0:
196,133,322625,1,8,0:0:0:0:
206,130,322794,1,0,0:0:0:0:
203,131,322878,1,0,0:0:0:0:
203,131,322962,1,8,0:0:0:0:
203,131,323131,1,0,0:0:0:0:
206,123,323215,1,0,0:0:0:0:
207,121,323299,1,8,0:0:0:0:
206,121,323384,1,0,0:0:0:0:
206,121,323468,1,8,0:0:0:0:
206,121,323552,1,8,0:0:0:0:
206,121,323636,1,0,0:0:0:0:
204,97,323805,1,8,0:0:0:0:
204,97,323974,1,0,0:0:0:0:
204,97,324058,1,0,0:0:0:0:
204,97,324142,1,8,0:0:0:0:
204,97,324226,1,0,0:0:0:0:
204,97,324311,1,8,0:0:0:0:
218,102,324479,1,8,0:0:0:0:
201,102,324648,1,0,0:0:0:0:
201,102,324732,1,0,0:0:0:0:
201,102,324816,1,8,0:0:0:0:
204,97,324985,1,0,0:0:0:0:
204,97,325069,1,0,0:0:0:0:
204,97,325153,1,8,0:0:0:0:
204,97,325238,1,8,0:0:0:0:
204,97,325322,1,0,0:0:0:0:
203,95,325406,1,8,0:0:0:0:
201,94,325490,1,8,0:0:0:0:
201,94,325575,1,0,0:0:0:0:
201,94,325659,1,8,0:0:0:0:
201,94,325743,1,8,0:0:0:0:
201,94,325827,1,0,0:0:0:0:
204,97,325912,1,0,0:0:0:0:
208,91,325996,1,0,0:0:0:0:
206,91,326080,1,0,0:0:0:0:
204,97,326165,1,8,0:0:0:0:
204,97,326249,1,8,0:0:0:0:
256,192,326333,12,0,329030,0:0:0:0:
261,190,330744,5,8,0:0:0:0:
229,156,331059,1,0,0:0:0:0:
229,156,331390,1,8,0:0:0:0:
236,128,332064,1,8,0:0:0:0:
249,179,332401,1,0,0:0:0:0:
249,179,333075,1,0,0:0:0:0:
201,189,333412,1,8,0:0:0:0:
201,189,333581,1,0,0:0:0:0:
243,181,333749,1,0,0:0:0:0:
242,181,333918,1,8,0:0:0:0:
242,182,334086,1,0,0:0:0:0:
210,179,334760,1,0,0:0:0:0:
210,179,335097,1,8,0:0:0:0:
210,179,335772,1,0,0:0:0:0:
210,179,336109,1,8,0:0:0:0:
205,190,336277,1,8,0:0:0:0:
205,181,336446,1,0,0:0:0:0:
203,182,336614,1,8,0:0:0:0:
202,182,336783,1,0,0:0:0:0:
204,190,337457,1,8,0:0:0:0:
203,190,337794,1,0,0:0:0:0:
204,190,338468,1,0,0:0:0:0:
203,190,338805,1,8,0:0:0:0:
193,190,338974,1,8,0:0:0:0:
192,190,339142,1,0,0:0:0:0:
191,190,339311,1,0,0:0:0:0:
191,190,339479,1,8,0:0:0:0:
163,230,340154,1,0,0:0:0:0:
195,187,340491,1,8,0:0:0:0:
196,187,341165,1,0,0:0:0:0:
195,187,341502,1,8,0:0:0:0:
196,187,341670,1,8,0:0:0:0:
190,189,341839,1,0,0:0:0:0:
188,190,342007,1,8,0:0:0:0:
187,190,342176,1,0,0:0:0:0:
220,203,343187,1,0,0:0:0:0:
220,203,343356,1,0,0:0:0:0:
220,203,343524,1,8,0:0:0:0:
220,203,344030,1,8,0:0:0:0:
215,206,344536,1,0,0:0:0:0:
214,207,344873,1,8,0:0:0:0:
214,207,345884,1,0,0:0:0:0:
214,207,346052,1,8,0:0:0:0:
214,207,346221,1,8,0:0:0:0:
209,210,346727,1,0,0:0:0:0:
239,207,347232,1,0,0:0:0:0:
239,207,347569,1,8,0:0:0:0:
239,207,348581,1,8,0:0:0:0:
234,209,348918,1,0,0:0:0:0:
233,210,349255,1,8,0:0:0:0:
232,211,349592,1,0,0:0:0:0:
242,221,349929,1,0,0:0:0:0:
242,222,350266,1,8,0:0:0:0:
242,221,350940,1,8,0:0:0:0:
242,222,351277,1,8,0:0:0:0:
237,224,351951,1,0,0:0:0:0:
236,226,352288,1,8,0:0:0:0:
237,224,352625,1,8,0:0:0:0:
233,228,352963,1,8,0:0:0:0:
231,229,353637,1,8,0:0:0:0:
233,228,353974,1,0,0:0:0:0:
231,229,354648,1,0,0:0:0:0:
227,231,354985,1,8,0:0:0:0:
226,232,355322,1,8,0:0:0:0:
225,233,355659,1,0,0:0:0:0:
226,232,356333,1,8,0:0:0:0:
225,233,356670,1,0,0:0:0:0:
283,136,357345,1,0,0:0:0:0:
283,136,357457,1,8,0:0:0:0:
283,136,357569,1,8,0:0:0:0:
283,136,357682,1,0,0:0:0:0:
195,128,358019,1,0,0:0:0:0:
195,128,358356,1,8,0:0:0:0:
186,132,359030,1,8,0:0:0:0:
187,133,359367,1,0,0:0:0:0:
186,132,360041,1,0,0:0:0:0:
187,133,360378,1,8,0:0:0:0:
186,132,360715,1,8,0:0:0:0:
183,136,361052,1,0,0:0:0:0:
182,137,361727,1,8,0:0:0:0:
225,179,362064,1,0,0:0:0:0:
182,137,362738,1,0,0:0:0:0:
234,151,363075,1,8,0:0:0:0:
234,151,363243,1,0,0:0:0:0:
234,151,363412,1,8,0:0:0:0:
202,161,363581,1,8,0:0:0:0:
202,161,363749,1,0,0:0:0:0:
202,161,363918,1,0,0:0:0:0:
202,161,364086,1,8,0:0:0:0:
202,161,364255,1,0,0:0:0:0:
202,161,364423,1,8,0:0:0:0:
202,161,364592,1,8,0:0:0:0:
202,161,364760,1,0,0:0:0:0:
202,161,364929,1,8,0:0:0:0:
207,159,365097,1,0,0:0:0:0:
225,158,365266,1,8,0:0:0:0:
224,158,365434,1,8,0:0:0:0:
223,159,365603,1,0,0:0:0:0:
222,160,365772,1,8,0:0:0:0:
221,161,365940,1,8,0:0:0:0:
207,159,366109,1,0,0:0:0:0:
207,159,366277,1,8,0:0:0:0:
206,159,366446,1,0,0:0:0:0:
234,177,367120,1,0,0:0:0:0:
234,177,367794,1,8,0:0:0:0:
234,177,368468,1,8,0:0:0:0:
231,182,369142,1,0,0:0:0:0:
231,182,369985,1,8,0:0:0:0:
231,182,370154,1,0,0:0:0:0:
231,182,370322,1,8,0:0:0:0:
229,186,370491,1,8,0:0:0:0:
229,187,370828,1,8,0:0:0:0:
228,188,371165,1,0,0:0:0:0:
229,186,371502,1,8,0:0:0:0:
229,187,371839,1,0,0:0:0:0:
225,192,372513,1,8,0:0:0:0:
224,193,372682,1,8,0:0:0:0:
223,194,372850,1,0,0:0:0:0:
256,192,373019,12,0,374536,0:0:0:0:
