osu file format v14

[General]
AudioFilename: audio.mp3
AudioLeadIn: 0
PreviewTime: 35946
Countdown: 1
SampleSet: Normal
StackLeniency: 0.7
Mode: 0
LetterboxInBreaks: 0
WidescreenStoryboard: 0

[Editor]
DistanceSpacing: 1.2
BeatDivisor: 4
GridSize: 8
TimelineZoom: 1

[Metadata]
Title:Hypnotic
TitleUnicode:Hypnotic
Artist:Zella Day
ArtistUnicode:Zella Day
Creator:K1ayton
Version:Insane
Source:
Tags:pop
BeatmapID:2103540
BeatmapSetID:1005078

[Difficulty]
HPDrainRate:6
CircleSize:4
OverallDifficulty:6
ApproachRate:8.3
SliderMultiplier:3.59999990463257
SliderTickRate:1

[Events]
//Background and Video events
0,0,"bg.jpg",0,0
//Break Periods
//Storyboard Layer 0 (Background)
//Storyboard Layer 1 (Fail)
//Storyboard Layer 2 (Pass)
//Storyboard Layer 3 (Foreground)
//Storyboard Sound Samples

[TimingPoints]
391,740.740740740741,4,1,0,100,1,0
391,-100,4,1,1,60,0,0
34835,-200,4,1,1,100,0,0
35946,-100,4,1,1,100,0,1
59650,-100,4,1,1,100,0,0

[HitObjects]
62,60,20,5,0,0:0:0:0:
63,76,205,1,0,0:0:0:0:
65,94,391,2,0,B|162:124|162:84|246:104,1,179.999995231628,4|0,0:0|0:0,0:0:0:0:
369,66,946,1,0,0:0:0:0:
369,66,1131,2,0,P|384:100|377:166,1,89.9999976158142,8|0,0:0|0:0,0:0:0:0:
322,245,1502,2,0,P|323:300|319:346,2,89.9999976158143,4|0|0,0:0|0:0|0:0,0:0:0:0:
184,136,2057,1,0,0:0:0:0:
232,304,2242,1,4,0:0:0:0:
291,140,2427,1,0,0:0:0:0:
146,239,2612,1,8,0:0:0:0:
226,58,2983,5,0,0:0:0:0:
211,47,3168,1,0,0:0:0:0:
194,40,3353,2,0,P|91:89|19:47,1,179.999995231628,4|0,0:0|0:0,0:0:0:0:
58,161,3909,1,4,0:0:0:0:
58,161,4094,2,0,P|77:249|49:307,1,89.9999976158142,8|0,0:0|0:0,0:0:0:0:
208,331,4465,6,0,P|264:332|309:327,2,89.9999976158143,4|0|0,0:0|0:0|0:0,0:0:0:0:
97,195,5020,1,0,0:0:0:0:
266,240,5205,1,4,0:0:0:0:
103,302,5390,1,0,0:0:0:0:
199,156,5576,1,8,0:0:0:0:
300,159,6316,6,0,P|193:156|176:136,1,89.9999976158142,4|0,0:0|0:0,0:0:0:0:
88,171,6687,2,0,P|74:222|86:296,1,89.9999976158142
234,124,7057,2,0,P|234:79|221:36,1,89.9999976158142,8|0,0:0|0:0,0:0:0:0:
181,221,7428,1,4,0:0:0:0:
198,221,7613,1,0,0:0:0:0:
215,221,7798,6,0,B|280:221|280:221|318:209|318:209|399:209,1,179.999995231629,0|4,0:0|0:0,0:0:0:0:
252,314,8353,1,0,0:0:0:0:
129,281,8539,2,0,L|18:279,1,89.9999976158142,8|0,0:0|0:0,0:0:0:0:
17,155,8909,1,0,0:0:0:0:
17,155,9279,6,0,P|98:192|169:148,1,179.999995231629,4|0,0:0|0:0,0:0:0:0:
233,38,9835,1,4,0:0:0:0:
233,38,10020,2,0,P|288:25|326:33,1,89.9999976158143,8|0,0:0|0:0,0:0:0:0:
450,118,10391,2,4,P|395:131|357:123,1,89.9999976158143,4|0,0:0|0:0,0:0:0:0:
254,178,10761,6,0,L|129:185,1,89.9999976158143
8,253,11131,2,0,L|133:260,1,89.9999976158143,4|0,0:0|0:0,0:0:0:0:
264,321,11502,2,0,L|174:326,1,89.9999976158143,8|4,0:0|0:0,0:0:0:0:
376,355,12242,6,0,P|385:307|371:268,1,89.9999976158143,4|0,0:0|0:0,0:0:0:0:
250,196,12613,1,0,0:0:0:0:
388,139,12798,1,4,0:0:0:0:
209,120,12983,1,8,0:0:0:0:
401,69,13168,1,0,0:0:0:0:
144,58,13353,1,4,0:0:0:0:
126,63,13539,1,0,0:0:0:0:
111,73,13724,6,0,P|75:151|100:240,1,179.999995231629,0|4,0:0|0:0,0:0:0:0:
91,342,14279,1,0,0:0:0:0:
210,300,14465,2,0,P|261:312|295:301,1,89.9999976158143,8|0,0:0|0:0,0:0:0:0:
353,177,14835,2,0,P|302:165|268:176,1,89.9999976158143
425,274,15205,6,0,P|461:196|436:107,1,179.999995231629,4|0,0:0|0:0,0:0:0:0:
338,63,15761,1,4,0:0:0:0:
234,92,15946,2,0,P|163:97|135:88,2,89.9999976158143,8|0|4,0:0|0:0|0:0,0:0:0:0:
124,214,16502,1,0,0:0:0:0:
146,327,16687,6,0,L|264:319,1,89.9999976158143
444,211,17057,2,0,L|326:219,1,89.9999976158143,4|0,0:0|0:0,0:0:0:0:
184,164,17428,2,0,L|302:156,1,89.9999976158143,8|0,0:0|0:0,0:0:0:0:
482,48,17798,2,0,L|364:56,1,89.9999976158143
233,64,18168,6,0,L|111:61,1,89.9999976158143,4|0,0:0|0:0,0:0:0:0:
46,143,18539,2,0,P|37:190|46:236,1,89.9999976158143,0|4,0:0|0:0,0:0:0:0:
50,338,18909,1,8,0:0:0:0:
140,278,19094,1,0,0:0:0:0:
232,334,19279,1,4,0:0:0:0:
327,282,19465,1,0,0:0:0:0:
414,365,19650,6,0,P|447:268|416:199,1,179.999995231629,0|4,0:0|0:0,0:0:0:0:
301,163,20205,1,0,0:0:0:0:
193,179,20391,2,0,P|142:187|96:171,2,89.9999976158143,8|0|0,0:0|0:0|0:0,0:0:0:0:
55,84,20946,1,0,0:0:0:0:
55,84,21131,6,0,P|16:170|48:246,1,179.999995231629,4|0,0:0|0:0,0:0:0:0:
116,327,21687,1,0,0:0:0:0:
220,300,21872,2,0,P|288:290|364:312,1,134.999996423721,8|0,0:0|0:0,0:0:0:0:
351,305,22242,2,0,P|358:248|352:204,1,89.9999976158143,4|0,0:0|0:0,0:0:0:0:
411,108,22613,6,0,L|312:108,1,89.9999976158143
204,85,22983,1,4,0:0:0:0:
328,27,23168,1,0,0:0:0:0:
113,48,23353,2,0,P|109:96|122:136,1,89.9999976158143,8|4,0:0|0:0,0:0:0:0:
213,317,23724,2,0,P|226:274|221:229,1,89.9999976158143
308,292,24094,6,0,L|406:302,1,89.9999976158143,4|0,0:0|0:0,0:0:0:0:
474,225,24465,2,0,P|492:173|488:132,1,89.9999976158143,0|4,0:0|0:0,0:0:0:0:
384,164,24835,1,8,0:0:0:0:
282,126,25020,1,0,0:0:0:0:
322,24,25205,1,4,0:0:0:0:
422,63,25391,1,0,0:0:0:0:
282,126,25576,6,0,B|190:99|191:146|102:114,1,179.999995231629,0|4,0:0|0:0,0:0:0:0:
46,205,26131,1,0,0:0:0:0:
79,307,26316,2,0,L|171:316,1,89.9999976158143,8|0,0:0|0:0,0:0:0:0:
343,235,26687,2,0,L|251:244,1,89.9999976158143
414,311,27057,6,0,P|444:230|401:155,1,179.999995231629,4|0,0:0|0:0,0:0:0:0:
305,313,27613,1,4,0:0:0:0:
305,313,27798,2,0,P|227:321|203:313,1,89.9999976158143,8|0,0:0|0:0,0:0:0:0:
82,205,28168,2,0,P|160:197|184:205,1,89.9999976158143
271,175,28539,2,0,P|291:102|281:-4,2,179.999995231629,0|4|8,0:0|0:0|0:0,0:0:0:0:
174,126,29465,1,4,0:0:0:0:
79,186,29650,2,0,P|65:237|74:274,1,89.9999976158143
148,349,30020,6,0,L|351:345,1,179.999995231629,4|0,0:0|0:0,0:0:0:0:
474,315,30576,1,4,0:0:0:0:
474,315,30761,2,0,P|484:263|475:217,1,89.9999976158143,8|0,0:0|0:0,0:0:0:0:
328,60,31131,2,0,P|322:104|332:148,1,89.9999976158143,4|0,0:0|0:0,0:0:0:0:
402,33,31502,2,0,L|218:39,1,179.999995231629
117,64,32057,2,0,P|105:157|123:248,1,179.999995231629
115,349,32613,2,0,L|216:353,1,89.9999976158143
364,341,32983,6,0,P|377:286|370:248,1,89.9999976158143,4|0,0:0|0:0,0:0:0:0:
326,155,33353,2,0,P|312:106|322:53,2,89.9999976158143,0|4|8,0:0|0:0|0:0,0:0:0:0:
226,197,33909,1,0,0:0:0:0:
226,197,34094,2,0,L|37:206,1,179.999995231629,4|0,0:0|0:0,0:0:0:0:
118,301,34835,6,0,B|213:319|216:281|296:300,1,179.999995231629
383,343,35946,6,0,P|402:297|395:252,1,89.9999976158143,4|0,0:0|0:0,0:0:0:0:
407,150,36316,2,0,L|316:139,1,89.9999976158143,0|4,0:0|0:0,0:0:0:0:
266,30,36687,2,0,L|175:41,1,89.9999976158143,8|0,0:0|0:0,0:0:0:0:
46,126,37057,2,0,L|137:137,1,89.9999976158143,4|0,0:0|0:0,0:0:0:0:
187,246,37428,2,0,L|278:235,1,89.9999976158143
357,305,37798,2,0,P|374:252|364:209,1,89.9999976158143,4|0,0:0|0:0,0:0:0:0:
362,111,38168,2,0,P|263:130|169:6,1,269.999992847443,8|0,0:0|0:0,0:0:0:0:
86,78,38909,6,0,L|82:195,1,89.9999976158143,4|0,0:0|0:0,0:0:0:0:
97,274,39279,2,0,P|194:277|279:311,2,179.999995231629,0|8|0,0:0|0:0|0:0,0:0:0:0:
390,225,40391,6,0,P|439:236|486:217,1,89.9999976158143
426,127,40761,2,0,P|377:116|330:135,1,89.9999976158143,4|0,0:0|0:0,0:0:0:0:
250,188,41131,2,0,P|201:199|154:180,1,89.9999976158143,8|0,0:0|0:0,0:0:0:0:
102,97,41502,1,8,0:0:0:0:
84,100,41687,1,8,0:0:0:0:
67,107,41872,6,0,P|51:154|63:197,1,89.9999976158143,4|0,0:0|0:0,0:0:0:0:
132,278,42242,1,0,0:0:0:0:
211,157,42428,1,4,0:0:0:0:
235,322,42613,2,0,P|279:333|317:315,1,89.9999976158143,8|0,0:0|0:0,0:0:0:0:
433,201,42983,2,0,P|389:190|351:208,1,89.9999976158143,4|0,0:0|0:0,0:0:0:0:
245,235,43353,2,0,P|233:192|240:138,1,89.9999976158143
406,64,43724,2,0,P|417:102|410:156,1,89.9999976158143,4|0,0:0|0:0,0:0:0:0:
305,171,44094,2,0,B|153:186|153:186|28:171,1,269.999992847443,8|0,0:0|0:0,0:0:0:0:
58,41,44835,6,0,L|164:49,1,89.9999976158143,4|0,0:0|0:0,0:0:0:0:
252,60,45205,2,0,B|350:69|350:69|441:53,2,179.999995231629,0|8|4,0:0|0:0|0:0,0:0:0:0:
132,258,46316,6,0,B|126:307|126:307|134:354,1,89.9999976158143
263,241,46687,2,0,B|269:192|269:192|261:145,1,89.9999976158143,4|0,0:0|0:0,0:0:0:0:
168,99,47057,2,0,P|120:93|74:98,1,89.9999976158143,8|0,0:0|0:0,0:0:0:0:
364,132,47428,1,8,0:0:0:0:
381,127,47613,1,8,0:0:0:0:
398,122,47798,6,0,L|416:302,1,179.999995231629,4|0,0:0|0:0,0:0:0:0:
120,312,48539,5,8,0:0:0:0:
244,255,48724,1,0,0:0:0:0:
115,210,48909,1,4,0:0:0:0:
239,153,49094,1,0,0:0:0:0:
109,101,49279,2,0,L|10:115,1,89.9999976158143
233,44,49650,2,0,L|322:31,1,89.9999976158143,4|0,0:0|0:0,0:0:0:0:
409,94,50020,2,0,P|451:224|381:362,1,269.999992847443,8|0,0:0|0:0,0:0:0:0:
295,319,50761,6,0,L|104:323,1,179.999995231629,4|0,0:0|0:0,0:0:0:0:
55,114,51502,5,8,0:0:0:0:
145,171,51687,1,0,0:0:0:0:
224,97,51872,1,4,0:0:0:0:
314,154,52057,1,0,0:0:0:0:
404,94,52242,2,0,P|421:45|408:-6,1,89.9999976158143
422,232,52613,2,0,P|405:281|418:332,1,89.9999976158143,4|0,0:0|0:0,0:0:0:0:
303,325,52983,2,0,P|233:219|113:276,1,269.999992847443,8|0,0:0|0:0,0:0:0:0:
41,187,53724,6,0,L|56:91,1,89.9999976158143,4|0,0:0|0:0,0:0:0:0:
152,51,54094,1,0,0:0:0:0:
223,132,54279,1,4,0:0:0:0:
302,58,54465,2,0,P|357:49|409:58,1,89.9999976158143,8|0,0:0|0:0,0:0:0:0:
492,182,54835,2,0,P|437:191|385:182,1,89.9999976158143,4|0,0:0|0:0,0:0:0:0:
278,204,55205,2,0,P|223:195|171:204,1,89.9999976158143
88,328,55575,2,0,P|143:337|195:328,1,89.9999976158143,4|0,0:0|0:0,0:0:0:0:
280,299,55946,2,0,P|387:249|475:357,1,269.999992847443,8|0,0:0|0:0,0:0:0:0:
370,355,56687,5,4,0:0:0:0:
469,230,57057,6,0,P|482:140|462:35,2,179.999995231629,0|8|4,0:0|0:0|0:0,0:0:0:0:
135,24,58168,2,0,P|189:20|245:29,1,89.9999976158143
379,138,58539,2,0,P|325:142|269:133,1,89.9999976158143,4|0,0:0|0:0,0:0:0:0:
47,177,58909,2,0,P|101:173|157:182,1,89.9999976158143,8|0,0:0|0:0,0:0:0:0:
291,291,59280,2,0,P|237:295|181:286,1,89.9999976158143
41,359,59650,6,0,P|22:261|58:170,2,179.999995231629,4|0|8,0:0|0:0|0:0,0:0:0:0:
279,274,60761,2,0,P|335:275|380:270,2,89.9999976158143
168,138,61316,1,0,0:0:0:0:
337,183,61501,1,0,0:0:0:0:
174,245,61686,1,0,0:0:0:0:
270,99,61871,1,8,0:0:0:0:
386,36,62242,5,0,0:0:0:0:
404,34,62428,1,0,0:0:0:0:
430,32,62613,2,0,P|449:130|413:221,2,179.999995231629,4|0|8,0:0|0:0|0:0,0:0:0:0:
192,117,63724,2,0,P|136:116|91:121,2,89.9999976158143
302,252,64279,1,0,0:0:0:0:
133,207,64464,1,0,0:0:0:0:
297,145,64649,1,0,0:0:0:0:
201,292,64835,1,8,0:0:0:0:
