osu file format v14

[General]
AudioFilename: Zella Day - East of Eden.mp3
AudioLeadIn: 0
PreviewTime: 148342
Countdown: 0
SampleSet: Soft
StackLeniency: 0.7
Mode: 0
LetterboxInBreaks: 0
WidescreenStoryboard: 1

[Editor]
Bookmarks: 148342
DistanceSpacing: 1
BeatDivisor: 4
GridSize: 4
TimelineZoom: 1

[Metadata]
Title:East Of Eden
TitleUnicode:East Of Eden
Artist:Zella Day
ArtistUnicode:Zella Day
Creator:kirinokirino
Version:Easy
Source:
Tags:alternative rock pop indie kicker english vocals
BeatmapID:743191
BeatmapSetID:335391

[Difficulty]
HPDrainRate:3
CircleSize:3
OverallDifficulty:2
ApproachRate:3
SliderMultiplier:0.8
SliderTickRate:1

[Events]
//Background and Video events
0,0,"background.jpg",0,0
//Break Periods
2,141712,146902
//Storyboard Layer 0 (Background)
//Storyboard Layer 1 (Fail)
//Storyboard Layer 2 (Pass)
//Storyboard Layer 3 (Foreground)
//Storyboard Layer 4 (Overlay)
//Storyboard Sound Samples

[TimingPoints]
1025,487.80487804878,4,2,1,35,1,0
1025,-83.3333333333333,4,2,1,35,0,0
23464,-83.3333333333333,4,2,0,35,0,0
24439,-83.3333333333333,4,2,2,55,0,1
24561,-83.3333333333333,4,2,2,55,0,0
54683,-83.3333333333333,4,2,2,55,0,0
55171,-83.3333333333333,4,2,0,5,0,0
55659,-83.3333333333333,4,2,1,35,0,0
78098,-83.3333333333333,4,2,0,35,0,0
79073,-83.3333333333333,4,2,2,55,0,1
79195,-83.3333333333333,4,2,2,55,0,0
109805,-83.3333333333333,4,2,0,60,0,0
110293,-83.3333333333333,4,2,0,65,0,0
141512,-83.3333333333333,4,2,1,20,0,0
148342,-83.3333333333333,4,2,0,30,0,0
148829,-83.3333333333333,4,2,0,42,0,0
149317,-83.3333333333333,4,2,2,60,0,1
164927,-83.3333333333333,4,2,2,60,0,0
179561,-83.3333333333333,4,2,0,55,0,0

[Colours]
Combo1 : 191,143,239
Combo2 : 241,188,99
Combo3 : 119,181,242
Combo4 : 224,137,224

[HitObjects]
32,96,1025,6,0,P|84:120|148:124,1,95.9999970703126,8|8,0:0|0:0,0:0:0:0:
216,100,2000,2,0,P|252:76|396:80,1,191.999994140625,8|10,0:0|0:0,0:0:0:0:
456,156,3464,2,0,L|448:252,1,95.9999970703126,8|10,0:0|0:0,0:0:0:0:
372,312,4439,2,0,B|320:304|280:328|280:328|236:296|172:304,1,191.999994140625,8|10,0:0|0:0,0:0:0:0:
100,264,5903,6,0,B|68:224|80:172|80:172|92:124|56:76,1,191.999994140625,8|10,0:0|0:0,0:0:0:0:
140,24,7366,1,8,0:0:0:0:
212,88,7854,2,0,P|264:100|320:84,1,95.9999970703126,10|0,0:0|0:0,0:0:0:0:
372,20,8829,6,0,P|352:64|436:176,1,191.999994140625,8|8,0:0|0:0,0:0:0:0:
420,364,10781,2,0,L|320:376,1,95.9999970703126,10|8,0:0|0:0,0:0:0:0:
244,320,11756,2,0,L|144:332,1,95.9999970703126,10|8,0:0|0:0,0:0:0:0:
24,184,13220,2,0,P|36:128|164:92,1,191.999994140625,10|8,0:0|0:0,0:0:0:0:
236,44,14683,2,0,P|256:84|388:104,1,191.999994140625,10|8,0:0|0:0,0:0:0:0:
452,32,16146,1,10,0:0:0:0:
484,124,16634,6,0,L|472:224,1,95.9999970703126,8|8,0:0|0:0,0:0:0:0:
404,287,17610,2,0,B|356:303|310:284|310:284|264:263|212:283,1,191.999994140625,8|8,0:0|0:0,0:0:0:0:
128,319,19073,1,8,0:0:0:0:
41,277,19561,2,0,P|33:237|33:177,1,95.9999970703126,10|8,0:0|0:0,0:0:0:0:
77,97,20537,6,0,P|105:113|225:41,1,191.999994140625,8|8,0:0|0:0,0:0:0:0:
392,31,23464,2,0,P|364:76|356:136,1,95.9999970703126,2|0,0:0|0:0,0:0:0:0:
392,204,24439,6,0,P|396:248|260:304,2,191.999994140625,4|8|0,0:0|0:0|1:0,0:0:0:0:
220,116,27366,2,0,L|120:96,1,95.9999970703126,8|2,0:0|0:0,0:0:0:0:
44,152,28342,6,0,L|72:348,2,191.999994140625,4|8|0,0:0|0:0|1:0,0:0:0:0:
200,40,31268,2,0,L|308:64,1,95.9999970703126,8|2,0:0|0:0,0:0:0:0:
336,148,32244,6,0,P|316:180|364:328,2,191.999994140625,4|8|0,0:0|0:0|1:0,0:0:0:0:
152,100,35171,2,0,P|108:120|48:128,1,95.9999970703126,8|2,0:0|0:0,0:0:0:0:
32,220,36146,6,0,B|52:316|52:316|140:360,1,191.999994140625,4|8,0:0|0:0,0:0:0:0:
312,280,38098,2,0,P|348:244|480:268,1,191.999994140625,0|8,1:0|0:0,0:0:0:0:
392,92,40049,6,0,L|276:72,1,95.9999970703126,4|0,0:0|0:0,0:0:0:0:
204,56,41024,2,0,P|108:84|72:168,1,191.999994140625,8|0,0:0|1:0,0:0:0:0:
184,316,42976,1,8,0:0:0:0:
384,318,43951,6,0,B|336:320|298:285|298:285|280:228|232:210,1,191.999994140625,4|8,0:0|0:0,0:0:0:0:
52,176,45903,2,0,P|76:128|76:64,1,95.9999970703126,0|2,1:0|0:0,0:0:0:0:
172,108,46878,6,0,P|224:68|352:76,2,191.999994140625,8|4|8,0:0|0:0|0:0,0:0:0:0:
160,300,49805,1,0,1:0:0:0:
344,248,50781,2,0,L|328:128,1,95.9999970703126,8|2,0:0|0:0,0:0:0:0:
252,96,51756,6,0,P|220:136|72:152,1,191.999994140625,4|8,0:0|0:0,0:0:0:0:
220,296,53707,2,0,B|248:276|288:297|288:297|300:276|300:276|364:268|380:212,1,191.999994140625,0|8,1:0|0:0,0:0:0:0:
248,64,55659,6,0,P|296:72|340:116,1,95.9999970703126,8|10,0:0|0:0,0:0:0:0:
256,156,56634,2,0,B|160:141|160:141|100:132|92:68,1,191.999994140625,8|8,0:0|0:0,0:0:0:0:
16,136,58098,1,10,0:0:0:0:
72,212,58585,2,0,P|64:264|32:300,2,95.9999970703126,8|10|8,0:0|0:0|0:0,0:0:0:0:
16,136,60049,6,0,P|77:118|163:197,1,191.999994140625,10|8,0:0|0:0,0:0:0:0:
256,220,61512,2,0,P|304:208|340:180,1,95.9999970703126,8|10,0:0|0:0,0:0:0:0:
368,88,62488,2,0,B|415:105|432:156|432:156|448:204|496:223,1,191.999994140625,8|8,0:0|0:0,0:0:0:0:
452,308,63951,6,0,P|424:328|352:336,1,95.9999970703126,10|8,0:0|0:0,0:0:0:0:
204,228,65415,2,0,P|176:208|104:200,1,95.9999970703126,8|10,0:0|0:0,0:0:0:0:
55,265,66390,2,0,P|111:213|79:93,1,191.999994140625,8|8,0:0|0:0,0:0:0:0:
139,21,67854,6,0,P|167:13|235:21,1,95.9999970703126,10|8,0:0|0:0,0:0:0:0:
364,164,69317,2,0,L|404:256,1,95.9999970703126,10|0,0:0|0:0,0:0:0:0:
308,248,70293,2,0,L|348:340,1,95.9999970703126,10|8,0:0|0:0,0:0:0:0:
252,332,71268,6,0,B|208:300|160:320|160:320|108:344|64:304,1,191.999994140625,8|8,0:0|0:0,0:0:0:0:
260,52,73707,2,0,B|304:84|352:64|352:64|404:40|448:80,1,191.999994140625,10|10,0:0|0:0,0:0:0:0:
464,168,75171,6,0,P|448:188|428:264,1,95.9999970703126,8|10,0:0|0:0,0:0:0:0:
464,344,76146,1,8,0:0:0:0:
192,84,78098,2,0,P|148:84|97:67,1,95.9999970703126,8|0,0:0|0:0,0:0:0:0:
68,160,79073,6,0,P|60:204|168:292,2,191.999994140625,4|8|0,0:0|0:0|1:0,0:0:0:0:
220,44,82000,2,0,B|267:31|312:60|312:60|350:22|400:28,1,191.999994140625,8|4,0:0|0:0,0:0:0:0:
508,184,83951,5,8,0:0:0:0:
344,284,84927,2,0,B|312:296|276:272|276:272|208:296|208:296|156:284,1,191.999994140625,0|8,1:0|0:0,0:0:0:0:
70,255,86390,1,2,0:0:0:0:
140,192,86878,6,0,P|148:148|48:56,2,191.999994140625,4|8|0,0:0|0:0|1:0,0:0:0:0:
304,92,89805,2,0,L|404:112,1,95.9999970703126,8|2,0:0|0:0,0:0:0:0:
455,187,90781,6,0,B|425:230|456:278|456:278|488:326|457:366,1,191.999994140625,4|8,0:0|0:0,0:0:0:0:
288,276,92732,2,0,B|248:264|224:296|224:296|207:279|207:279|176:328|112:328,1,191.999994140625,0|8,1:0|0:0,0:0:0:0:
40,292,94195,1,2,0:0:0:0:
92,212,94683,6,0,B|72:144|72:144|52:68|124:48,1,191.999994140625,4|8,0:0|0:0,0:0:0:0:
256,184,96634,1,0,1:0:0:0:
391,49,97610,2,0,B|460:68|440:144|440:144|420:212,1,191.999994140625,8|4,0:0|0:0,0:0:0:0:
256,312,99561,6,0,B|212:288|212:288|152:296,1,95.9999970703126,8|2,0:0|0:0,0:0:0:0:
84,244,100537,2,0,P|100:212|28:76,2,191.999994140625,0|8|4,1:0|0:0|0:0,0:0:0:0:
204,96,103464,2,0,B|240:64|294:76|294:76|348:92|392:52,1,191.999994140625,8|0,0:0|1:0,0:0:0:0:
472,228,105415,5,8,0:0:0:0:
256,192,106390,12,4,108342,0:0:0:0:
312,96,109805,6,0,L|420:72,1,95.9999970703126,8|4,0:0|0:0,0:0:0:0:
476,144,110781,1,2,0:0:0:0:
440,232,111268,2,0,B|396:260|348:240|348:240|300:220|252:252,1,191.999994140625,8|0,0:0|1:0,0:0:0:0:
72,300,113220,6,0,L|128:312,1,47.9999985351563,8|4,0:0|0:0,0:0:0:0:
156,220,113951,2,0,L|208:204,1,47.9999985351563,2|4,0:0|0:0,0:0:0:0:
188,108,114683,2,0,L|260:29,2,95.9999970703126,2|8|0,0:0|0:0|0:0,0:0:0:0:
96,80,116146,6,0,P|105:154|202:203,1,191.999994140625,0|8,1:0|0:0,0:0:0:0:
276,144,117610,2,0,L|372:124,1,95.9999970703126,2|4,0:0|0:0,0:0:0:0:
448,300,119073,2,0,B|408:268|358:286|358:286|304:308|252:264,1,191.999994140625,8|0,0:0|1:0,0:0:0:0:
88,208,121024,6,0,P|124:196|156:192,1,47.9999985351563,8|4,0:0|0:0,0:0:0:0:
196,120,121756,2,0,P|232:132|264:136,1,47.9999985351563,2|4,0:0|0:0,0:0:0:0:
332,104,122488,1,2,0:0:0:0:
268,32,122976,2,0,P|340:8|424:80,2,191.999994140625,8|0|8,0:0|1:0|0:0,0:0:0:0:
332,104,125415,6,0,P|344:144|328:212,1,95.9999970703126,2|4,0:0|0:0,0:0:0:0:
164,280,126878,2,0,B|156:236|100:212|100:212|49:193|36:144,1,191.999994140625,8|0,0:0|1:0,0:0:0:0:
188,44,128829,6,0,L|208:96,1,47.9999985351563,8|4,0:0|0:0,0:0:0:0:
304,88,129561,2,0,L|321:43,1,47.9999985351563,2|4,0:0|0:0,0:0:0:0:
412,72,130293,1,2,0:0:0:0:
475,146,130781,2,0,B|463:193|412:212|412:212|356:236|348:280,1,191.999994140625,8|0,0:0|1:0,0:0:0:0:
248,116,132732,6,0,P|213:149|203:197,1,95.9999970703126,8|2,0:0|0:0,0:0:0:0:
204,282,133707,2,0,P|184:189|116:124,1,191.999994140625,4|8,0:0|0:0,0:0:0:0:
180,52,135171,1,2,0:0:0:0:
272,80,135659,6,0,L|372:56,1,95.9999970703126,0|2,1:0|0:0,0:0:0:0:
420,136,136634,2,0,L|359:150,1,47.9999985351563,8|4,0:0|0:0,0:0:0:0:
388,240,137366,2,0,L|327:254,1,47.9999985351563,2|4,0:0|0:0,0:0:0:0:
356,344,138098,1,2,0:0:0:0:
260,356,138585,2,0,B|228:324|171:332|171:332|116:344|72:304,1,191.999994140625,8|0,0:0|1:0,0:0:0:0:
176,144,140537,6,0,L|272:124,1,95.9999970703126,0|2,1:0|0:0,0:0:0:0:
316,40,141512,1,8,0:0:0:0:
316,40,148342,6,0,L|416:56,1,95.9999970703126
456,140,149317,6,0,B|404:156|390:206|390:206|376:256|324:272,1,191.999994140625,4|8,0:0|0:0,0:0:0:0:
256,208,150781,1,2,0:0:0:0:
184,270,151268,2,0,B|136:256|122:206|122:206|108:156|56:140,1,191.999994140625,0|8,1:0|0:0,0:0:0:0:
224,48,153220,6,0,B|260:80|312:76|312:76|322:131|376:156,1,191.999994140625,4|8,0:0|0:0,0:0:0:0:
408,64,154683,1,2,0:0:0:0:
464,144,155171,2,0,P|456:192|412:240,1,95.9999970703126,0|2,1:0|0:0,0:0:0:0:
333,246,156146,2,0,P|285:240|241:257,1,95.9999970703126,8|2,0:0|0:0,0:0:0:0:
192,340,157122,6,0,P|124:356|64:260,1,191.999994140625,4|8,0:0|0:0,0:0:0:0:
124,192,158585,1,2,0:0:0:0:
62,117,159073,2,0,P|101:36|192:43,1,191.999994140625,0|8,1:0|0:0,0:0:0:0:
372,112,161024,6,0,B|354:164|404:192|404:192|355:215|372:272,1,191.999994140625,4|8,0:0|0:0,0:0:0:0:
188,328,162976,2,0,P|216:280|212:220,1,95.9999970703126,0|2,1:0|0:0,0:0:0:0:
164,160,163951,2,0,P|136:112|140:52,1,95.9999970703126,0|2,1:0|0:0,0:0:0:0:
204,8,164927,6,0,B|348:28|348:28|400:72,1,191.999994140625,4|8,0:0|0:0,0:0:0:0:
432,140,166390,2,0,P|436:176|416:236,1,95.9999970703126,2|0,0:0|1:0,0:0:0:0:
228,204,167854,2,0,P|224:168|244:108,1,95.9999970703126,8|2,0:0|0:0,0:0:0:0:
336,84,168829,6,0,B|348:132|324:176|324:176|344:284,1,191.999994140625,4|8,0:0|0:0,0:0:0:0:
241,111,170781,2,0,P|178:40|85:28,1,191.999994140625,0|8,1:0|0:0,0:0:0:0:
12,92,172244,1,2,0:0:0:0:
52,180,172732,6,0,B|44:228|44:228|39:283|80:316|80:316|64:344|68:364,1,191.999994140625,4|8,0:0|0:0,0:0:0:0:
244,280,174683,2,0,B|281:251|336:263|336:263|390:274|428:243,2,191.999994140625,0|8|4,1:0|0:0|0:0,0:0:0:0:
360,128,177610,6,0,P|360:80|327:26,1,95.9999970703126,8|2,0:0|0:0,0:0:0:0:
268,104,178585,2,0,B|230:132|175:120|175:120|121:109|83:140,1,191.999994140625,0|8,1:0|0:0,0:0:0:0:
