osu file format v14

[General]
AudioFilename: audio.mp3
AudioLeadIn: 0
PreviewTime: -1
Countdown: 1
SampleSet: Normal
StackLeniency: 0.7
Mode: 0
LetterboxInBreaks: 0
WidescreenStoryboard: 0

[Editor]
DistanceSpacing: 1.5
BeatDivisor: 4
GridSize: 4
TimelineZoom: 1

[Metadata]
Title:Trailer Theme
TitleUnicode:Trailer Theme
Artist:Zelda Breath of the Wild (arranged by ClefferNotes)
ArtistUnicode:Zelda Breath of the Wild (arranged by ClefferNotes)
Creator:Le Dyguidour
Version:The Wild
Source:https://www.youtube.com/watch?v=kZsbtOZWG4o
Tags:Zelda Breath of the Wild Trailer Nintendo
BeatmapID:1285396
BeatmapSetID:608650

[Difficulty]
HPDrainRate:6
CircleSize:4.3
OverallDifficulty:7
ApproachRate:9
SliderMultiplier:1.4
SliderTickRate:1

[Events]
//Background and Video events
0,0,"breath-of-the-wild_g3en.jpg",0,0
//Break Periods
2,67664,85217
//Storyboard Layer 0 (Background)
//Storyboard Layer 1 (Fail)
//Storyboard Layer 2 (Pass)
//Storyboard Layer 3 (Foreground)
//Storyboard Sound Samples

[TimingPoints]
840,500,4,1,0,20,1,0
840,-100,4,1,0,5,0,0
85817,410.958904109589,4,1,0,100,1,1
99001,-100,4,1,0,100,0,0
137128,382.165605095541,4,1,0,100,1,0
165078,389.61038961039,4,1,0,100,1,0

[HitObjects]
104,128,840,6,0,B|208:152|248:80|248:80|300:56|348:88|348:88|336:120|372:136|364:192|336:240|336:240|256:220|176:272,1,595
200,220,3090,2,0,B|256:208|288:144|356:164|356:164|348:184|372:244,1,245
384,288,4090,2,0,B|316:320|276:288|276:288|212:288|212:288|264:220|256:132|296:104|296:104|372:160|412:144,1,490
424,148,5965,2,0,B|432:56|348:28|288:88|348:172|348:172|299:184|296:112|192:116|256:196|256:196|219:223|112:208|149:41|76:33|76:33|-32:256|87:298|260:280,1,1120
348,236,10465,6,0,B|340:172|416:128|416:128|332:68|232:88|192:60|176:208|176:208|96:96|168:40|168:40|120:40|96:56|56:108|68:168|68:168,1,840,0|0,0:0|2:2,0:0:0:0:
276,152,13965,2,0,B|244:188|280:264|364:224|364:224|344:148|376:84|248:76|252:32|252:32|208:120|160:188|216:260|216:260,1,630
336,308,16715,1,0,0:0:0:0:
380,132,17090,1,0,0:0:0:0:
380,132,19840,1,0,0:0:0:0:
312,124,20465,2,0,B|280:104|192:112|148:48,1,175
168,232,22590,5,0,0:0:0:0:
120,156,22756,2,0,L|64:152,2,35
360,260,26465,6,0,B|304:272|272:336|204:316|204:316|228:236|180:216|135:239|93:177|93:177|104:143|93:109|184:100,1,490
240,140,28715,2,0,B|308:108|348:140|348:140|412:140|412:140|360:208|368:296|328:324|328:324|256:196|184:292|125:343|125:343|64:256|161:219|160:180|160:180|148:156|72:168,1,910
196,96,32340,5,0,0:0:0:0:
280,132,32590,1,0,0:0:0:0:
328,220,32840,1,0,0:0:0:0:
400,160,33090,2,0,P|416:136|420:104,2,46.6666666666667
328,220,33590,1,0,0:0:0:0:
380,140,36090,6,0,B|324:108|272:136|216:92,1,140
120,56,37090,2,0,B|168:116|188:208|252:204|300:140|328:144|328:144|348:216|312:272|380:284|432:280|432:280|400:304|384:308|364:312,1,525
376,220,39215,2,0,B|344:148|308:108|308:108|292:200|232:248|176:244|176:244|206:285|344:280|404:304|284:336|76:304,1,735
348,348,43215,6,0,L|408:36,1,315
100,64,45090,2,0,L|140:68,1,35
140,124,45340,2,0,L|480:164,1,315
140,64,47215,5,0,0:0:0:0:
140,64,47465,2,0,P|212:64|264:80,1,105
272,92,47965,2,0,P|208:124|172:176,1,105
204,184,48465,2,0,P|256:240|272:336,1,175
368,332,49340,2,0,L|376:292,1,35
336,280,49590,2,0,L|388:40,1,245
356,44,50590,2,0,B|296:28|296:28|288:80|288:80|260:72|260:72|252:104|224:116|224:116,1,175
152,44,51465,5,0,0:0:0:0:
152,44,51777,2,0,B|248:36|332:68|332:68|376:36|432:52|456:112|440:160|412:176|364:192|332:172,1,420
272,92,53527,2,0,L|260:124,1,35
300,152,53777,2,0,B|241:326|241:326|200:272|140:284|100:208|120:104,1,455
200,64,55621,1,0,0:0:0:0:
200,64,55902,2,0,B|284:104|384:64|384:64|416:128|384:168|408:232|408:232|348:216|320:268|320:268|384:304|384:304|284:324|184:312|184:200|184:200|128:232|128:232|72:120,1,980
128,96,59715,6,0,P|168:92|192:104,1,35
256,112,59965,2,0,P|256:88|236:64,2,35
184,184,60465,2,0,P|184:200|196:232,1,35
236,280,60715,1,0,0:0:0:0:
348,232,60965,5,0,0:0:0:0:
356,196,61090,1,0,0:0:0:0:
356,160,61215,1,0,0:0:0:0:
348,128,61340,1,0,0:0:0:0:
336,96,61465,2,0,P|320:76|300:68,1,35
276,72,61715,5,0,0:0:0:0:
248,92,61840,1,0,0:0:0:0:
228,120,61965,1,0,0:0:0:0:
216,152,62090,1,0,0:0:0:0:
212,188,62215,1,0,0:0:0:0:
132,96,62465,1,0,0:0:0:0:
164,80,62590,1,0,0:0:0:0:
200,80,62715,1,0,0:0:0:0:
356,144,62965,5,0,0:0:0:0:
372,176,63090,1,0,0:0:0:0:
376,212,63215,2,0,P|376:232|372:248,3,35
288,248,63715,2,0,P|328:252|352:240,1,35
416,232,63965,2,0,P|416:256|396:280,2,35
344,160,64465,6,0,P|344:144|356:112,1,35
396,64,64715,1,0,0:0:0:0:
280,72,64965,1,0,0:0:0:0:
256,100,65090,1,0,0:0:0:0:
228,120,65215,1,0,0:0:0:0:
196,132,65340,1,0,0:0:0:0:
164,144,65465,2,0,P|136:148|132:172,1,35
140,184,65715,5,0,0:0:0:0:
148,216,65840,1,0,0:0:0:0:
156,252,65965,1,0,0:0:0:0:
160,288,66090,1,0,0:0:0:0:
160,324,66215,1,0,0:0:0:0:
344,288,66465,1,0,0:0:0:0:
364,260,66590,1,0,0:0:0:0:
380,228,66715,1,0,0:0:0:0:
340,104,66965,5,0,0:0:0:0:
308,96,67090,1,0,0:0:0:0:
272,100,67215,2,0,L|228:112,3,23.3333333333333
92,100,85817,6,0,P|132:100|152:104,1,46.6666666666667
216,128,86090,1,0,0:0:0:0:
312,160,86227,1,0,0:0:0:0:
408,192,86364,1,0,0:0:0:0:
444,304,86501,1,0,0:0:0:0:
336,340,86638,6,0,P|312:312|296:276,1,46.6666666666667
288,208,86912,1,0,0:0:0:0:
384,144,87049,1,0,0:0:0:0:
256,104,87186,1,0,0:0:0:0:
352,40,87323,1,0,0:0:0:0:
432,128,87460,6,0,P|432:160|416:188,1,46.6666666666667
352,248,87734,1,0,0:0:0:0:
248,212,87871,1,0,0:0:0:0:
136,224,88008,1,0,0:0:0:0:
80,124,88145,1,0,0:0:0:0:
160,48,88282,6,0,P|192:40|212:48,1,46.6666666666667
248,132,88556,1,0,0:0:0:0:
344,68,88693,1,0,0:0:0:0:
388,172,88830,1,0,0:0:0:0:
328,256,88967,1,0,0:0:0:0:
208,256,89104,6,0,P|192:228|192:204,1,46.6666666666667
232,92,89378,1,0,0:0:0:0:
356,64,89515,1,0,0:0:0:0:
328,180,89652,1,0,0:0:0:0:
232,92,89789,1,0,0:0:0:0:
356,64,89926,6,0,P|384:68|400:84,1,46.6666666666667
416,208,90200,1,0,0:0:0:0:
288,284,90337,1,0,0:0:0:0:
428,256,90474,1,0,0:0:0:0:
280,240,90611,1,0,0:0:0:0:
424,296,90748,6,0,P|448:308|464:328,1,46.6666666666667
452,188,91022,1,0,0:0:0:0:
324,68,91159,1,0,0:0:0:0:
440,64,91296,1,0,0:0:0:0:
376,188,91433,1,0,0:0:0:0:
240,112,91570,6,0,P|224:140|216:164,1,46.6666666666667
308,236,91844,1,0,0:0:0:0:
160,304,91981,1,0,0:0:0:0:
168,176,92118,1,0,0:0:0:0:
324,168,92255,1,0,0:0:0:0:
424,272,92392,6,0,P|432:304|428:324,1,46.6666666666667
252,272,92666,1,0,0:0:0:0:
364,160,92803,1,0,0:0:0:0:
364,268,92940,1,0,0:0:0:0:
200,224,93077,1,0,0:0:0:0:
280,120,93214,6,0,P|284:96|276:72,1,46.6666666666667
136,56,93488,1,0,0:0:0:0:
108,192,93625,1,0,0:0:0:0:
252,204,93762,1,0,0:0:0:0:
188,84,93899,1,0,0:0:0:0:
108,192,94036,6,0,P|84:216|76:248,1,46.6666666666667
140,340,94310,1,0,0:0:0:0:
288,288,94447,1,0,0:0:0:0:
276,136,94584,1,0,0:0:0:0:
164,224,94721,1,0,0:0:0:0:
316,264,94858,6,0,P|356:264|384:256,1,46.6666666666667
408,128,95132,1,0,0:0:0:0:
300,180,95269,1,0,0:0:0:0:
244,52,95406,1,0,0:0:0:0:
144,108,95543,1,0,0:0:0:0:
140,240,95680,6,0,P|148:272|168:304,1,46.6666666666667
296,280,95953,1,0,0:0:0:0:
216,152,96090,1,0,0:0:0:0:
312,276,96227,1,0,0:0:0:0:
296,136,96364,1,0,0:0:0:0:
336,276,96501,6,0,P|336:304|332:324,1,46.6666666666667
384,140,96775,1,0,0:0:0:0:
244,72,96912,1,0,0:0:0:0:
364,176,97049,1,0,0:0:0:0:
208,176,97186,1,0,0:0:0:0:
368,220,97323,6,0,P|404:224|416:228,1,46.6666666666667
384,336,97597,1,0,0:0:0:0:
436,168,97734,1,0,0:0:0:0:
260,208,97871,1,0,0:0:0:0:
436,168,98008,1,0,0:0:0:0:
304,40,98145,6,0,P|268:32|248:32,1,46.6666666666667
156,60,98419,1,0,0:0:0:0:
156,60,98556,2,0,L|124:84,6,23.3333333333333
216,232,99173,1,0,0:0:0:0:
424,44,99378,1,0,0:0:0:0:
388,288,99584,1,0,0:0:0:0:
276,32,99789,1,0,0:0:0:0:
100,224,99995,1,0,0:0:0:0:
336,144,100200,1,0,0:0:0:0:
336,144,100303,1,0,0:0:0:0:
336,144,100406,5,0,0:0:0:0:
316,324,100611,2,0,P|268:344|224:352,1,70
40,160,101022,1,0,0:0:0:0:
344,152,101227,2,0,P|376:136|400:96,1,70
164,8,101638,1,0,0:0:0:0:
248,224,101844,1,0,0:0:0:0:
248,224,101947,1,0,0:0:0:0:
248,224,102049,5,0,0:0:0:0:
64,28,102255,2,0,P|43:67|71:104,1,70,0|0,0:3|0:3,0:3:0:0:
193,252,102666,1,0,0:3:0:0:
64,19,102871,2,0,P|25:42|30:87,1,70
64,268,103282,1,0,0:0:0:0:
352,320,103488,1,0,0:0:0:0:
352,320,103591,1,0,0:0:0:0:
352,320,103693,5,0,0:0:0:0:
252,152,103899,2,0,B|240:104|240:104|284:120,1,70
444,248,104310,1,0,0:0:0:0:
372,8,104515,1,0,0:0:0:0:
128,68,104721,1,0,0:0:0:0:
128,68,104824,1,0,0:0:0:0:
128,68,104926,1,0,0:0:0:0:
296,232,105132,1,0,0:0:0:0:
296,232,105235,1,0,0:0:0:0:
296,232,105337,5,0,0:0:0:0:
80,312,105543,1,0,0:0:0:0:
140,52,105748,1,0,0:0:0:0:
340,216,105953,1,0,0:0:0:0:
376,0,106159,1,0,0:0:0:0:
184,208,106364,1,0,0:0:0:0:
448,152,106570,1,0,0:0:0:0:
340,372,106775,1,0,0:0:0:0:
340,372,106878,1,0,0:0:0:0:
340,372,106980,5,0,0:0:0:0:
184,208,107186,2,0,P|160:168|172:124,1,70
292,0,107597,1,0,0:0:0:0:
368,240,107803,2,0,B|412:216|412:216|360:208,1,70
144,196,108214,1,0,0:0:0:0:
364,340,108419,1,0,0:0:0:0:
364,340,108522,1,0,0:0:0:0:
364,340,108624,5,0,0:0:0:0:
364,96,108830,2,0,P|352:56|304:36,1,70
92,28,109241,1,0,0:0:0:0:
300,128,109447,2,0,P|274:94|222:93,1,70
21,161,109858,1,0,0:0:0:0:
220,8,110063,1,0,0:0:0:0:
220,8,110166,1,0,0:0:0:0:
220,8,110268,5,0,0:0:0:0:
112,208,110474,2,0,P|116:272|136:296,1,70
224,12,110885,1,0,0:0:0:0:
272,316,111090,1,0,0:0:0:0:
376,92,111296,1,0,0:0:0:0:
376,92,111399,1,0,0:0:0:0:
376,92,111501,1,0,0:0:0:0:
360,332,111707,1,0,0:0:0:0:
360,332,111810,1,0,0:0:0:0:
360,332,111912,5,0,0:0:0:0:
236,104,112118,1,0,0:0:0:0:
136,296,112323,1,0,0:0:0:0:
80,32,112529,1,0,0:0:0:0:
348,80,112734,1,0,0:0:0:0:
236,264,112940,1,0,0:0:0:0:
168,16,113145,1,0,0:0:0:0:
432,48,113351,1,0,0:0:0:0:
432,48,113454,1,0,0:0:0:0:
432,48,113556,5,0,0:0:0:0:
216,84,113762,2,0,B|168:96|168:96|192:140,1,70
280,336,114173,1,0,0:0:0:0:
145,133,114378,2,0,B|134:116|134:116|100:152,1,70
388,156,114789,1,0,0:0:0:0:
152,28,114995,1,0,0:0:0:0:
152,28,115098,1,0,0:0:0:0:
152,28,115200,5,0,0:0:0:0:
388,88,115406,2,0,P|436:92|468:80,1,70
280,232,115817,1,0,0:0:0:0:
92,276,116022,2,0,P|56:288|24:304,2,70
328,220,116638,1,0,0:0:0:0:
328,220,116741,1,0,0:0:0:0:
328,220,116843,5,0,0:0:0:0:
272,8,117049,1,0,0:0:0:0:
48,156,117255,1,0,0:0:0:0:
248,296,117460,1,0,0:0:0:0:
268,60,117666,1,0,0:0:0:0:
52,160,117871,1,0,0:0:0:0:
196,208,118180,5,0,0:0:0:0:
236,216,118488,1,0,0:0:0:0:
276,220,118693,2,0,B|316:232|356:208|464:240|440:320,1,210
440,300,119515,1,0,0:0:0:0:
336,208,119721,1,0,0:0:0:0:
208,264,119926,1,0,0:0:0:0:
208,264,120029,1,0,0:0:0:0:
208,264,120132,5,0,0:0:0:0:
136,124,120337,1,0,0:0:0:0:
252,96,120953,1,0,0:0:0:0:
252,96,121159,2,0,B|320:104|360:128|360:128|336:160|356:216|356:216|308:228,1,245
288,220,121981,2,0,B|192:188|192:188|272:112|272:112|296:208,1,280
300,216,123008,1,0,0:0:0:0:
472,148,123214,1,0,0:0:0:0:
472,148,123317,1,0,0:0:0:0:
472,148,123419,5,0,0:0:0:0:
152,52,123625,1,0,0:0:0:0:
396,136,124421,1,0,0:0:0:0:
304,88,124626,1,0,0:0:0:0:
220,148,124832,1,0,0:0:0:0:
124,104,125037,1,0,0:0:0:0:
88,216,125243,1,0,0:0:0:0:
112,248,125448,1,0,0:0:0:0:
132,280,125654,5,0,0:0:0:0:
344,200,126193,1,0,0:0:0:0:
372,104,126399,1,0,0:0:0:0:
256,32,126604,1,0,0:0:0:0:
216,44,126810,1,0,0:0:0:0:
180,52,127015,1,0,0:0:0:0:
140,64,127220,5,0,0:0:0:0:
280,192,127863,1,0,0:0:0:0:
132,180,128103,1,0,0:0:0:0:
124,176,128762,1,0,0:0:0:0:
276,120,129121,1,0,0:0:0:0:
384,176,129344,1,0,0:0:0:0:
380,296,129584,1,0,0:0:0:0:
244,224,129858,1,0,0:0:0:0:
256,88,130174,1,0,0:0:0:0:
256,88,130440,5,0,0:0:0:0:
136,168,131099,1,0,0:0:0:0:
136,168,131330,1,0,0:0:0:0:
136,256,131947,1,0,0:0:0:0:
136,256,132178,1,0,0:0:0:0:
324,192,132769,1,0,0:0:0:0:
372,92,133008,1,0,0:0:0:0:
268,44,133282,1,0,0:0:0:0:
208,164,133556,1,0,0:0:0:0:
208,164,133830,5,0,0:0:0:0:
368,236,134284,1,0,0:0:0:0:
352,128,134695,1,0,0:0:0:0:
400,252,135080,1,0,0:0:0:0:
452,76,135491,1,0,0:0:0:0:
424,104,137128,6,0,P|368:88|324:84,1,70
416,220,137510,1,0,0:0:0:0:
164,244,137701,1,0,0:0:0:0:
420,276,137892,1,0,0:0:0:0:
296,132,138274,1,0,0:0:0:0:
84,40,138465,1,0,0:0:0:0:
168,216,138656,6,0,L|168:292,1,70
320,216,139038,1,0,0:0:0:0:
476,44,139229,1,0,0:0:0:0:
348,264,139612,1,0,0:0:0:0:
204,32,139803,5,0,0:0:0:0:
204,32,140185,1,0,0:0:0:0:
336,320,140376,1,0,0:0:0:0:
44,248,140567,1,0,0:0:0:0:
200,72,140758,1,0,0:0:0:0:
280,324,140949,1,0,0:0:0:0:
448,136,141331,6,0,P|448:92|428:48,1,70
164,28,141713,1,0,0:0:0:0:
368,172,141905,1,0,0:0:0:0:
100,156,142096,1,0,0:0:0:0:
100,156,142287,1,0,0:0:0:0:
100,156,142478,1,0,0:0:0:0:
400,88,142669,1,0,0:0:0:0:
88,220,142860,1,0,0:0:0:0:
88,220,143051,5,0,0:0:0:0:
340,280,143242,2,0,P|392:264|416:248,1,70
408,64,143624,1,0,0:0:0:0:
452,320,143815,1,0,0:0:0:0:
272,120,144006,1,0,0:0:0:0:
108,76,144389,5,0,0:0:0:0:
288,64,144580,1,0,0:0:0:0:
128,204,144771,1,0,0:0:0:0:
336,240,144962,1,0,0:0:0:0:
468,40,145153,1,0,0:0:0:0:
240,28,145344,1,0,0:0:0:0:
240,28,145726,5,0,0:0:0:0:
24,136,145917,1,0,0:0:0:0:
324,160,146299,6,0,P|368:160|400:148,1,70
248,248,146682,1,0,0:0:0:0:
480,296,146873,1,0,0:0:0:0:
216,328,147064,1,0,0:0:0:0:
224,84,147446,6,0,P|276:92|300:112,1,70
384,200,147828,1,0,0:0:0:0:
152,216,148019,1,0,0:0:0:0:
388,296,148210,1,0,0:0:0:0:
324,92,148401,1,0,0:0:0:0:
192,116,148592,5,0,0:0:0:0:
164,136,148688,1,0,0:0:0:0:
140,164,148784,1,0,0:0:0:0:
124,196,148879,1,0,0:0:0:0:
120,232,148975,2,0,P|116:252|120:272,1,35
236,232,149166,1,0,0:0:0:0:
272,236,149261,1,0,0:0:0:0:
304,248,149357,1,0,0:0:0:0:
296,132,149572,5,0,0:0:0:0:
180,120,149763,1,0,0:0:0:0:
296,152,149954,1,0,0:0:0:0:
376,248,150185,2,0,B|372:288|352:328|352:328|300:280|212:292|224:224,1,245
220,196,150949,2,0,B|252:164|292:108|292:108|348:120,1,140
400,128,151522,1,0,0:0:0:0:
104,200,151745,2,0,B|148:216|208:212|288:232|308:284,1,210
340,272,152414,6,0,L|400:48,1,210
232,48,153178,1,0,0:0:0:0:
176,188,153370,1,0,0:0:0:0:
64,88,153561,1,0,0:0:0:0:
228,160,153752,1,0,0:0:0:0:
300,312,153943,2,0,P|336:272|340:228,1,70
300,112,154325,5,0,0:0:0:0:
268,96,154420,1,0,0:0:0:0:
236,84,154516,1,0,0:0:0:0:
200,88,154612,1,0,0:0:0:0:
168,96,154707,5,0,0:0:0:0:
180,128,154803,1,0,0:0:0:0:
184,164,154898,1,0,0:0:0:0:
180,200,154994,1,0,0:0:0:0:
168,232,155089,5,0,0:0:0:0:
304,328,155280,1,0,0:0:0:0:
464,144,155471,1,0,0:0:0:0:
276,236,155663,1,0,0:0:0:0:
352,12,155854,1,0,0:0:0:0:
212,144,156045,1,0,0:0:0:0:
356,16,156427,5,0,0:0:0:0:
208,136,156618,1,0,0:0:0:0:
120,168,157000,6,0,P|108:216|112:264,1,70
224,320,157382,1,0,0:0:0:0:
368,192,157573,1,0,0:0:0:0:
176,220,157764,2,0,B|212:200|252:200|276:172|276:172|248:136|180:124|132:176,1,245
80,212,158529,2,0,B|192:204|236:260|252:336|336:324|384:272|392:220|388:144|224:148,1,490
144,76,160057,2,0,B|204:56|272:60|328:64|328:64|372:48|372:48|404:104|376:212|376:212|324:216|284:212|264:240,1,490
156,256,161586,1,0,0:0:0:0:
156,256,161968,1,0,0:0:0:0:
192,272,163115,1,0,0:0:0:0:
344,272,163306,1,0,0:0:0:0:
256,192,163401,12,0,164643,0:0:0:0:
180,68,165078,5,0,0:0:0:0:
428,120,165272,1,0,0:0:0:0:
224,256,165467,1,0,0:0:0:0:
312,12,165662,1,0,0:0:0:0:
432,216,165857,1,0,0:0:0:0:
204,88,166052,1,0,0:0:0:0:
240,292,166246,5,0,0:0:0:0:
272,308,166344,1,0,0:0:0:0:
308,316,166441,1,0,0:0:0:0:
344,312,166539,1,0,0:0:0:0:
376,296,166636,1,0,0:0:0:0:
304,168,166831,6,0,P|296:128|296:88,1,70
416,72,167220,2,0,P|408:116|396:136,1,52.5
392,144,167415,2,0,P|360:128|328:120,1,52.5
308,128,167610,2,0,P|280:160|264:168,1,52.5
260,184,167805,2,0,P|268:220|280:240,1,52.5
276,256,168000,2,0,P|244:276|216:280,1,52.5
208,276,168194,2,0,B|164:248|156:204|168:152|136:148,1,140
52,80,168779,5,0,0:0:0:0:
212,196,168974,1,0,0:0:0:0:
212,196,169168,1,0,0:0:0:0:
328,64,169363,1,0,0:0:0:0:
364,72,169461,1,0,0:0:0:0:
392,96,169558,1,0,0:0:0:0:
412,124,169655,1,0,0:0:0:0:
424,156,169753,1,0,0:0:0:0:
352,244,169948,6,0,P|308:228|264:224,1,70
68,264,170337,1,0,0:0:0:0:
192,108,170532,1,0,0:0:0:0:
216,80,170629,1,0,0:0:0:0:
248,64,170727,1,0,0:0:0:0:
392,76,170922,1,0,0:0:0:0:
432,64,171019,1,0,0:0:0:0:
464,52,171116,1,0,0:0:0:0:
432,188,171311,6,0,P|428:232|392:264,1,70
208,352,171701,1,0,0:0:0:0:
372,184,171896,6,0,P|361:226|320:252,1,70
125,310,172286,1,0,0:0:0:0:
124,204,172480,1,0,0:0:0:0:
128,168,172578,1,0,0:0:0:0:
136,136,172675,1,0,0:0:0:0:
152,104,172772,1,0,0:0:0:0:
176,76,172870,1,0,0:0:0:0:
304,64,173065,6,0,P|360:72|400:92,1,70
356,192,173454,2,0,P|324:176|292:168,1,52.5
272,208,173649,2,0,P|304:216|336:232,1,52.5
284,264,173844,2,0,P|252:248|220:240,1,52.5
204,276,174039,2,0,P|236:284|268:300,1,52.5
216,332,174234,2,0,P|184:316|152:308,1,52.5
144,296,174428,2,0,B|120:256|164:180|164:180|160:144,1,140
140,40,175013,1,0,0:0:0:0:
80,184,175207,1,0,0:0:0:0:
80,184,175402,5,0,0:0:0:0:
224,292,175597,1,0,0:0:0:0:
256,276,175694,1,0,0:0:0:0:
280,252,175792,1,0,0:0:0:0:
296,220,175889,1,0,0:0:0:0:
300,184,175987,2,0,L|300:144,3,35,4|0|0|0,0:0|0:0|0:0|0:0,0:0:0:0:
332,164,176376,2,0,L|332:208,3,35
364,184,176766,2,0,L|364:132,3,35
392,172,177155,5,0,0:0:0:0:
412,144,177253,1,0,0:0:0:0:
428,112,177350,1,0,0:0:0:0:
428,76,177448,1,0,0:0:0:0:
404,52,177545,2,0,P|356:36|308:36,1,70
112,52,177935,1,0,0:0:0:0:
384,88,178129,2,0,P|336:72|288:72,1,70
92,96,178519,5,0,0:0:0:0:
112,204,178714,5,0,0:0:0:0:
132,232,178811,1,0,0:0:0:0:
156,256,178909,1,0,0:0:0:0:
188,272,179006,1,0,0:0:0:0:
220,284,179103,1,0,0:0:0:0:
324,200,179298,2,0,P|344:164|368:140,1,70
240,112,179688,6,0,L|184:112,1,52.5
168,88,179883,2,0,L|224:88,1,52.5
248,124,180078,2,0,L|192:124,1,52.5
176,100,180272,2,0,L|232:100,1,52.5
256,136,180467,2,0,L|200:136,1,52.5
176,152,180662,2,0,B|144:184|152:216,1,70
172,252,180954,2,0,P|220:260|256:244,1,87.5
284,220,181246,2,0,P|316:196|340:184,1,52.5
368,176,181441,1,0,0:0:0:0:
240,64,181636,5,0,0:0:0:0:
108,132,181831,5,0,0:0:0:0:
104,168,181928,1,0,0:0:0:0:
108,204,182026,1,0,0:0:0:0:
120,236,182123,1,0,0:0:0:0:
140,264,182220,2,0,B|176:292|272:280|304:240|304:240|368:252,1,210
416,128,183000,2,0,L|448:104,2,35
260,80,183389,2,0,L|280:44,2,35
80,144,183779,5,0,0:0:0:0:
112,184,183876,1,0,0:0:0:0:
156,216,183974,1,0,0:0:0:0:
208,232,184071,1,0,0:0:0:0:
260,236,184168,5,0,0:0:0:0:
284,192,184266,1,0,0:0:0:0:
316,156,184363,1,0,0:0:0:0:
356,124,184461,1,0,0:0:0:0:
396,100,184558,5,0,0:0:0:0:
424,136,184655,1,0,0:0:0:0:
444,176,184753,1,0,0:0:0:0:
456,220,184850,1,0,0:0:0:0:
460,264,184948,5,0,0:0:0:0:
420,280,185045,1,0,0:0:0:0:
380,284,185142,1,0,0:0:0:0:
336,284,185240,1,0,0:0:0:0:
296,276,185337,5,0,0:0:0:0:
288,224,185435,1,0,0:0:0:0:
276,172,185532,1,0,0:0:0:0:
264,120,185629,1,0,0:0:0:0:
240,72,185727,5,0,0:0:0:0:
192,56,185824,1,0,0:0:0:0:
144,68,185922,1,0,0:0:0:0:
108,100,186019,1,0,0:0:0:0:
80,140,186116,5,0,0:0:0:0:
96,184,186214,1,0,0:0:0:0:
124,220,186311,1,0,0:0:0:0:
164,244,186409,1,0,0:0:0:0:
208,260,186506,5,0,0:0:0:0:
244,236,186603,1,0,0:0:0:0:
280,216,186701,1,0,0:0:0:0:
320,200,186798,1,0,0:0:0:0:
360,192,186896,5,0,0:0:0:0:
328,212,188454,5,0,0:0:0:0:
252,98,188649,1,0,0:0:0:0:
192,221,188844,1,0,0:0:0:0:
328,212,189039,1,0,0:0:0:0:
332,164,189233,5,0,0:0:0:0:
201,113,189428,1,0,0:0:0:0:
223,252,189623,1,0,0:0:0:0:
332,164,189818,1,0,0:0:0:0:
300,112,190037,5,0,0:0:0:0:
176,179,190256,1,0,0:0:0:0:
292,256,190500,1,0,0:0:0:0:
300,112,190767,1,0,0:0:0:0:
260,100,191084,5,0,0:0:0:0:
212,208,191401,1,0,0:0:0:0:
332,196,191790,1,0,0:0:0:0:
316,72,192253,1,0,0:0:0:0:
284,52,192862,1,0,0:0:0:0:
