osu file format v14

[General]
AudioFilename: audio.mp3
AudioLeadIn: 0
PreviewTime: -1
Countdown: 1
SampleSet: None
StackLeniency: 0.7
Mode: 0
LetterboxInBreaks: 0
WidescreenStoryboard: 1

[Editor]
DistanceSpacing: 1.5
BeatDivisor: 6
GridSize: 4
TimelineZoom: 1

[Metadata]
Title:Trailer Theme
TitleUnicode:Trailer Theme
Artist:Zelda Breath of the Wild (arranged by ClefferNotes)
ArtistUnicode:Zelda Breath of the Wild (arranged by ClefferNotes)
Creator:Le Dyguidour
Version:Easy
Source:https://www.youtube.com/watch?v=kZsbtOZWG4o
Tags:Zelda Breath of the Wild Trailer Nintendo
BeatmapID:1299795
BeatmapSetID:608650

[Difficulty]
HPDrainRate:2
CircleSize:2.5
OverallDifficulty:2
ApproachRate:3
SliderMultiplier:0.8
SliderTickRate:1

[Events]
//Background and Video events
0,0,"breath-of-the-wild_g3en.jpg",0,0
//Break Periods
2,66602,84377
//Storyboard Layer 0 (Background)
//Storyboard Layer 1 (Fail)
//Storyboard Layer 2 (Pass)
//Storyboard Layer 3 (Foreground)
//Storyboard Sound Samples

[TimingPoints]
840,500,4,1,0,20,1,0
840,-100,4,1,0,5,0,0
85817,410.958904109589,4,1,0,100,1,1
99001,-100,4,1,0,100,0,0
137128,382.165605095541,4,1,0,100,1,0
165078,389.61038961039,4,1,0,100,1,0

[HitObjects]
112,88,2840,6,0,P|200:108|256:88,1,140
300,96,3965,2,0,B|316:173|297:246|224:295|168:296,1,260
212,324,5840,2,0,B|300:344|351:323|396:260|404:180,1,280
256,192,7715,12,0,10590,0:0:0:0:
456,128,11090,6,0,B|380:96|299:80|222:78|120:95|40:128,1,420
68,164,13965,2,0,B|156:184|206:163|206:163|296:240|384:184,1,320
408,164,16215,2,0,P|428:144|456:96,1,80
472,56,17090,1,0,0:0:0:0:
256,192,17215,12,0,19590,0:0:0:0:
340,68,19840,5,0,0:0:0:0:
320,96,20465,1,0,0:0:0:0:
152,112,22590,2,0,L|120:92,1,33.3333333333333
104,84,22902,2,0,L|84:72,1,20
56,104,26340,2,0,B|112:48|184:26|265:62|295:109,1,260
336,196,28715,2,0,B|321:273|275:333|188:349|136:328,1,260
116,156,32340,2,0,P|108:124|112:100,2,40
176,172,33090,2,0,P|196:164|220:168,3,26.6666666666667
296,152,35965,6,0,P|356:132|376:112,1,80
416,88,36965,2,0,B|424:304|196:264|196:264|161:211|64:176|64:176|128:68|268:48,1,740
152,128,43215,2,0,L|292:96,1,140
324,144,44340,2,0,L|284:276,1,120
236,284,45340,2,0,L|138:178,1,140
104,140,46465,2,0,L|232:176,1,120
312,204,47465,6,0,P|356:204|384:168,1,93.3333333333333
408,116,48506,2,0,P|432:168|400:288,1,180
220,272,50590,2,0,B|240:260|240:260|212:248|212:248|248:232|248:232|204:208,1,140
184,160,51756,2,0,P|308:168|312:36,1,280
248,40,53840,2,0,P|242:164|374:165,1,280
336,148,55965,2,0,B|200:172|196:292|244:384|476:296|476:296|476:200,1,540
420,64,59683,1,0,0:0:0:0:
420,64,60433,1,0,0:0:0:0:
248,76,61496,2,0,L|224:64,2,20
344,216,62465,1,0,0:0:0:0:
116,216,63746,1,0,0:0:0:0:
116,216,64465,1,0,0:0:0:0:
246,102,65371,2,0,L|254:76,2,20
277,269,66402,1,0,0:0:0:0:
312,112,85817,6,0,L|356:92,5,26.6666666666667
356,140,86638,6,0,L|400:120,5,26.6666666666667
400,168,87460,6,0,L|356:188,5,26.6666666666667
444,196,88282,6,0,L|400:216,5,26.6666666666667
448,252,89104,6,0,L|447:300,5,26.6666666666667
403,278,89925,6,0,L|402:326,5,26.6666666666667
359,306,90747,6,0,L|359:257,5,26.6666666666667
315,335,91569,6,0,L|315:286,5,26.6666666666667
268,276,92392,6,0,L|267:227,5,26.6666666666667
223,250,93213,6,0,L|222:201,5,26.6666666666667
179,222,94035,6,0,L|179:270,5,26.6666666666667
135,193,94857,6,0,L|135:241,5,26.6666666666667
136,144,95680,2,0,L|100:116,11,26.6666666666667
88,80,97323,2,0,P|196:40|320:88,1,240
416,120,98967,2,0,P|312:104|280:120,1,133.333333333333
