osu file format v14

[General]
AudioFilename: audio.ogg
AudioLeadIn: 0
PreviewTime: 38849
Countdown: 0
SampleSet: Normal
StackLeniency: 0.7
Mode: 1
LetterboxInBreaks: 0
WidescreenStoryboard: 1

[Editor]
Bookmarks: 45093,51287,57480,94642,107029
DistanceSpacing: 1
BeatDivisor: 12
GridSize: 32
TimelineZoom: 2.3

[Metadata]
Title:meme
TitleUnicode:meme
Artist:Zektbach
ArtistUnicode:Zektbach
Creator:Miyoi
Version:yassu-'s Oni
Source:REFLEC BEAT limelight
Tags:Midnaait Reficul yassu- Electronic Video Game Instrumental Tomosuke Funaki 舟木智介 ORIGINAL SOUNDTRACK EXTRA OST plus +
BeatmapID:3822773
BeatmapSetID:1858021

[Difficulty]
HPDrainRate:5.5
CircleSize:2
OverallDifficulty:5.5
ApproachRate:9
SliderMultiplier:1.4
SliderTickRate:1

[Events]
//Background and Video events
0,0,"memebg.jpg",0,0
//Break Periods
2,1937,11975
2,63872,69266
//Storyboard Layer 0 (Background)
//Storyboard Layer 1 (Fail)
//Storyboard Layer 2 (Pass)
//Storyboard Layer 3 (Foreground)
//Storyboard Layer 4 (Overlay)
//Storyboard Sound Samples

[TimingPoints]
189,387.096774193548,4,1,0,60,1,8
1737,387.096774193548,4,1,0,60,1,0
12572,-100,4,1,0,72,0,0
38898,-100,4,1,0,85,0,1
63672,-100,4,1,0,85,0,0
65124,-100,4,1,0,80,0,0
94640,-100,4,1,0,85,0,1
107027,-100,4,1,0,85,0,0

[HitObjects]
219,172,1737,5,4,0:0:0:0:
270,190,12575,5,0,0:0:0:0:
208,191,12962,1,2,0:0:0:0:
219,183,13253,1,0,0:0:0:0:
219,183,13446,1,2,0:0:0:0:
217,188,13543,1,0,0:0:0:0:
221,188,13736,1,2,0:0:0:0:
221,200,13930,1,2,0:0:0:0:
221,200,14027,1,2,0:0:0:0:
228,184,14124,1,4,0:0:0:0:
228,177,14511,1,2,0:0:0:0:
226,177,14704,1,0,0:0:0:0:
233,190,14801,1,0,0:0:0:0:
228,184,15091,1,0,0:0:0:0:
241,199,15285,1,2,0:0:0:0:
230,193,15478,1,2,0:0:0:0:
241,200,15672,1,0,0:0:0:0:
241,200,16059,1,2,0:0:0:0:
230,193,16253,1,0,0:0:0:0:
241,199,16349,1,0,0:0:0:0:
267,220,16543,1,2,0:0:0:0:
265,219,16640,1,0,0:0:0:0:
265,217,16833,1,2,0:0:0:0:
263,218,17027,1,2,0:0:0:0:
260,200,17124,1,2,0:0:0:0:
254,203,17220,1,0,0:0:0:0:
251,202,17607,1,2,0:0:0:0:
250,194,17801,1,0,0:0:0:0:
222,190,17898,1,0,0:0:0:0:
250,194,18188,1,0,0:0:0:0:
250,194,18382,1,2,0:0:0:0:
230,179,18478,1,0,0:0:0:0:
244,176,18575,1,2,0:0:0:0:
250,194,18769,1,0,0:0:0:0:
250,194,19156,1,2,0:0:0:0:
250,194,19349,1,0,0:0:0:0:
250,194,19446,1,0,0:0:0:0:
250,194,19640,1,2,0:0:0:0:
250,194,19736,1,0,0:0:0:0:
250,194,19930,1,2,0:0:0:0:
250,194,20124,1,2,0:0:0:0:
250,194,20220,1,2,0:0:0:0:
188,197,20317,1,0,0:0:0:0:
228,177,20704,1,2,0:0:0:0:
226,177,20898,1,0,0:0:0:0:
233,190,20995,1,0,0:0:0:0:
228,184,21285,1,0,0:0:0:0:
241,199,21478,1,2,0:0:0:0:
230,193,21672,1,2,0:0:0:0:
241,200,21866,1,0,0:0:0:0:
241,200,22253,1,2,0:0:0:0:
230,193,22446,1,0,0:0:0:0:
241,199,22543,1,0,0:0:0:0:
267,220,22736,1,2,0:0:0:0:
265,219,22833,1,0,0:0:0:0:
265,217,23027,1,2,0:0:0:0:
263,218,23220,1,2,0:0:0:0:
260,200,23317,1,2,0:0:0:0:
254,203,23414,1,0,0:0:0:0:
251,202,23801,1,2,0:0:0:0:
250,194,23995,1,0,0:0:0:0:
222,190,24091,1,0,0:0:0:0:
250,194,24382,1,0,0:0:0:0:
250,194,24575,1,2,0:0:0:0:
230,179,24672,1,0,0:0:0:0:
244,176,24769,1,2,0:0:0:0:
250,194,24962,1,0,0:0:0:0:
228,200,25156,1,0,0:0:0:0:
250,194,25349,1,2,0:0:0:0:
250,194,25543,1,0,0:0:0:0:
250,194,25640,1,0,0:0:0:0:
250,194,25833,1,2,0:0:0:0:
250,194,25930,1,0,0:0:0:0:
250,194,26124,1,2,0:0:0:0:
250,194,26317,1,2,0:0:0:0:
250,194,26414,1,2,0:0:0:0:
188,197,26511,1,0,0:0:0:0:
228,177,26898,1,2,0:0:0:0:
226,177,27091,1,0,0:0:0:0:
233,190,27188,1,0,0:0:0:0:
222,190,27285,1,0,0:0:0:0:
228,184,27478,1,0,0:0:0:0:
241,199,27672,1,2,0:0:0:0:
230,193,27866,1,2,0:0:0:0:
241,200,28059,1,0,0:0:0:0:
241,200,28446,1,2,0:0:0:0:
230,193,28640,1,0,0:0:0:0:
241,199,28736,1,0,0:0:0:0:
267,220,28930,1,2,0:0:0:0:
265,219,29027,1,0,0:0:0:0:
265,217,29220,1,2,0:0:0:0:
263,218,29414,1,2,0:0:0:0:
260,200,29511,1,2,0:0:0:0:
254,203,29607,1,0,0:0:0:0:
251,202,29995,1,2,0:0:0:0:
250,194,30188,1,0,0:0:0:0:
222,190,30285,1,0,0:0:0:0:
196,161,30382,1,0,0:0:0:0:
250,194,30575,1,0,0:0:0:0:
250,194,30769,1,2,0:0:0:0:
230,179,30866,1,0,0:0:0:0:
244,176,30962,1,2,0:0:0:0:
250,194,31156,1,0,0:0:0:0:
250,194,31543,1,2,0:0:0:0:
250,194,31736,1,0,0:0:0:0:
250,194,31833,1,0,0:0:0:0:
250,194,32027,1,2,0:0:0:0:
250,194,32124,1,0,0:0:0:0:
250,194,32317,1,2,0:0:0:0:
250,194,32511,1,2,0:0:0:0:
250,194,32607,1,2,0:0:0:0:
188,197,32704,1,0,0:0:0:0:
228,177,33091,1,2,0:0:0:0:
226,177,33285,1,0,0:0:0:0:
233,190,33382,1,0,0:0:0:0:
222,190,33478,1,0,0:0:0:0:
228,184,33672,1,0,0:0:0:0:
241,199,33866,1,2,0:0:0:0:
230,193,34059,1,2,0:0:0:0:
241,200,34253,1,0,0:0:0:0:
241,200,34640,1,2,0:0:0:0:
230,193,34833,1,0,0:0:0:0:
241,199,34930,1,0,0:0:0:0:
267,220,35124,1,2,0:0:0:0:
265,219,35220,1,0,0:0:0:0:
265,217,35414,1,2,0:0:0:0:
263,218,35607,1,2,0:0:0:0:
260,200,35704,1,2,0:0:0:0:
254,203,35801,1,0,0:0:0:0:
251,202,36188,1,2,0:0:0:0:
250,194,36382,1,0,0:0:0:0:
222,190,36478,1,0,0:0:0:0:
196,161,36575,1,0,0:0:0:0:
250,194,36769,1,0,0:0:0:0:
250,194,36962,1,2,0:0:0:0:
230,179,37059,1,0,0:0:0:0:
244,176,37156,1,2,0:0:0:0:
250,194,37349,1,0,0:0:0:0:
252,161,37543,1,0,0:0:0:0:
250,194,37736,1,2,0:0:0:0:
250,194,37930,1,0,0:0:0:0:
250,194,38027,1,0,0:0:0:0:
250,194,38220,1,2,0:0:0:0:
250,194,38317,1,0,0:0:0:0:
250,194,38511,1,2,0:0:0:0:
250,194,38704,1,2,0:0:0:0:
250,194,38801,1,2,0:0:0:0:
188,197,38898,1,4,0:0:0:0:
279,221,39285,1,2,0:0:0:0:
238,222,39478,1,0,0:0:0:0:
251,226,39575,1,0,0:0:0:0:
251,216,39672,1,2,0:0:0:0:
238,222,39866,1,0,0:0:0:0:
242,216,40059,1,2,0:0:0:0:
244,229,40156,1,2,0:0:0:0:
251,215,40253,1,2,0:0:0:0:
249,216,40446,1,0,0:0:0:0:
251,216,40640,1,0,0:0:0:0:
250,216,40833,1,2,0:0:0:0:
256,216,41027,1,0,0:0:0:0:
258,216,41124,1,0,0:0:0:0:
258,216,41220,1,2,0:0:0:0:
258,215,41317,1,2,0:0:0:0:
258,213,41414,1,0,0:0:0:0:
258,213,41607,1,2,0:0:0:0:
256,219,41801,1,2,0:0:0:0:
256,223,41898,1,2,0:0:0:0:
256,216,41995,1,0,0:0:0:0:
258,213,42382,1,2,0:0:0:0:
258,213,42575,1,0,0:0:0:0:
256,219,42672,1,0,0:0:0:0:
250,177,42769,1,0,0:0:0:0:
256,216,42962,1,0,0:0:0:0:
246,222,43156,1,2,0:0:0:0:
277,177,43253,1,0,0:0:0:0:
254,222,43349,1,2,0:0:0:0:
246,220,43543,1,0,0:0:0:0:
256,219,43736,1,0,0:0:0:0:
260,221,43833,1,0,0:0:0:0:
251,245,43930,1,2,0:0:0:0:
252,245,44124,1,0,0:0:0:0:
252,245,44220,1,0,0:0:0:0:
253,245,44317,1,2,0:0:0:0:
256,238,44414,1,2,0:0:0:0:
258,222,44511,1,0,0:0:0:0:
258,220,44704,1,2,0:0:0:0:
258,220,44898,1,2,0:0:0:0:
258,220,44995,1,2,0:0:0:0:
260,220,45091,1,0,0:0:0:0:
279,221,45478,1,2,0:0:0:0:
238,222,45672,1,0,0:0:0:0:
278,229,45769,1,0,0:0:0:0:
278,231,45866,1,2,0:0:0:0:
238,222,46059,1,0,0:0:0:0:
242,216,46253,1,2,0:0:0:0:
225,208,46349,1,2,0:0:0:0:
281,227,46446,1,2,0:0:0:0:
249,216,46640,1,0,0:0:0:0:
283,226,46833,1,0,0:0:0:0:
250,216,47027,1,2,0:0:0:0:
256,216,47220,1,0,0:0:0:0:
258,216,47317,1,0,0:0:0:0:
258,216,47414,1,2,0:0:0:0:
258,215,47511,1,2,0:0:0:0:
258,213,47607,1,0,0:0:0:0:
258,213,47801,1,2,0:0:0:0:
292,215,47995,1,2,0:0:0:0:
293,213,48091,1,2,0:0:0:0:
256,216,48188,1,0,0:0:0:0:
258,213,48575,1,2,0:0:0:0:
258,213,48769,1,0,0:0:0:0:
246,181,48866,1,0,0:0:0:0:
248,163,48962,1,0,0:0:0:0:
256,216,49156,1,0,0:0:0:0:
246,222,49349,1,2,0:0:0:0:
298,211,49446,1,0,0:0:0:0:
298,211,49543,1,2,0:0:0:0:
246,220,49736,1,0,0:0:0:0:
301,211,49930,1,0,0:0:0:0:
245,161,50027,1,0,0:0:0:0:
251,245,50124,1,2,0:0:0:0:
252,245,50317,1,0,0:0:0:0:
252,245,50414,1,0,0:0:0:0:
253,245,50511,1,2,0:0:0:0:
256,238,50607,1,2,0:0:0:0:
258,222,50704,1,0,0:0:0:0:
301,211,50801,1,0,0:0:0:0:
258,220,50898,1,2,0:0:0:0:
258,220,51091,1,2,0:0:0:0:
258,220,51188,1,2,0:0:0:0:
260,220,51285,1,0,0:0:0:0:
279,221,51672,1,2,0:0:0:0:
238,222,51866,1,0,0:0:0:0:
251,226,51962,1,0,0:0:0:0:
251,216,52059,1,2,0:0:0:0:
238,222,52253,1,0,0:0:0:0:
242,216,52446,1,2,0:0:0:0:
279,221,52543,1,2,0:0:0:0:
251,215,52640,1,2,0:0:0:0:
280,180,52736,1,2,0:0:0:0:
249,216,52833,1,0,0:0:0:0:
251,216,53027,1,0,0:0:0:0:
250,216,53220,1,2,0:0:0:0:
256,216,53414,1,0,0:0:0:0:
258,216,53511,1,0,0:0:0:0:
258,216,53607,1,2,0:0:0:0:
258,215,53704,1,2,0:0:0:0:
258,213,53801,1,0,0:0:0:0:
258,213,53995,1,2,0:0:0:0:
256,219,54188,1,2,0:0:0:0:
256,223,54285,1,2,0:0:0:0:
256,216,54382,1,0,0:0:0:0:
252,209,54575,1,0,0:0:0:0:
258,213,54769,1,2,0:0:0:0:
258,213,54962,1,0,0:0:0:0:
256,219,55059,1,0,0:0:0:0:
250,177,55156,1,0,0:0:0:0:
256,216,55349,1,0,0:0:0:0:
246,222,55543,1,2,0:0:0:0:
277,177,55640,1,0,0:0:0:0:
254,222,55736,1,2,0:0:0:0:
258,213,55833,1,2,0:0:0:0:
246,220,55930,1,0,0:0:0:0:
256,219,56124,1,0,0:0:0:0:
260,221,56220,1,0,0:0:0:0:
251,245,56317,1,2,0:0:0:0:
252,245,56511,1,0,0:0:0:0:
252,245,56607,1,0,0:0:0:0:
253,245,56704,1,2,0:0:0:0:
256,238,56801,1,2,0:0:0:0:
258,222,56898,1,0,0:0:0:0:
258,220,57091,1,2,0:0:0:0:
258,220,57285,1,2,0:0:0:0:
258,220,57382,1,2,0:0:0:0:
260,220,57478,1,0,0:0:0:0:
279,221,57866,1,2,0:0:0:0:
238,222,58059,1,0,0:0:0:0:
278,229,58156,1,0,0:0:0:0:
278,231,58253,1,2,0:0:0:0:
238,222,58446,1,0,0:0:0:0:
242,216,58640,1,2,0:0:0:0:
259,209,58736,1,2,0:0:0:0:
281,227,58833,1,2,0:0:0:0:
236,187,58930,1,2,0:0:0:0:
249,216,59027,1,0,0:0:0:0:
283,226,59220,1,0,0:0:0:0:
250,216,59414,1,2,0:0:0:0:
256,216,59607,1,0,0:0:0:0:
258,216,59704,1,0,0:0:0:0:
258,216,59801,1,2,0:0:0:0:
258,215,59898,1,2,0:0:0:0:
258,213,59995,1,0,0:0:0:0:
258,213,60188,1,2,0:0:0:0:
292,215,60382,1,2,0:0:0:0:
293,213,60478,1,2,0:0:0:0:
256,216,60575,1,0,0:0:0:0:
235,206,60769,1,0,0:0:0:0:
258,213,60962,1,2,0:0:0:0:
258,213,61156,1,0,0:0:0:0:
246,181,61253,1,0,0:0:0:0:
248,163,61349,1,0,0:0:0:0:
256,216,61543,1,0,0:0:0:0:
246,222,61736,1,2,0:0:0:0:
281,229,61833,1,0,0:0:0:0:
298,211,61930,1,2,0:0:0:0:
273,201,62027,1,2,0:0:0:0:
246,220,62124,1,0,0:0:0:0:
301,211,62317,1,0,0:0:0:0:
245,161,62414,1,0,0:0:0:0:
251,245,62511,1,2,0:0:0:0:
281,229,62704,1,0,0:0:0:0:
252,245,62801,1,0,0:0:0:0:
253,245,62898,1,2,0:0:0:0:
256,238,62995,1,2,0:0:0:0:
258,222,63091,1,0,0:0:0:0:
258,227,63188,1,0,0:0:0:0:
258,220,63285,1,2,0:0:0:0:
258,220,63478,1,2,0:0:0:0:
233,179,63575,1,2,0:0:0:0:
260,220,63672,1,4,0:0:0:0:
316,174,69866,5,4,0:0:0:0:
269,179,70253,1,2,0:0:0:0:
260,200,70446,1,0,0:0:0:0:
264,163,70543,1,2,0:0:0:0:
264,163,70736,1,2,0:0:0:0:
278,188,70833,1,0,0:0:0:0:
264,163,71027,1,2,0:0:0:0:
268,195,71220,1,0,0:0:0:0:
320,179,71317,1,2,0:0:0:0:
264,163,71414,1,0,0:0:0:0:
290,138,71801,1,2,0:0:0:0:
295,176,71995,1,0,0:0:0:0:
264,163,72091,1,2,0:0:0:0:
264,163,72285,1,2,0:0:0:0:
281,168,72382,1,0,0:0:0:0:
321,193,72478,1,0,0:0:0:0:
264,163,72575,1,2,0:0:0:0:
271,193,72769,1,2,0:0:0:0:
292,168,72962,1,0,0:0:0:0:
292,174,73349,1,2,0:0:0:0:
291,172,73543,1,0,0:0:0:0:
292,168,73640,1,2,0:0:0:0:
292,168,73833,1,2,0:0:0:0:
292,168,73930,1,0,0:0:0:0:
292,174,74124,1,2,0:0:0:0:
301,168,74317,1,0,0:0:0:0:
301,165,74414,1,2,0:0:0:0:
291,172,74511,1,0,0:0:0:0:
292,168,74898,1,2,0:0:0:0:
290,166,75091,1,0,0:0:0:0:
299,164,75188,1,2,0:0:0:0:
299,167,75382,1,2,0:0:0:0:
299,167,75478,1,0,0:0:0:0:
299,167,75575,1,0,0:0:0:0:
300,167,75672,1,2,0:0:0:0:
304,167,75866,1,2,0:0:0:0:
304,165,75962,1,2,0:0:0:0:
308,163,76059,1,0,0:0:0:0:
269,179,76446,1,2,0:0:0:0:
260,200,76640,1,0,0:0:0:0:
264,163,76736,1,2,0:0:0:0:
264,163,76930,1,2,0:0:0:0:
278,188,77027,1,0,0:0:0:0:
264,163,77220,1,2,0:0:0:0:
249,188,77414,1,0,0:0:0:0:
254,190,77511,1,2,0:0:0:0:
264,163,77607,1,0,0:0:0:0:
290,138,77995,1,2,0:0:0:0:
295,176,78188,1,0,0:0:0:0:
264,163,78285,1,2,0:0:0:0:
264,163,78478,1,2,0:0:0:0:
281,168,78575,1,0,0:0:0:0:
321,193,78672,1,0,0:0:0:0:
264,163,78769,1,2,0:0:0:0:
264,154,78962,1,2,0:0:0:0:
292,168,79156,1,0,0:0:0:0:
292,174,79543,1,2,0:0:0:0:
291,172,79736,1,0,0:0:0:0:
292,168,79833,1,2,0:0:0:0:
292,168,80027,1,2,0:0:0:0:
292,168,80124,1,0,0:0:0:0:
292,174,80317,1,2,0:0:0:0:
264,153,80511,1,0,0:0:0:0:
264,152,80607,1,2,0:0:0:0:
291,172,80704,1,0,0:0:0:0:
292,168,81091,1,2,0:0:0:0:
290,166,81285,1,0,0:0:0:0:
299,164,81382,1,2,0:0:0:0:
299,167,81575,1,2,0:0:0:0:
299,167,81672,1,0,0:0:0:0:
299,167,81769,1,0,0:0:0:0:
300,167,81866,1,2,0:0:0:0:
304,167,82059,1,2,0:0:0:0:
304,165,82156,1,2,0:0:0:0:
308,163,82253,1,4,0:0:0:0:
228,177,82640,1,2,0:0:0:0:
226,177,82833,1,0,0:0:0:0:
222,190,83027,1,0,0:0:0:0:
233,190,83124,1,2,0:0:0:0:
228,184,83220,1,0,0:0:0:0:
241,199,83414,1,2,0:0:0:0:
230,193,83607,1,2,0:0:0:0:
210,179,83704,1,2,0:0:0:0:
241,200,83801,1,0,0:0:0:0:
241,200,83995,1,0,0:0:0:0:
241,200,84188,1,2,0:0:0:0:
230,193,84382,1,0,0:0:0:0:
241,199,84478,1,0,0:0:0:0:
240,196,84575,1,0,0:0:0:0:
265,219,84769,1,0,0:0:0:0:
265,217,84962,1,2,0:0:0:0:
263,218,85156,1,2,0:0:0:0:
260,200,85253,1,2,0:0:0:0:
254,203,85349,1,0,0:0:0:0:
251,202,85736,1,2,0:0:0:0:
250,194,85930,1,0,0:0:0:0:
196,161,86124,1,0,0:0:0:0:
222,190,86220,1,2,0:0:0:0:
250,194,86317,1,0,0:0:0:0:
250,194,86511,1,2,0:0:0:0:
244,176,86704,1,2,0:0:0:0:
230,179,86801,1,2,0:0:0:0:
250,194,86898,1,0,0:0:0:0:
252,161,87091,1,0,0:0:0:0:
250,194,87285,1,2,0:0:0:0:
250,194,87478,1,0,0:0:0:0:
250,194,87575,1,0,0:0:0:0:
270,190,87672,1,0,0:0:0:0:
250,194,87769,1,2,0:0:0:0:
250,194,87866,1,0,0:0:0:0:
250,194,88059,1,2,0:0:0:0:
250,194,88253,1,2,0:0:0:0:
188,197,88446,1,0,0:0:0:0:
228,177,88833,1,2,0:0:0:0:
226,177,89027,1,0,0:0:0:0:
222,190,89220,1,0,0:0:0:0:
233,190,89317,1,2,0:0:0:0:
228,184,89414,1,0,0:0:0:0:
241,199,89607,1,2,0:0:0:0:
230,193,89801,1,2,0:0:0:0:
232,184,89898,1,2,0:0:0:0:
241,200,89995,1,0,0:0:0:0:
232,184,90188,1,0,0:0:0:0:
241,200,90382,1,2,0:0:0:0:
230,193,90575,1,0,0:0:0:0:
241,199,90672,1,0,0:0:0:0:
267,220,90769,1,0,0:0:0:0:
265,219,90962,1,0,0:0:0:0:
265,217,91156,1,2,0:0:0:0:
263,218,91349,1,2,0:0:0:0:
260,200,91446,1,2,0:0:0:0:
254,203,91543,1,0,0:0:0:0:
251,202,91930,1,2,0:0:0:0:
250,194,92124,1,0,0:0:0:0:
196,161,92317,1,0,0:0:0:0:
222,190,92414,1,2,0:0:0:0:
250,194,92511,1,0,0:0:0:0:
250,194,92704,1,2,0:0:0:0:
244,176,92898,1,2,0:0:0:0:
230,179,92995,1,2,0:0:0:0:
250,194,93091,1,0,0:0:0:0:
252,161,93285,1,0,0:0:0:0:
250,194,93478,1,2,0:0:0:0:
250,194,93672,1,0,0:0:0:0:
250,194,93769,1,0,0:0:0:0:
220,184,93866,1,0,0:0:0:0:
250,194,93962,1,2,0:0:0:0:
250,194,94059,1,0,0:0:0:0:
250,194,94253,1,2,0:0:0:0:
250,194,94446,1,2,0:0:0:0:
188,197,94640,1,4,0:0:0:0:
228,177,95027,1,2,0:0:0:0:
226,177,95220,1,0,0:0:0:0:
222,190,95414,1,0,0:0:0:0:
233,190,95511,1,2,0:0:0:0:
228,184,95607,1,0,0:0:0:0:
241,199,95801,1,2,0:0:0:0:
230,193,95995,1,2,0:0:0:0:
210,179,96091,1,2,0:0:0:0:
241,200,96188,1,0,0:0:0:0:
241,200,96382,1,0,0:0:0:0:
241,200,96575,1,2,0:0:0:0:
205,187,96672,1,2,0:0:0:0:
230,193,96769,1,0,0:0:0:0:
241,199,96866,1,0,0:0:0:0:
205,186,96962,1,2,0:0:0:0:
265,219,97156,1,0,0:0:0:0:
265,217,97349,1,2,0:0:0:0:
263,218,97543,1,2,0:0:0:0:
260,200,97640,1,2,0:0:0:0:
254,203,97736,1,0,0:0:0:0:
249,177,97930,1,0,0:0:0:0:
253,188,98027,1,0,0:0:0:0:
251,202,98124,1,2,0:0:0:0:
250,194,98317,1,0,0:0:0:0:
196,161,98511,1,0,0:0:0:0:
222,190,98607,1,2,0:0:0:0:
250,194,98704,1,0,0:0:0:0:
250,194,98898,1,2,0:0:0:0:
244,176,99091,1,2,0:0:0:0:
230,179,99188,1,2,0:0:0:0:
250,194,99285,1,0,0:0:0:0:
252,161,99478,1,0,0:0:0:0:
250,194,99672,1,2,0:0:0:0:
205,200,99769,1,2,0:0:0:0:
250,194,99866,1,0,0:0:0:0:
250,194,99962,1,0,0:0:0:0:
205,202,100059,1,2,0:0:0:0:
250,194,100156,1,2,0:0:0:0:
250,194,100253,1,0,0:0:0:0:
250,194,100446,1,2,0:0:0:0:
250,194,100640,1,2,0:0:0:0:
188,197,100833,1,0,0:0:0:0:
228,177,101220,1,2,0:0:0:0:
226,177,101414,1,0,0:0:0:0:
222,190,101607,1,0,0:0:0:0:
233,190,101704,1,2,0:0:0:0:
228,184,101801,1,0,0:0:0:0:
241,199,101995,1,2,0:0:0:0:
230,193,102188,1,2,0:0:0:0:
232,184,102285,1,2,0:0:0:0:
241,200,102382,1,0,0:0:0:0:
232,184,102575,1,0,0:0:0:0:
241,200,102769,1,2,0:0:0:0:
205,202,102866,1,2,0:0:0:0:
230,193,102962,1,0,0:0:0:0:
241,199,103059,1,0,0:0:0:0:
212,204,103156,1,2,0:0:0:0:
265,219,103349,1,0,0:0:0:0:
265,217,103543,1,2,0:0:0:0:
263,218,103736,1,2,0:0:0:0:
260,200,103833,1,2,0:0:0:0:
254,203,103930,1,0,0:0:0:0:
253,188,104124,1,0,0:0:0:0:
228,188,104220,1,0,0:0:0:0:
251,202,104317,1,2,0:0:0:0:
250,194,104511,1,0,0:0:0:0:
196,161,104704,1,0,0:0:0:0:
222,190,104801,1,2,0:0:0:0:
250,194,104898,1,0,0:0:0:0:
250,194,105091,1,2,0:0:0:0:
244,176,105285,1,2,0:0:0:0:
230,179,105382,1,2,0:0:0:0:
250,194,105478,1,0,0:0:0:0:
252,161,105672,1,0,0:0:0:0:
250,194,105866,1,2,0:0:0:0:
212,204,105962,1,2,0:0:0:0:
250,194,106059,1,0,0:0:0:0:
250,194,106156,1,0,0:0:0:0:
212,204,106253,1,2,0:0:0:0:
250,194,106349,1,2,0:0:0:0:
250,194,106446,1,0,0:0:0:0:
250,194,106640,1,2,0:0:0:0:
250,194,106833,1,2,0:0:0:0:
188,197,107027,1,4,0:0:0:0:
