osu file format v14

[General]
AudioFilename: audio.ogg
AudioLeadIn: 0
PreviewTime: 38849
Countdown: 0
SampleSet: Normal
StackLeniency: 0.7
Mode: 1
LetterboxInBreaks: 0
WidescreenStoryboard: 1

[Editor]
Bookmarks: 45093,51287,57480,94642,107029
DistanceSpacing: 1
BeatDivisor: 4
GridSize: 32
TimelineZoom: 1.3

[Metadata]
Title:meme
TitleUnicode:meme
Artist:Zektbach
ArtistUnicode:Zektbach
Creator:Miyoi
Version:Futsuu
Source:REFLEC BEAT limelight
Tags:Midnaait Reficul yassu- Electronic Video Game Instrumental Tomosuke Funaki 舟木智介 ORIGINAL SOUNDTRACK EXTRA OST plus +
BeatmapID:3822919
BeatmapSetID:1858021

[Difficulty]
HPDrainRate:7.7
CircleSize:2
OverallDifficulty:3.3
ApproachRate:9
SliderMultiplier:1.4
SliderTickRate:1

[Events]
//Background and Video events
0,0,"memebg.jpg",0,0
//Break Periods
2,63872,69266
//Storyboard Layer 0 (Background)
//Storyboard Layer 1 (Fail)
//Storyboard Layer 2 (Pass)
//Storyboard Layer 3 (Foreground)
//Storyboard Layer 4 (Overlay)
//Storyboard Sound Samples

[TimingPoints]
189,387.096774193548,4,1,0,60,1,8
1737,387.096774193548,4,1,0,60,1,0
12572,-100,4,1,0,72,0,0
38898,-100,4,1,0,85,0,1
63672,-100,4,1,0,85,0,0
65124,-100,4,1,0,80,0,0
94640,-100,4,1,0,85,0,1
107027,-100,4,1,0,85,0,0

[HitObjects]
254,149,1737,5,4,0:0:0:0:
254,149,2511,1,0,0:0:0:0:
254,149,3285,1,8,0:0:0:0:
254,149,4059,1,8,0:0:0:0:
254,149,4833,1,0,0:0:0:0:
254,149,5607,1,0,0:0:0:0:
254,149,6382,1,8,0:0:0:0:
254,149,7930,1,0,0:0:0:0:
254,149,8704,1,8,0:0:0:0:
254,149,9478,1,0,0:0:0:0:
254,149,10253,1,0,0:0:0:0:
254,149,11027,1,8,0:0:0:0:
243,148,11801,1,8,0:0:0:0:
243,148,12575,1,0,0:0:0:0:
243,148,12962,1,8,0:0:0:0:
243,148,13253,1,0,0:0:0:0:
243,148,13543,1,0,0:0:0:0:
243,148,13736,1,8,0:0:0:0:
243,148,14124,1,4,0:0:0:0:
243,148,14511,1,8,0:0:0:0:
243,148,14704,1,0,0:0:0:0:
243,148,15285,1,8,0:0:0:0:
243,148,15478,1,8,0:0:0:0:
243,148,15672,1,0,0:0:0:0:
243,148,16059,1,8,0:0:0:0:
243,148,16253,1,0,0:0:0:0:
243,148,16640,1,0,0:0:0:0:
243,148,16833,1,8,0:0:0:0:
243,148,17027,1,8,0:0:0:0:
243,148,17220,1,0,0:0:0:0:
227,177,17607,1,8,0:0:0:0:
227,177,18382,1,8,0:0:0:0:
230,176,18769,1,0,0:0:0:0:
230,174,19156,1,8,0:0:0:0:
243,185,19349,1,0,0:0:0:0:
224,171,19736,1,0,0:0:0:0:
230,174,19930,1,8,0:0:0:0:
227,177,20317,1,0,0:0:0:0:
224,185,20704,1,8,0:0:0:0:
226,165,20898,1,0,0:0:0:0:
219,165,21478,1,8,0:0:0:0:
219,165,21672,1,8,0:0:0:0:
226,165,21866,1,0,0:0:0:0:
219,165,22253,1,8,0:0:0:0:
219,165,22446,1,0,0:0:0:0:
226,165,22833,1,0,0:0:0:0:
219,165,23027,1,8,0:0:0:0:
219,165,23220,1,8,0:0:0:0:
219,165,23414,1,0,0:0:0:0:
226,165,23801,1,8,0:0:0:0:
226,165,24575,1,8,0:0:0:0:
219,165,24962,1,0,0:0:0:0:
226,165,25349,1,8,0:0:0:0:
219,165,25543,1,0,0:0:0:0:
219,165,25736,1,8,0:0:0:0:
215,164,25930,1,0,0:0:0:0:
217,165,26124,1,8,0:0:0:0:
217,165,26511,1,0,0:0:0:0:
239,166,26898,1,8,0:0:0:0:
222,170,27091,1,0,0:0:0:0:
220,170,27672,1,8,0:0:0:0:
220,170,27866,1,8,0:0:0:0:
222,170,28059,1,0,0:0:0:0:
217,165,28446,1,8,0:0:0:0:
214,165,28640,1,8,0:0:0:0:
214,165,28833,1,0,0:0:0:0:
214,165,29027,1,0,0:0:0:0:
217,165,29220,1,8,0:0:0:0:
214,165,29607,1,0,0:0:0:0:
214,165,29995,1,8,0:0:0:0:
214,165,30769,1,8,0:0:0:0:
214,165,31156,1,0,0:0:0:0:
214,165,31349,1,0,0:0:0:0:
214,165,31543,1,8,0:0:0:0:
214,165,31736,1,0,0:0:0:0:
214,165,32124,1,0,0:0:0:0:
214,165,32317,1,8,0:0:0:0:
214,165,32704,1,0,0:0:0:0:
214,165,33091,1,8,0:0:0:0:
214,165,33285,1,0,0:0:0:0:
214,165,33866,1,8,0:0:0:0:
214,165,34059,1,8,0:0:0:0:
214,165,34253,1,0,0:0:0:0:
214,165,34640,1,8,0:0:0:0:
214,165,34833,1,0,0:0:0:0:
214,165,35027,1,0,0:0:0:0:
214,165,35220,1,0,0:0:0:0:
214,165,35414,1,8,0:0:0:0:
214,165,35801,1,0,0:0:0:0:
214,165,36188,1,8,0:0:0:0:
214,165,36962,1,8,0:0:0:0:
214,165,37349,1,0,0:0:0:0:
228,172,37543,1,0,0:0:0:0:
202,167,37736,1,8,0:0:0:0:
202,169,37930,1,0,0:0:0:0:
206,172,38317,1,0,0:0:0:0:
206,172,38511,1,8,0:0:0:0:
202,169,38898,1,4,0:0:0:0:
222,184,39285,1,8,0:0:0:0:
222,184,40059,1,8,0:0:0:0:
218,182,40446,1,0,0:0:0:0:
202,183,40833,1,8,0:0:0:0:
202,183,41027,1,8,0:0:0:0:
202,183,41220,1,0,0:0:0:0:
205,182,41414,1,0,0:0:0:0:
209,178,41607,1,8,0:0:0:0:
212,176,41995,1,0,0:0:0:0:
212,176,42382,1,8,0:0:0:0:
218,182,42575,1,0,0:0:0:0:
210,183,42962,1,0,0:0:0:0:
212,176,43156,1,8,0:0:0:0:
209,178,43543,1,0,0:0:0:0:
209,178,43736,1,0,0:0:0:0:
212,176,43930,1,8,0:0:0:0:
212,176,44124,1,8,0:0:0:0:
209,178,44317,1,0,0:0:0:0:
212,176,44704,1,8,0:0:0:0:
212,176,45091,1,0,0:0:0:0:
209,178,45478,1,8,0:0:0:0:
209,178,46253,1,8,0:0:0:0:
212,176,46640,1,0,0:0:0:0:
212,176,47027,1,8,0:0:0:0:
209,178,47220,1,0,0:0:0:0:
212,176,47414,1,0,0:0:0:0:
212,176,47607,1,0,0:0:0:0:
212,176,47801,1,8,0:0:0:0:
209,178,48188,1,0,0:0:0:0:
212,176,48575,1,8,0:0:0:0:
228,186,48769,1,0,0:0:0:0:
212,169,49156,1,0,0:0:0:0:
212,176,49349,1,8,0:0:0:0:
212,176,49736,1,0,0:0:0:0:
209,178,49930,1,8,0:0:0:0:
209,178,50124,1,8,0:0:0:0:
212,176,50317,1,8,0:0:0:0:
212,176,50511,1,0,0:0:0:0:
209,178,50898,1,8,0:0:0:0:
212,176,51285,1,0,0:0:0:0:
199,164,51672,1,8,0:0:0:0:
199,164,52446,1,8,0:0:0:0:
198,161,52833,1,0,0:0:0:0:
199,164,53027,1,0,0:0:0:0:
199,164,53220,1,8,0:0:0:0:
199,164,53414,1,0,0:0:0:0:
198,161,53801,1,0,0:0:0:0:
199,164,53995,1,8,0:0:0:0:
199,164,54188,1,8,0:0:0:0:
199,164,54382,1,0,0:0:0:0:
198,161,54769,1,8,0:0:0:0:
196,147,54962,1,0,0:0:0:0:
208,169,55349,1,0,0:0:0:0:
198,161,55543,1,8,0:0:0:0:
199,164,55930,1,0,0:0:0:0:
199,164,56124,1,0,0:0:0:0:
199,164,56317,1,8,0:0:0:0:
199,164,56704,1,8,0:0:0:0:
199,164,56898,1,0,0:0:0:0:
199,164,57091,1,8,0:0:0:0:
199,164,57285,1,8,0:0:0:0:
198,161,57478,1,0,0:0:0:0:
199,164,57866,1,8,0:0:0:0:
199,164,58640,1,8,0:0:0:0:
199,164,59027,1,0,0:0:0:0:
199,164,59220,1,0,0:0:0:0:
199,164,59414,1,8,0:0:0:0:
199,164,59607,1,0,0:0:0:0:
199,164,59995,1,0,0:0:0:0:
199,164,60188,1,8,0:0:0:0:
199,164,60382,1,8,0:0:0:0:
199,164,60575,1,0,0:0:0:0:
199,164,60962,1,8,0:0:0:0:
185,168,61156,1,0,0:0:0:0:
199,164,61543,1,0,0:0:0:0:
199,164,61736,1,8,0:0:0:0:
199,164,62124,1,0,0:0:0:0:
199,164,62317,1,0,0:0:0:0:
199,164,62511,1,8,0:0:0:0:
209,161,62704,1,8,0:0:0:0:
209,161,62898,1,0,0:0:0:0:
225,169,63285,1,8,0:0:0:0:
237,174,63672,1,4,0:0:0:0:
210,152,69866,5,4,0:0:0:0:
204,161,70253,1,8,0:0:0:0:
204,161,71027,1,8,0:0:0:0:
201,161,71414,1,0,0:0:0:0:
201,161,71801,1,8,0:0:0:0:
201,161,72382,1,0,0:0:0:0:
201,161,72575,1,8,0:0:0:0:
204,161,72962,1,0,0:0:0:0:
201,161,73349,1,8,0:0:0:0:
204,161,73543,1,0,0:0:0:0:
204,161,73930,1,0,0:0:0:0:
201,161,74124,1,8,0:0:0:0:
201,161,74511,1,0,0:0:0:0:
204,161,74898,1,8,0:0:0:0:
201,161,75091,1,0,0:0:0:0:
204,161,75285,1,0,0:0:0:0:
201,161,75478,1,0,0:0:0:0:
204,161,75672,1,8,0:0:0:0:
201,161,76059,1,0,0:0:0:0:
229,171,76446,1,8,0:0:0:0:
217,160,77220,1,8,0:0:0:0:
217,160,77607,1,0,0:0:0:0:
217,160,77995,1,8,0:0:0:0:
217,160,78575,1,0,0:0:0:0:
217,160,78769,1,8,0:0:0:0:
217,160,79156,1,0,0:0:0:0:
217,160,79543,1,8,0:0:0:0:
217,160,79736,1,0,0:0:0:0:
190,157,80124,1,0,0:0:0:0:
217,160,80317,1,8,0:0:0:0:
217,160,80704,1,0,0:0:0:0:
217,160,81091,1,8,0:0:0:0:
217,160,81285,1,0,0:0:0:0:
229,160,81478,1,0,0:0:0:0:
229,160,81672,1,0,0:0:0:0:
229,160,81866,1,8,0:0:0:0:
230,164,82253,1,4,0:0:0:0:
229,160,82640,1,8,0:0:0:0:
229,160,83414,1,8,0:0:0:0:
229,160,83607,1,8,0:0:0:0:
229,160,83801,1,0,0:0:0:0:
229,160,84188,1,8,0:0:0:0:
229,160,84382,1,0,0:0:0:0:
229,160,84769,1,0,0:0:0:0:
229,160,84962,1,8,0:0:0:0:
229,160,85156,1,8,0:0:0:0:
229,160,85349,1,0,0:0:0:0:
229,160,85736,1,8,0:0:0:0:
234,164,86124,1,0,0:0:0:0:
229,160,86317,1,0,0:0:0:0:
229,160,86511,1,8,0:0:0:0:
229,160,86898,1,0,0:0:0:0:
229,160,87285,1,8,0:0:0:0:
229,160,87478,1,0,0:0:0:0:
229,160,87866,1,0,0:0:0:0:
229,160,88059,1,8,0:0:0:0:
229,160,88253,1,0,0:0:0:0:
229,160,88446,1,0,0:0:0:0:
229,160,88833,1,8,0:0:0:0:
229,160,89607,1,8,0:0:0:0:
229,160,89801,1,8,0:0:0:0:
229,160,89995,1,0,0:0:0:0:
229,160,90382,1,8,0:0:0:0:
229,160,90575,1,0,0:0:0:0:
229,160,90962,1,0,0:0:0:0:
229,160,91156,1,8,0:0:0:0:
229,160,91349,1,8,0:0:0:0:
229,160,91543,1,0,0:0:0:0:
229,160,91930,1,8,0:0:0:0:
229,160,92317,1,0,0:0:0:0:
229,160,92511,1,0,0:0:0:0:
229,160,92704,1,8,0:0:0:0:
229,160,93091,1,0,0:0:0:0:
229,160,93478,1,8,0:0:0:0:
229,160,93672,1,8,0:0:0:0:
194,148,93866,1,0,0:0:0:0:
229,160,94059,1,0,0:0:0:0:
229,160,94253,1,8,0:0:0:0:
229,160,94640,1,4,0:0:0:0:
222,160,95027,1,8,0:0:0:0:
222,160,95801,1,8,0:0:0:0:
222,160,96188,1,0,0:0:0:0:
222,160,96575,1,8,0:0:0:0:
222,160,96769,1,8,0:0:0:0:
222,160,96962,1,0,0:0:0:0:
222,160,97156,1,0,0:0:0:0:
222,160,97349,1,8,0:0:0:0:
222,160,97736,1,0,0:0:0:0:
222,160,98124,1,8,0:0:0:0:
222,160,98704,1,0,0:0:0:0:
222,160,98898,1,8,0:0:0:0:
222,160,99285,1,0,0:0:0:0:
166,154,99478,1,0,0:0:0:0:
222,160,99672,1,8,0:0:0:0:
222,160,99866,1,8,0:0:0:0:
229,163,100059,1,0,0:0:0:0:
229,163,100446,1,8,0:0:0:0:
229,163,100640,1,0,0:0:0:0:
229,163,100833,1,0,0:0:0:0:
229,163,101220,1,8,0:0:0:0:
229,163,101995,1,8,0:0:0:0:
229,163,102382,1,0,0:0:0:0:
229,163,102769,1,8,0:0:0:0:
229,163,102962,1,8,0:0:0:0:
229,163,103156,1,0,0:0:0:0:
229,163,103349,1,0,0:0:0:0:
229,163,103543,1,8,0:0:0:0:
229,163,103930,1,0,0:0:0:0:
229,163,104317,1,8,0:0:0:0:
220,161,104511,1,0,0:0:0:0:
229,163,104898,1,0,0:0:0:0:
229,163,105091,1,8,0:0:0:0:
229,163,105478,1,0,0:0:0:0:
229,163,105672,1,0,0:0:0:0:
229,163,105866,1,8,0:0:0:0:
229,163,106059,1,8,0:0:0:0:
229,163,106253,1,0,0:0:0:0:
229,163,106640,1,8,0:0:0:0:
229,163,107027,1,4,0:0:0:0:
