osu file format v14

[General]
AudioFilename: audio.mp3
AudioLeadIn: 0
PreviewTime: 39163
Countdown: 0
SampleSet: Soft
StackLeniency: 0.7
Mode: 0
LetterboxInBreaks: 0
WidescreenStoryboard: 1

[Editor]
DistanceSpacing: 1
BeatDivisor: 4
GridSize: 32
TimelineZoom: 4.799997

[Metadata]
Title:Turii ~Panta rhei~
TitleUnicode:Turii ~Panta rhei~
Artist:Zektbach
ArtistUnicode:Zektbach
Creator:celerih
Version:Muya's Another
Source:beatmania IIDX 16 EMPRESS
Tags:Muya Realazy JBHyperion ゼクトバッハ iidx16 tomosuke funaki 舟木智介 maya takamura 高村真耶 Akiko Shikata 志方あきこ elemental chant malchut REFLEC BEAT
BeatmapID:1731136
BeatmapSetID:800638

[Difficulty]
HPDrainRate:8
CircleSize:5
OverallDifficulty:9
ApproachRate:9
SliderMultiplier:1.8
SliderTickRate:1

[Events]
//Background and Video events
0,0,"Turii BG.jpg",0,0
//Break Periods
//Storyboard Layer 0 (Background)
//Storyboard Layer 1 (Fail)
//Storyboard Layer 2 (Pass)
//Storyboard Layer 3 (Foreground)
//Storyboard Sound Samples

[TimingPoints]
447,405.405405405405,4,2,0,50,1,0
447,-100,4,2,1,60,0,0
2068,-100,4,2,1,50,0,0
3690,-100,4,3,1,60,0,0
3892,-100,4,3,1,40,0,0
4501,-100,4,3,1,40,0,0
5311,-100,4,2,1,60,0,0
6933,-100,4,3,1,60,0,0
7136,-100,4,2,2,60,0,0
9365,-100,4,2,2,70,0,0
10176,-100,4,2,2,60,0,0
12609,-100,4,2,2,70,0,0
13419,-100,4,2,2,60,0,0
15852,-100,4,2,2,70,0,0
16662,-100,4,2,2,60,0,0
19095,-100,4,2,2,70,0,0
19906,-100,4,2,1,50,0,0
20109,-100,4,2,1,20,0,0
21528,-100,4,2,10,40,0,0
21730,-100,4,2,1,20,0,0
23149,-100,4,3,1,40,0,0
23351,-100,4,2,1,20,0,0
24771,-100,4,2,10,40,0,0
24973,-100,4,2,1,20,0,0
25176,-1000,4,2,1,50,0,0
26392,-100,4,2,1,50,0,0
26798,-100,4,2,10,25,0,0
27001,-100,4,2,1,40,0,0
28014,-100,4,2,10,40,0,0
28216,-100,4,2,1,30,0,0
28419,-100,4,2,10,25,0,0
28622,-100,4,2,1,30,0,0
28825,-100,4,2,10,25,0,0
29028,-100,4,2,1,40,0,0
29332,-100,4,2,1,35,0,0
29433,-100,4,2,1,30,0,0
29534,-100,4,2,1,25,0,0
29636,-100,4,3,1,50,0,0
29838,-100,4,2,1,20,0,0
30852,-100,4,2,1,50,0,0
31257,-1000,4,2,10,40,0,0
32879,-100,4,3,2,60,0,0
32980,-100,4,3,2,40,0,0
33284,-100,4,3,2,41,0,0
33690,-100,4,3,2,42,0,0
34095,-100,4,3,2,43,0,0
34501,-100,4,3,2,60,0,0
34602,-100,4,3,2,44,0,0
34906,-100,4,3,2,45,0,0
35311,-100,4,3,2,60,0,0
35413,-100,4,3,2,46,0,0
35717,-100,4,3,2,60,0,0
36224,-100,4,3,2,50,0,0
36528,-100,4,3,2,52,0,0
36933,-100,4,3,2,55,0,0
37338,-100,4,3,2,58,0,0
37744,-100,4,3,2,60,0,0
38149,-100,4,3,2,65,0,0
38555,-100,4,3,2,70,0,0
39365,-100,4,2,3,60,0,0
65311,-100,4,3,2,70,0,0
65413,-100,4,3,3,60,0,0
68555,-100,4,3,10,60,0,0
68656,-100,4,3,3,60,0,0
68960,-100,4,3,10,60,0,0
69061,-100,4,3,3,60,0,0
71392,-100,4,3,10,60,0,0
71494,-100,4,3,3,60,0,0
71798,-100,4,3,2,70,0,0
71900,-100,4,3,3,60,0,0
75041,-100,4,3,10,60,0,0
75142,-100,4,3,3,60,0,0
75446,-100,4,3,10,60,0,0
75547,-100,4,3,3,60,0,0
78284,-100,4,3,2,70,0,0
78386,-100,4,3,3,60,0,0
81122,-100,4,2,3,70,0,0
81528,-100,4,3,2,70,0,0
81630,-100,4,3,3,60,0,0
84771,-200,4,2,1,60,0,0
92372,-200,4,2,1,10,0,0
92474,-200,4,2,1,60,0,0
96528,-1000,4,2,1,50,0,0
97744,-100,4,2,1,70,0,0
97946,-100,4,2,3,70,0,0
110717,-100,4,2,1,50,0,0
112338,-100,4,3,10,40,0,0
112439,-100,4,2,1,20,0,0
112946,-100,4,2,1,40,0,0
113149,-100,4,2,10,40,0,0
113351,-100,4,2,1,50,0,0
115582,-100,4,3,10,40,0,0
115683,-100,4,2,1,20,0,0
116190,-100,4,2,1,40,0,0
116392,-100,4,2,1,50,0,0
117203,-100,4,2,1,50,0,0
118825,-100,4,3,10,40,0,0
118926,-100,4,2,1,20,0,0
119433,-100,4,2,1,40,0,0
119636,-100,4,2,10,40,0,0
119838,-100,4,2,1,50,0,0
120446,-100,4,2,3,70,0,0
120649,-100,4,2,1,50,0,0
122068,-100,4,3,10,40,0,0
122169,-100,4,2,1,20,0,0
122676,-100,4,2,1,40,0,0
122878,-100,4,2,1,50,0,0
123690,-100,4,2,3,70,0,0
124095,-100,4,2,1,60,0,0
124501,-100,4,2,1,50,0,0
124906,-100,4,2,1,40,0,0
125311,-100,4,2,1,30,0,0
125717,-100,4,2,1,20,0,0
126122,-100,4,2,1,10,0,0
126528,-100,4,2,1,5,0,0

[Colours]
Combo1 : 243,243,107
Combo2 : 228,149,122
Combo3 : 152,218,152

[HitObjects]
104,120,447,5,4,0:0:0:0:
176,68,649,1,0,0:0:0:0:
132,224,852,1,0,0:0:0:0:
24,36,1055,1,8,0:0:0:0:
400,48,1460,1,0,0:0:0:0:
424,264,1663,1,0,0:0:0:0:
296,92,1865,1,0,0:0:0:0:
512,76,2068,5,2,0:0:0:0:
508,168,2271,1,0,0:0:0:0:
356,224,2474,1,0,0:0:0:0:
365,3,2677,1,8,0:0:0:0:
512,292,3082,1,0,0:0:0:0:
428,260,3284,1,8,0:0:0:0:
376,336,3487,1,2,0:0:0:0:
292,304,3690,6,0,B|276:264|276:264|292:220,1,90,4|0,0:0|0:0,0:0:0:0:
220,80,4095,2,0,B|236:120|236:120|220:164,1,90,0|0,0:0|0:0,0:0:0:0:
412,120,4501,2,0,L|316:124,1,90,2|0,0:0|0:0,0:0:0:0:
100,264,4906,2,0,L|196:260,1,90,0|0,0:0|0:0,0:0:0:0:
224,368,5311,5,8,0:0:0:0:
256,192,5717,1,0,0:0:0:0:
288,16,6122,1,2,0:0:0:0:
336,256,6528,1,0,0:0:0:0:
32,32,6933,5,4,0:0:0:0:
12,88,7068,1,0,0:0:0:0:
32,144,7203,1,0,0:0:0:0:
84,176,7338,1,8,0:0:0:0:
144,164,7474,1,0,0:0:0:0:
188,124,7609,1,0,0:0:0:0:
248,112,7745,1,10,0:0:0:0:
300,144,7880,1,0,0:0:0:0:
320,200,8015,1,0,0:0:0:0:
300,256,8150,1,8,0:0:0:0:
248,288,8284,1,0,0:0:0:0:
188,276,8419,1,0,0:0:0:0:
152,228,8555,6,0,L|224:220,1,60,12|0,0:0|0:0,0:0:0:0:
360,156,8825,1,0,0:0:0:0:
360,156,8960,2,0,L|288:148,1,60,8|0,0:0|0:0,0:0:0:0:
108,40,9230,1,0,0:0:0:0:
108,40,9366,1,10,0:0:0:0:
316,31,9501,1,0,0:0:0:0:
219,215,9636,1,0,0:0:0:0:
152,84,9771,1,8,0:0:0:0:
256,48,9907,1,0,0:0:0:0:
235,156,10041,1,0,0:0:0:0:
501,224,10176,5,8,0:0:0:0:
448,192,10311,1,0,0:0:0:0:
388,192,10446,1,0,0:0:0:0:
332,216,10582,1,8,0:0:0:0:
296,264,10717,1,0,0:0:0:0:
240,288,10853,1,0,0:0:0:0:
180,288,10988,1,10,0:0:0:0:
127,256,11123,1,0,0:0:0:0:
92,208,11257,1,0,0:0:0:0:
80,148,11392,1,8,0:0:0:0:
92,88,11528,1,0,0:0:0:0:
124,36,11663,1,0,0:0:0:0:
176,4,11798,6,0,L|236:8,1,60,12|0,0:0|0:0,0:0:0:0:
360,112,12068,1,0,0:0:0:0:
360,112,12203,2,0,L|300:116,1,60,8|0,0:0|0:0,0:0:0:0:
160,204,12474,1,0,0:0:0:0:
160,204,12609,1,10,0:0:0:0:
368,280,12744,1,0,0:0:0:0:
208,368,12879,1,0,0:0:0:0:
304,192,13014,1,8,0:0:0:0:
208,272,13149,1,0,0:0:0:0:
296,336,13284,1,0,0:0:0:0:
472,192,13419,5,8,0:0:0:0:
412,176,13555,1,0,0:0:0:0:
352,188,13690,1,0,0:0:0:0:
314,238,13825,1,8,0:0:0:0:
314,238,13960,1,0,0:0:0:0:
314,238,14095,1,0,0:0:0:0:
276,288,14230,1,10,0:0:0:0:
216,304,14366,1,0,0:0:0:0:
156,292,14501,1,0,0:0:0:0:
118,254,14636,1,8,0:0:0:0:
118,254,14771,1,0,0:0:0:0:
118,254,14906,1,0,0:0:0:0:
32,192,15041,6,0,L|40:128,1,60,12|0,0:0|0:0,0:0:0:0:
152,24,15311,1,0,0:0:0:0:
152,24,15446,2,0,L|160:88,1,60,8|0,0:0|0:0,0:0:0:0:
260,288,15717,1,0,0:0:0:0:
260,288,15853,1,10,0:0:0:0:
452,367,15988,1,0,0:0:0:0:
424,161,16123,1,0,0:0:0:0:
316,261,16258,1,8,0:0:0:0:
401,331,16392,1,0,0:0:0:0:
419,222,16528,1,0,0:0:0:0:
204,364,16663,5,8,0:0:0:0:
184,308,16798,1,0,0:0:0:0:
192,248,16933,1,0,0:0:0:0:
234,206,17068,1,8,0:0:0:0:
234,206,17203,1,0,0:0:0:0:
234,206,17338,1,0,0:0:0:0:
290,182,17474,1,10,0:0:0:0:
326,134,17609,1,0,0:0:0:0:
334,74,17744,1,0,0:0:0:0:
320,24,17879,1,8,0:0:0:0:
320,24,18014,1,0,0:0:0:0:
320,24,18149,1,0,0:0:0:0:
184,76,18284,6,0,L|192:136,1,60,12|0,0:0|0:0,0:0:0:0:
324,164,18555,1,0,0:0:0:0:
324,164,18690,2,0,L|316:224,1,60,8|0,0:0|0:0,0:0:0:0:
232,364,18960,1,0,0:0:0:0:
232,364,19095,1,10,0:0:0:0:
384,204,19230,1,0,0:0:0:0:
204,196,19365,1,0,0:0:0:0:
348,332,19500,1,8,0:0:0:0:
224,268,19636,1,0,0:0:0:0:
320,196,19771,1,0,0:0:0:0:
496,304,19906,5,4,0:0:0:0:
256,32,20717,1,0,0:0:0:0:
64,352,21528,5,4,0:0:0:0:
384,192,22338,1,0,0:0:0:0:
96,0,23149,5,4,0:0:0:0:
256,288,24365,1,2,0:0:0:0:
256,288,24771,5,4,0:0:0:0:
408,28,25176,2,0,L|412:80,1,49.5,0|0,0:0|0:0,0:0:0:0:
468,116,26392,5,2,0:0:0:0:
204,360,27203,1,8,0:0:0:0:
64,28,28014,5,4,0:0:0:0:
512,332,29230,1,2,0:0:0:0:
416,32,29636,5,4,0:0:0:0:
256,352,30852,1,2,0:0:0:0:
288,84,31257,6,0,L|356:80,1,67.5,4|0,0:0|0:0,0:0:0:0:
404,32,32879,5,4,0:0:0:0:
420,28,32980,1,0,0:0:0:0:
436,24,33082,1,0,0:0:0:0:
452,20,33183,1,0,0:0:0:0:
468,16,33284,1,0,0:0:0:0:
496,40,33386,1,0,0:0:0:0:
504,76,33487,1,0,0:0:0:0:
496,112,33588,1,0,0:0:0:0:
472,140,33690,1,2,0:0:0:0:
456,136,33791,1,0,0:0:0:0:
440,132,33893,1,0,0:0:0:0:
424,128,33994,1,0,0:0:0:0:
408,124,34095,1,2,0:0:0:0:
380,148,34197,1,0,0:0:0:0:
372,184,34298,1,0,0:0:0:0:
380,220,34399,1,0,0:0:0:0:
404,248,34501,5,4,0:0:0:0:
420,244,34602,1,0,0:0:0:0:
436,240,34704,1,0,0:0:0:0:
452,236,34805,1,0,0:0:0:0:
468,232,34906,1,2,0:0:0:0:
496,256,35008,1,0,0:0:0:0:
504,292,35109,1,0,0:0:0:0:
496,328,35210,1,0,0:0:0:0:
472,356,35312,1,4,0:0:0:0:
428,344,35413,1,0,0:0:0:0:
384,344,35514,1,0,0:0:0:0:
340,356,35615,1,0,0:0:0:0:
304,384,35717,1,4,0:0:0:0:
108,32,36122,5,4,0:0:0:0:
92,28,36223,1,0,0:0:0:0:
76,24,36325,1,0,0:0:0:0:
60,20,36426,1,0,0:0:0:0:
44,16,36527,1,0,0:0:0:0:
16,40,36629,1,0,0:0:0:0:
8,76,36730,1,0,0:0:0:0:
16,112,36831,1,0,0:0:0:0:
40,140,36933,1,2,0:0:0:0:
56,136,37034,1,0,0:0:0:0:
72,132,37136,1,0,0:0:0:0:
88,128,37237,1,0,0:0:0:0:
104,124,37338,1,2,0:0:0:0:
132,148,37440,1,0,0:0:0:0:
140,184,37541,1,0,0:0:0:0:
132,220,37642,1,0,0:0:0:0:
108,248,37744,5,4,0:0:0:0:
92,244,37845,1,0,0:0:0:0:
76,240,37947,1,0,0:0:0:0:
60,236,38048,1,0,0:0:0:0:
44,232,38149,1,2,0:0:0:0:
16,256,38251,1,0,0:0:0:0:
8,292,38352,1,0,0:0:0:0:
16,328,38453,1,0,0:0:0:0:
40,356,38555,1,4,0:0:0:0:
84,344,38656,1,0,0:0:0:0:
128,344,38757,1,0,0:0:0:0:
172,356,38858,1,0,0:0:0:0:
208,384,38960,1,4,0:0:0:0:
484,128,39365,6,0,L|492:24,1,90,4|0,0:0|0:0,0:0:0:0:
332,152,39771,2,0,L|340:48,1,90,8|2,0:0|0:0,0:0:0:0:
404,212,40176,2,0,L|412:108,1,90,2|0,0:0|0:0,0:0:0:0:
256,20,40582,2,0,L|264:124,1,90,8|0,0:0|0:0,0:0:0:0:
28,128,40987,6,0,L|20:24,1,90,2|0,0:0|0:0,0:0:0:0:
180,152,41393,2,0,L|172:48,1,90,8|2,0:0|0:0,0:0:0:0:
108,212,41798,2,0,L|100:108,1,90,2|0,0:0|0:0,0:0:0:0:
256,20,42204,2,0,L|248:124,1,90,8|2,0:0|0:0,0:0:0:0:
396,248,42609,6,0,B|416:208|416:208|400:164,1,90,2|0,0:0|0:0,0:0:0:0:
248,108,43014,2,0,B|228:148|228:148|244:192,1,90,8|2,0:0|0:0,0:0:0:0:
304,260,43419,1,2,0:0:0:0:
340,96,43622,1,0,0:0:0:0:
456,320,43825,2,0,L|364:332,1,90,8|0,0:0|0:0,0:0:0:0:
72,184,44230,6,0,L|164:196,1,90,2|0,0:0|0:0,0:0:0:0:
204,276,44636,1,8,0:0:0:0:
244,64,44838,1,2,0:0:0:0:
356,248,45041,2,0,B|368:292|368:292|348:332,1,90,2|2,0:0|0:0,0:0:0:0:
180,96,45446,2,0,B|168:52|168:52|188:12,1,90,8|2,0:0|0:0,0:0:0:0:
424,72,45852,6,0,L|420:164,1,90,2|0,0:0|0:0,0:0:0:0:
420,161,46257,1,8,0:0:0:0:
300,272,46460,2,0,B|288:228|288:228|304:184,1,90,2|2,0:0|0:0,0:0:0:0:
512,128,46865,2,0,B|524:172|524:172|508:216,1,90,0|8,0:0|0:0,0:0:0:0:
508,213,47271,1,0,0:0:0:0:
336,352,47474,6,0,L|244:344,1,90,2|0,0:0|0:0,0:0:0:0:
88,196,47879,2,0,L|180:188,1,90,8|2,0:0|0:0,0:0:0:0:
177,188,48284,1,2,0:0:0:0:
464,36,48487,2,0,L|372:28,1,90,0|8,0:0|0:0,0:0:0:0:
374,28,48892,1,2,0:0:0:0:
94,60,49095,5,10,0:0:0:0:
54,140,49298,1,0,0:0:0:0:
182,76,49501,1,8,0:0:0:0:
158,220,49703,1,2,0:0:0:0:
278,68,49906,1,8,0:0:0:0:
302,284,50109,1,2,0:0:0:0:
374,28,50311,1,8,0:0:0:0:
454,324,50514,1,2,0:0:0:0:
504,152,50717,5,10,0:0:0:0:
232,240,50919,1,0,0:0:0:0:
232,240,51021,1,0,0:0:0:0:
232,240,51122,1,10,0:0:0:0:
44,20,51325,1,2,0:0:0:0:
320,104,51528,1,8,0:0:0:0:
312,192,51730,1,2,0:0:0:0:
384,248,51933,1,8,0:0:0:0:
376,336,52135,1,2,0:0:0:0:
212,216,52338,5,4,0:0:0:0:
52,176,52541,1,0,0:0:0:0:
140,164,52744,1,8,0:0:0:0:
136,180,52845,1,0,0:0:0:0:
132,196,52947,1,2,0:0:0:0:
128,212,53048,1,2,0:0:0:0:
124,228,53149,2,0,L|132:276,1,45,2|2,0:0|0:0,0:0:0:0:
92,328,53352,1,2,0:0:0:0:
132,348,53453,1,0,0:0:0:0:
176,348,53555,1,8,0:0:0:0:
216,328,53656,1,2,0:0:0:0:
260,316,53757,1,2,0:0:0:0:
304,328,53859,1,2,0:0:0:0:
344,348,53960,5,2,0:0:0:0:
360,344,54061,1,0,0:0:0:0:
376,340,54163,2,0,L|384:296,1,45,0|0,0:0|0:0,0:0:0:0:
364,232,54365,1,8,0:0:0:0:
380,228,54466,1,0,0:0:0:0:
396,224,54568,1,2,0:0:0:0:
412,220,54669,1,2,0:0:0:0:
428,216,54771,1,2,0:0:0:0:
468,196,54872,1,2,0:0:0:0:
492,156,54974,1,2,0:0:0:0:
484,112,55075,1,0,0:0:0:0:
456,76,55176,1,8,0:0:0:0:
412,60,55278,1,2,0:0:0:0:
368,68,55379,1,2,0:0:0:0:
332,96,55480,1,0,0:0:0:0:
316,140,55582,5,2,0:0:0:0:
320,156,55683,1,0,0:0:0:0:
324,172,55784,2,0,L|320:216,1,45,2|2,0:0|0:0,0:0:0:0:
264,256,55987,1,8,0:0:0:0:
268,272,56088,1,0,0:0:0:0:
272,288,56190,1,0,0:0:0:0:
276,304,56291,1,0,0:0:0:0:
280,320,56392,1,2,0:0:0:0:
244,348,56494,1,2,0:0:0:0:
200,360,56595,1,2,0:0:0:0:
156,356,56696,1,2,0:0:0:0:
116,336,56798,1,8,0:0:0:0:
84,304,56899,1,2,0:0:0:0:
64,264,57001,1,2,0:0:0:0:
56,220,57102,1,0,0:0:0:0:
64,176,57203,5,2,0:0:0:0:
68,160,57305,1,0,0:0:0:0:
72,144,57406,2,0,L|116:136,1,45,0|0,0:0|0:0,0:0:0:0:
184,124,57608,1,8,0:0:0:0:
188,108,57711,1,0,0:0:0:0:
192,92,57811,1,2,0:0:0:0:
196,76,57913,1,2,0:0:0:0:
200,60,58014,1,2,0:0:0:0:
236,88,58115,1,2,0:0:0:0:
280,96,58217,1,2,0:0:0:0:
320,76,58318,1,0,0:0:0:0:
352,44,58419,1,8,0:0:0:0:
392,24,58520,1,2,0:0:0:0:
436,32,58622,1,2,0:0:0:0:
472,60,58723,1,0,0:0:0:0:
492,100,58825,5,2,0:0:0:0:
488,116,58926,1,0,0:0:0:0:
484,132,59028,2,0,L|440:144,1,45,0|0,0:0|0:0,0:0:0:0:
376,124,59230,1,8,0:0:0:0:
372,140,59331,1,0,0:0:0:0:
368,156,59433,1,2,0:0:0:0:
364,172,59534,1,2,0:0:0:0:
360,188,59636,1,2,0:0:0:0:
376,232,59737,1,2,0:0:0:0:
368,276,59838,1,2,0:0:0:0:
332,304,59940,1,0,0:0:0:0:
288,308,60041,1,8,0:0:0:0:
248,284,60142,1,2,0:0:0:0:
228,244,60244,1,2,0:0:0:0:
236,200,60345,1,2,0:0:0:0:
268,168,60446,5,2,0:0:0:0:
272,152,60548,1,0,0:0:0:0:
276,136,60649,2,0,L|260:92,1,45,0|0,0:0|0:0,0:0:0:0:
192,96,60852,1,8,0:0:0:0:
196,80,60954,1,0,0:0:0:0:
200,64,61055,1,2,0:0:0:0:
204,48,61157,1,2,0:0:0:0:
208,32,61258,1,2,0:0:0:0:
168,12,61359,1,2,0:0:0:0:
124,16,61460,1,2,0:0:0:0:
84,36,61561,1,0,0:0:0:0:
56,72,61663,1,8,0:0:0:0:
44,116,61764,1,2,0:0:0:0:
48,160,61865,1,2,0:0:0:0:
68,200,61967,1,2,0:0:0:0:
110,230,62068,5,10,0:0:0:0:
110,230,62169,1,0,0:0:0:0:
110,230,62271,1,0,0:0:0:0:
402,154,62474,1,8,0:0:0:0:
402,154,62575,1,2,0:0:0:0:
402,154,62677,1,2,0:0:0:0:
200,24,62879,1,8,0:0:0:0:
200,24,62980,1,2,0:0:0:0:
200,24,63082,1,2,0:0:0:0:
312,360,63284,1,8,0:0:0:0:
312,360,63385,1,2,0:0:0:0:
312,360,63487,1,2,0:0:0:0:
512,128,63690,5,10,0:0:0:0:
512,128,63791,1,0,0:0:0:0:
512,128,63892,1,0,0:0:0:0:
256,256,64095,1,10,0:0:0:0:
256,256,64196,1,0,0:0:0:0:
256,256,64297,1,0,0:0:0:0:
0,128,64501,1,8,0:0:0:0:
0,128,64602,1,0,0:0:0:0:
0,128,64703,1,8,0:0:0:0:
132,32,64906,1,8,0:0:0:0:
148,28,65007,1,0,0:0:0:0:
164,24,65109,1,8,0:0:0:0:
180,20,65210,1,8,0:0:0:0:
196,16,65311,5,4,0:0:0:0:
220,44,65413,1,0,0:0:0:0:
256,52,65514,1,0,0:0:0:0:
292,48,65615,1,0,0:0:0:0:
324,28,65717,2,0,L|368:32,1,45,4|8,0:0|0:0,0:0:0:0:
440,44,65919,1,10,0:0:0:0:
440,44,66021,1,2,0:0:0:0:
440,44,66122,2,0,L|436:112,1,45,8|0,0:0|0:0,0:0:0:0:
392,140,66325,1,8,0:0:0:0:
392,140,66426,1,0,0:0:0:0:
392,140,66528,2,0,L|400:200,1,45,4|0,0:0|0:0,0:0:0:0:
460,228,66730,1,2,0:0:0:0:
460,228,66832,1,2,0:0:0:0:
460,228,66933,5,2,0:0:0:0:
456,244,67034,1,0,0:0:0:0:
452,260,67136,1,2,0:0:0:0:
448,276,67237,1,2,0:0:0:0:
396,320,67338,1,4,0:0:0:0:
392,304,67439,1,8,0:0:0:0:
388,288,67541,1,10,0:0:0:0:
384,272,67642,1,2,0:0:0:0:
324,244,67744,1,8,0:0:0:0:
320,260,67845,1,0,0:0:0:0:
316,276,67947,1,10,0:0:0:0:
312,292,68048,1,2,0:0:0:0:
260,336,68149,1,4,0:0:0:0:
256,320,68250,1,8,0:0:0:0:
252,304,68352,1,10,0:0:0:0:
248,288,68453,1,2,0:0:0:0:
188,260,68555,5,4,0:0:0:0:
168,220,68656,1,10,0:0:0:0:
176,176,68757,1,10,0:0:0:0:
212,148,68859,1,10,0:0:0:0:
280,144,68960,1,4,0:0:0:0:
316,116,69062,1,10,0:0:0:0:
324,72,69163,1,10,0:0:0:0:
304,32,69264,1,10,0:0:0:0:
244,4,69366,1,8,0:0:0:0:
220,32,69467,1,0,0:0:0:0:
184,40,69568,1,2,0:0:0:0:
148,32,69669,1,0,0:0:0:0:
120,8,69771,1,4,0:0:0:0:
84,0,69872,1,8,0:0:0:0:
48,8,69973,1,10,0:0:0:0:
24,36,70074,1,2,0:0:0:0:
16,72,70176,5,8,0:0:0:0:
20,88,70278,1,0,0:0:0:0:
24,104,70379,1,2,0:0:0:0:
28,120,70480,1,2,0:0:0:0:
32,136,70582,1,8,0:0:0:0:
60,160,70683,1,0,0:0:0:0:
96,168,70784,1,2,0:0:0:0:
132,160,70886,1,2,0:0:0:0:
160,136,70987,1,4,0:0:0:0:
192,104,71088,1,8,0:0:0:0:
236,88,71190,1,8,0:0:0:0:
280,96,71291,1,8,0:0:0:0:
316,124,71392,1,4,0:0:0:0:
320,140,71494,1,2,0:0:0:0:
324,156,71595,1,2,0:0:0:0:
308,368,71798,5,4,0:0:0:0:
284,340,71900,1,0,0:0:0:0:
248,332,72001,1,0,0:0:0:0:
212,336,72102,1,0,0:0:0:0:
180,356,72204,2,0,L|136:352,1,45,4|8,0:0|0:0,0:0:0:0:
76,348,72406,1,10,0:0:0:0:
76,348,72508,1,2,0:0:0:0:
76,348,72609,2,0,L|80:280,1,45,8|0,0:0|0:0,0:0:0:0:
120,252,72812,1,2,0:0:0:0:
120,252,72913,1,0,0:0:0:0:
120,252,73015,2,0,L|112:192,1,45,4|8,0:0|0:0,0:0:0:0:
80,160,73217,1,10,0:0:0:0:
80,160,73319,1,2,0:0:0:0:
80,160,73420,5,2,0:0:0:0:
84,144,73521,1,0,0:0:0:0:
88,128,73623,1,0,0:0:0:0:
92,112,73724,1,0,0:0:0:0:
144,68,73825,1,4,0:0:0:0:
148,84,73926,1,8,0:0:0:0:
152,100,74028,1,10,0:0:0:0:
156,116,74129,1,2,0:0:0:0:
216,144,74231,1,2,0:0:0:0:
220,128,74332,1,0,0:0:0:0:
224,112,74434,1,2,0:0:0:0:
228,96,74535,1,2,0:0:0:0:
280,52,74636,1,4,0:0:0:0:
284,68,74737,1,8,0:0:0:0:
288,84,74839,1,10,0:0:0:0:
292,100,74940,1,2,0:0:0:0:
352,128,75042,5,4,0:0:0:0:
356,172,75142,1,10,0:0:0:0:
332,212,75244,1,10,0:0:0:0:
288,228,75345,1,10,0:0:0:0:
224,208,75446,1,4,0:0:0:0:
180,224,75547,1,10,0:0:0:0:
156,264,75649,1,10,0:0:0:0:
160,308,75751,1,0,0:0:0:0:
204,360,75852,1,10,0:0:0:0:
236,376,75953,1,0,0:0:0:0:
272,376,76055,1,8,0:0:0:0:
304,360,76156,1,0,0:0:0:0:
328,332,76257,1,4,0:0:0:0:
360,316,76358,1,8,0:0:0:0:
396,316,76460,1,10,0:0:0:0:
428,332,76561,1,2,0:0:0:0:
488,364,76663,5,2,0:0:0:0:
492,348,76765,1,0,0:0:0:0:
496,332,76866,1,2,0:0:0:0:
500,316,76967,1,2,0:0:0:0:
504,300,77069,1,4,0:0:0:0:
508,264,77170,1,8,0:0:0:0:
492,232,77271,1,10,0:0:0:0:
460,216,77373,1,2,0:0:0:0:
424,212,77474,1,6,0:0:0:0:
380,224,77575,1,10,0:0:0:0:
336,212,77676,1,10,0:0:0:0:
304,180,77778,1,8,0:0:0:0:
292,136,77879,1,6,0:0:0:0:
296,120,77980,1,10,0:0:0:0:
300,104,78082,1,10,0:0:0:0:
24,24,78284,5,4,0:0:0:0:
20,40,78386,1,0,0:0:0:0:
16,56,78487,1,0,0:0:0:0:
12,72,78588,1,0,0:0:0:0:
8,88,78690,1,4,0:0:0:0:
36,112,78791,1,8,0:0:0:0:
72,120,78892,1,2,0:0:0:0:
108,116,78994,1,2,0:0:0:0:
140,100,79094,1,8,0:0:0:0:
112,136,79196,1,0,0:0:0:0:
100,180,79298,1,8,0:0:0:0:
108,224,79399,1,0,0:0:0:0:
128,264,79501,1,4,0:0:0:0:
136,228,79602,1,8,0:0:0:0:
156,196,79703,1,10,0:0:0:0:
188,176,79805,1,2,0:0:0:0:
224,168,79906,5,8,0:0:0:0:
240,172,80007,1,0,0:0:0:0:
256,176,80109,1,0,0:0:0:0:
272,180,80210,1,0,0:0:0:0:
288,184,80311,1,4,0:0:0:0:
324,176,80412,1,0,0:0:0:0:
356,156,80514,1,8,0:0:0:0:
376,124,80615,1,0,0:0:0:0:
384,88,80716,1,4,0:0:0:0:
396,132,80818,1,4,0:0:0:0:
424,168,80919,1,8,0:0:0:0:
460,196,81021,1,8,0:0:0:0:
500,212,81122,1,4,0:0:0:0:
488,360,81528,5,4,0:0:0:0:
492,344,81630,1,0,0:0:0:0:
496,328,81731,1,0,0:0:0:0:
500,312,81832,1,0,0:0:0:0:
504,296,81934,1,8,0:0:0:0:
476,272,82035,1,8,0:0:0:0:
440,264,82136,1,2,0:0:0:0:
404,268,82238,1,2,0:0:0:0:
372,284,82338,1,8,0:0:0:0:
400,248,82440,1,0,0:0:0:0:
412,204,82542,1,8,0:0:0:0:
404,160,82643,1,0,0:0:0:0:
384,120,82745,1,4,0:0:0:0:
376,156,82846,1,8,0:0:0:0:
356,188,82947,1,10,0:0:0:0:
324,208,83049,1,2,0:0:0:0:
288,216,83150,5,8,0:0:0:0:
272,212,83251,1,0,0:0:0:0:
256,208,83353,1,0,0:0:0:0:
240,204,83454,1,0,0:0:0:0:
224,200,83555,1,4,0:0:0:0:
188,208,83656,1,0,0:0:0:0:
156,228,83758,1,8,0:0:0:0:
136,260,83859,1,0,0:0:0:0:
128,296,83960,1,4,0:0:0:0:
116,252,84062,1,4,0:0:0:0:
88,216,84163,1,8,0:0:0:0:
52,188,84265,1,8,0:0:0:0:
12,172,84366,1,4,0:0:0:0:
224,304,84568,1,8,0:0:0:0:
284,60,84771,6,0,P|328:76|440:16,1,180,4|8,0:0|0:0,0:0:0:0:
384,188,86392,1,4,0:0:0:0:
512,312,88014,6,0,B|416:296|432:360|336:336,1,180,4|8,0:0|0:0,0:0:0:0:
216,208,89636,5,4,0:0:0:0:
220,200,89737,1,0,0:0:0:0:
224,192,89838,1,0,0:0:0:0:
216,208,90041,1,0,0:0:0:0:
220,200,90142,1,0,0:0:0:0:
224,192,90243,1,0,0:0:0:0:
216,208,90446,1,0,0:0:0:0:
220,200,90547,1,0,0:0:0:0:
224,192,90648,1,0,0:0:0:0:
216,208,90852,1,0,0:0:0:0:
220,200,90953,1,0,0:0:0:0:
224,192,91054,1,0,0:0:0:0:
96,352,91257,5,4,0:0:0:0:
60,176,92068,2,0,P|100:172|140:180,1,67.5,8|0,0:0|0:0,0:0:0:0:
136,180,92474,2,0,P|188:180|224:160,1,90,0|4,0:0|0:0,0:0:0:0:
464,44,94095,6,0,P|423:24|379:26,1,90,0|4,0:0|0:0,0:0:0:0:
296,64,94906,5,0,0:0:0:0:
268,168,95311,1,8,0:0:0:0:
336,276,95717,1,0,0:0:0:0:
472,320,96122,1,4,0:0:0:0:
96,384,96528,6,0,L|92:332,1,49.5,8|0,0:0|0:0,0:0:0:0:
36,296,97744,5,4,0:0:0:0:
24,284,97845,1,0,0:0:0:0:
12,272,97946,2,0,L|8:220,1,45,0|0,0:0|0:0,0:0:0:0:
52,176,98149,1,8,0:0:0:0:
84,196,98251,1,2,0:0:0:0:
120,204,98352,1,2,0:0:0:0:
156,204,98453,1,0,0:0:0:0:
192,196,98555,1,8,0:0:0:0:
188,212,98656,1,0,0:0:0:0:
184,228,98757,2,0,L|188:272,1,45,0|0,0:0|0:0,0:0:0:0:
248,304,98960,2,0,L|252:260,1,45,8|0,0:0|0:0,0:0:0:0:
312,204,99163,2,0,L|316:248,1,45,2|0,0:0|0:0,0:0:0:0:
376,304,99365,6,0,L|380:260,1,45,8|0,0:0|0:0,0:0:0:0:
428,212,99568,1,0,0:0:0:0:
428,212,99669,1,0,0:0:0:0:
428,212,99771,2,0,L|424:168,1,45,8|0,0:0|0:0,0:0:0:0:
376,120,99974,2,0,L|380:76,1,45,2|2,0:0|0:0,0:0:0:0:
422,22,100176,1,8,0:0:0:0:
406,18,100277,1,0,0:0:0:0:
390,14,100378,2,0,L|344:2,1,45,0|0,0:0|0:0,0:0:0:0:
308,60,100582,1,0,0:0:0:0:
292,64,100683,1,0,0:0:0:0:
276,68,100784,2,0,L|230:79,1,45,2|0,0:0|0:0,0:0:0:0:
176,40,100987,5,8,0:0:0:0:
160,44,101088,1,0,0:0:0:0:
144,48,101190,2,0,L|140:92,1,45,0|0,0:0|0:0,0:0:0:0:
88,132,101392,1,8,0:0:0:0:
116,156,101494,1,2,0:0:0:0:
132,188,101595,1,2,0:0:0:0:
136,224,101696,1,0,0:0:0:0:
128,260,101798,1,8,0:0:0:0:
140,272,101899,1,0,0:0:0:0:
152,284,102001,2,0,L|196:280,1,45,0|0,0:0|0:0,0:0:0:0:
252,240,102203,2,0,L|296:244,1,45,8|2,0:0|0:0,0:0:0:0:
368,284,102406,2,0,L|412:280,1,45,2|0,0:0|0:0,0:0:0:0:
484,240,102609,5,8,0:0:0:0:
480,224,102710,1,0,0:0:0:0:
476,207,102811,2,0,L|465:164,1,45,2|2,0:0|0:0,0:0:0:0:
400,144,103014,2,0,L|389:100,1,45,8|0,0:0|0:0,0:0:0:0:
324,80,103217,2,0,L|313:36,1,45,2|2,0:0|0:0,0:0:0:0:
248,16,103420,1,8,0:0:0:0:
232,20,103521,1,0,0:0:0:0:
216,24,103622,2,0,L|212:68,1,45,0|2,0:0|0:0,0:0:0:0:
248,128,103825,1,0,0:0:0:0:
264,132,103926,1,0,0:0:0:0:
280,136,104027,2,0,L|284:180,1,45,2|0,0:0|0:0,0:0:0:0:
248,240,104230,5,8,0:0:0:0:
232,244,104331,1,0,0:0:0:0:
216,248,104432,2,0,L|212:292,1,45,0|0,0:0|0:0,0:0:0:0:
176,352,104636,1,8,0:0:0:0:
144,368,104737,1,0,0:0:0:0:
108,372,104838,1,2,0:0:0:0:
72,364,104940,1,2,0:0:0:0:
44,340,105041,1,8,0:0:0:0:
40,324,105142,1,2,0:0:0:0:
36,308,105244,2,0,L|40:260,1,45,2|0,0:0|0:0,0:0:0:0:
96,224,105446,2,0,L|92:176,1,45,8|0,0:0|0:0,0:0:0:0:
28,128,105649,2,0,L|32:80,1,45,2|0,0:0|0:0,0:0:0:0:
99,36,105852,6,0,L|147:40,1,45,8|0,0:0|0:0,0:0:0:0:
204,88,106055,1,0,0:0:0:0:
204,88,106156,1,0,0:0:0:0:
204,88,106257,2,0,L|252:84,1,45,8|0,0:0|0:0,0:0:0:0:
288,28,106460,2,0,L|336:32,1,45,2|2,0:0|0:0,0:0:0:0:
387,74,106663,1,8,0:0:0:0:
391,90,106765,1,0,0:0:0:0:
395,105,106866,2,0,L|407:152,1,45,0|0,0:0|0:0,0:0:0:0:
460,188,107068,1,8,0:0:0:0:
456,204,107170,1,2,0:0:0:0:
452,219,107271,2,0,L|440:266,1,45,2|0,0:0|0:0,0:0:0:0:
388,304,107473,5,8,0:0:0:0:
372,308,107575,1,0,0:0:0:0:
356,312,107676,2,0,L|312:304,1,45,0|0,0:0|0:0,0:0:0:0:
248,328,107879,1,8,0:0:0:0:
224,300,107980,1,2,0:0:0:0:
216,264,108082,1,2,0:0:0:0:
220,228,108183,1,0,0:0:0:0:
236,196,108284,1,8,0:0:0:0:
240,180,108386,1,2,0:0:0:0:
244,164,108487,2,0,L|240:120,1,45,2|0,0:0|0:0,0:0:0:0:
176,144,108690,2,0,L|172:100,1,45,8|0,0:0|0:0,0:0:0:0:
108,124,108893,2,0,L|104:80,1,45,2|0,0:0|0:0,0:0:0:0:
40,104,109095,5,8,0:0:0:0:
36,120,109196,1,0,0:0:0:0:
32,136,109298,2,0,L|36:180,1,45,2|0,0:0|0:0,0:0:0:0:
100,204,109501,1,8,0:0:0:0:
104,220,109602,1,2,0:0:0:0:
108,236,109704,2,0,L|112:280,1,45,8|2,0:0|0:0,0:0:0:0:
80,340,109906,1,2,0:0:0:0:
120,360,110007,1,0,0:0:0:0:
164,356,110109,1,2,0:0:0:0:
204,336,110210,1,2,0:0:0:0:
232,300,110311,1,8,0:0:0:0:
284,264,110412,1,0,0:0:0:0:
348,256,110514,1,2,0:0:0:0:
408,276,110615,1,2,0:0:0:0:
456,316,110717,6,0,L|460:224,1,90,4|0,0:0|0:0,0:0:0:0:
296,84,111122,2,0,L|300:176,1,90,0|8,0:0|0:0,0:0:0:0:
368,232,111528,1,0,0:0:0:0:
428,52,111730,2,0,B|360:48|360:48|328:16|328:16|260:12,1,180,0|2,0:0|0:0,0:0:0:0:
64,56,112338,6,0,B|100:140|100:140|48:212,1,180,4|0,0:0|0:0,0:0:0:0:
140,348,112946,2,0,B|104:264|104:264|156:192,1,180,0|0,0:0|0:0,0:0:0:0:
192,276,113555,1,8,0:0:0:0:
12,128,113757,1,0,0:0:0:0:
272,4,113960,6,0,L|268:96,1,90,4|0,0:0|0:0,0:0:0:0:
456,316,114365,1,0,0:0:0:0:
376,360,114568,2,0,L|372:268,1,90,8|0,0:0|0:0,0:0:0:0:
188,49,114974,2,0,L|184:141,1,90,0|0,0:0|0:0,0:0:0:0:
240,212,115379,1,2,0:0:0:0:
456,80,115582,6,0,B|388:88|388:88|364:124|364:124|296:128,1,180,4|0,0:0|0:0,0:0:0:0:
56,288,116190,2,0,B|124:296|124:296|148:332|148:332|216:336,1,180,0|0,0:0|0:0,0:0:0:0:
296,292,116798,1,0,0:0:0:0:
56,68,117203,6,0,L|52:160,1,90,4|0,0:0|0:0,0:0:0:0:
216,300,117608,2,0,L|212:208,1,90,0|8,0:0|0:0,0:0:0:0:
144,152,118014,1,0,0:0:0:0:
84,332,118216,2,0,B|152:336|152:336|184:368|184:368|252:372,1,180,0|2,0:0|0:0,0:0:0:0:
448,328,118824,6,0,B|412:244|412:244|464:172,1,180,4|0,0:0|0:0,0:0:0:0:
372,36,119432,2,0,B|408:120|408:120|356:192,1,180,0|0,0:0|0:0,0:0:0:0:
320,108,120041,1,8,0:0:0:0:
500,256,120243,1,0,0:0:0:0:
240,380,120446,6,0,L|244:288,1,90,4|0,0:0|0:0,0:0:0:0:
56,68,120851,1,0,0:0:0:0:
136,24,121054,2,0,L|140:116,1,90,8|0,0:0|0:0,0:0:0:0:
324,335,121460,2,0,L|328:243,1,90,0|0,0:0|0:0,0:0:0:0:
272,172,121865,1,2,0:0:0:0:
56,304,122068,6,0,B|124:296|124:296|148:260|148:260|216:256,1,180,4|0,0:0|0:0,0:0:0:0:
456,96,122676,2,0,B|388:88|388:88|364:52|364:52|296:48,1,180,2|0,0:0|0:0,0:0:0:0:
216,92,123284,1,2,0:0:0:0:
256,352,123690,5,4,0:0:0:0:
256,192,123791,12,0,126933,0:0:0:0:
