osu file format v14

[General]
AudioFilename: audio.mp3
AudioLeadIn: 0
PreviewTime: 39163
Countdown: 0
SampleSet: Soft
StackLeniency: 0.7
Mode: 0
LetterboxInBreaks: 0
WidescreenStoryboard: 0

[Editor]
Bookmarks: 447,6933,19906,32879,39365,52338,65311,84771,97744,110717,123690,125514
DistanceSpacing: 1
BeatDivisor: 4
GridSize: 8
TimelineZoom: 1

[Metadata]
Title:Turii ~Panta rhei~
TitleUnicode:Turii ~Panta rhei~
Artist:Zektbach
ArtistUnicode:Zektbach
Creator:celerih
Version:Insane
Source:beatmania IIDX 16 EMPRESS
Tags:Muya Realazy JBHyperion ゼクトバッハ iidx16 tomosuke funaki 舟木智介 maya takamura 高村真耶 Akiko Shikata 志方あきこ elemental chant malchut REFLEC BEAT
BeatmapID:1680864
BeatmapSetID:800638

[Difficulty]
HPDrainRate:7
CircleSize:4
OverallDifficulty:7.5
ApproachRate:8.2
SliderMultiplier:2
SliderTickRate:1

[Events]
//Background and Video events
0,0,"Turii BG.jpg",0,0
//Break Periods
//Storyboard Layer 0 (Background)
//Storyboard Layer 1 (Fail)
//Storyboard Layer 2 (Pass)
//Storyboard Layer 3 (Foreground)
//Storyboard Sound Samples

[TimingPoints]
447,405.405405405405,4,2,1,60,1,0
447,-142.857142857143,4,2,1,60,0,0
2068,-142.857142857143,4,2,1,50,0,0
3690,-142.857142857143,4,3,1,60,0,0
3892,-142.857142857143,4,3,1,20,0,0
4501,-142.857142857143,4,3,1,40,0,0
5311,-142.857142857143,4,2,1,60,0,0
6933,-100,4,3,1,60,0,0
7136,-100,4,2,2,60,0,0
9365,-100,4,2,2,70,0,0
10176,-100,4,2,2,60,0,0
12609,-100,4,2,2,70,0,0
13419,-100,4,2,2,60,0,0
15852,-100,4,2,2,70,0,0
16662,-100,4,2,2,60,0,0
19095,-100,4,2,2,70,0,0
19906,-250,4,2,1,50,0,0
20109,-250,4,2,1,20,0,0
21528,-250,4,2,10,40,0,0
21730,-250,4,2,1,20,0,0
23149,-250,4,3,1,40,0,0
23351,-250,4,2,1,20,0,0
24771,-250,4,2,10,40,0,0
24973,-250,4,2,1,20,0,0
25987,-250,4,2,1,40,0,0
26798,-250,4,2,10,25,0,0
27001,-250,4,2,1,40,0,0
28014,-250,4,2,10,40,0,0
28216,-250,4,2,1,30,0,0
28419,-250,4,2,10,25,0,0
28622,-250,4,2,1,30,0,0
28825,-250,4,2,10,25,0,0
29028,-250,4,2,1,40,0,0
29332,-250,4,2,1,35,0,0
29433,-250,4,2,1,30,0,0
29534,-250,4,2,1,25,0,0
29636,-250,4,3,1,50,0,0
29838,-250,4,2,1,20,0,0
30852,-250,4,2,1,50,0,0
31257,-250,4,2,10,40,0,0
32879,-100,4,3,2,60,0,0
32980,-100,4,3,2,40,0,0
33284,-100,4,3,2,41,0,0
33690,-100,4,3,2,42,0,0
34095,-100,4,3,2,43,0,0
34501,-100,4,3,2,60,0,0
34602,-100,4,3,2,44,0,0
34906,-100,4,3,2,45,0,0
35311,-100,4,3,2,60,0,0
35413,-100,4,3,2,46,0,0
35717,-100,4,3,2,60,0,0
36224,-100,4,3,2,50,0,0
36528,-100,4,3,2,52,0,0
36933,-100,4,3,2,55,0,0
37338,-100,4,3,2,58,0,0
37744,-100,4,3,2,60,0,0
38149,-100,4,3,2,65,0,0
38555,-100,4,3,2,70,0,0
39365,-100,4,2,3,60,0,0
65311,-100,4,3,2,70,0,0
65413,-100,4,3,3,60,0,0
68555,-100,4,3,10,60,0,0
68656,-100,4,3,3,60,0,0
68960,-100,4,3,10,60,0,0
69061,-100,4,3,3,60,0,0
71392,-100,4,3,10,60,0,0
71494,-100,4,3,3,60,0,0
71798,-100,4,3,2,70,0,0
71900,-100,4,3,3,60,0,0
75041,-100,4,3,10,60,0,0
75142,-100,4,3,3,60,0,0
75446,-100,4,3,10,60,0,0
75547,-100,4,3,3,60,0,0
78284,-100,4,3,2,70,0,0
78386,-100,4,3,3,60,0,0
81122,-100,4,2,3,70,0,0
81528,-100,4,3,2,70,0,0
81630,-100,4,3,3,60,0,0
84771,-200,4,2,1,60,0,0
84974,-200,4,2,1,50,0,0
86392,-200,4,2,10,40,0,0
86594,-200,4,2,1,50,0,0
88014,-200,4,3,1,60,0,0
88217,-200,4,2,1,50,0,0
89636,-200,4,2,10,40,0,0
89838,-200,4,2,1,20,0,0
90852,-200,4,2,1,50,0,0
91257,-200,4,2,1,40,0,0
91460,-200,4,2,1,50,0,0
92879,-200,4,2,10,40,0,0
93081,-200,4,2,1,50,0,0
94501,-200,4,3,1,60,0,0
94704,-200,4,2,1,50,0,0
96122,-200,4,2,10,40,0,0
96324,-200,4,2,1,50,0,0
96933,-200,4,2,1,40,0,0
97338,-200,4,2,1,30,0,0
97642,-200,4,2,1,20,0,0
97744,-100,4,2,1,70,0,0
97946,-100,4,2,3,70,0,0
110717,-142.857142857143,4,2,1,50,0,0
112338,-142.857142857143,4,3,10,40,0,0
112439,-142.857142857143,4,2,1,20,0,0
113149,-142.857142857143,4,2,10,40,0,0
113351,-142.857142857143,4,2,1,50,0,0
115582,-142.857142857143,4,3,10,40,0,0
115683,-142.857142857143,4,2,1,20,0,0
116392,-142.857142857143,4,2,1,50,0,0
117203,-142.857142857143,4,2,1,50,0,0
118825,-142.857142857143,4,3,10,40,0,0
118926,-142.857142857143,4,2,1,20,0,0
119636,-142.857142857143,4,2,10,40,0,0
119838,-142.857142857143,4,2,1,50,0,0
120446,-142.857142857143,4,2,3,70,0,0
120649,-142.857142857143,4,2,1,50,0,0
122068,-142.857142857143,4,3,10,40,0,0
122169,-142.857142857143,4,2,1,20,0,0
122878,-142.857142857143,4,2,1,50,0,0
123690,-500,4,2,3,70,0,0
124095,-500,4,2,1,60,0,0
124501,-500,4,2,1,50,0,0
124906,-500,4,2,1,40,0,0
125311,-500,4,2,1,30,0,0

[Colours]
Combo1 : 243,243,107
Combo2 : 228,149,122
Combo3 : 152,218,152

[HitObjects]
153,111,447,6,0,P|144:156|143:201,1,69.9999978637696,4|0,0:0|0:0,0:0:0:0:
77,74,852,1,0,0:0:0:0:
158,248,1055,2,0,P|159:173|173:94,1,139.999995727539,8|0,0:0|0:0,0:0:0:0:
186,109,1663,2,0,P|183:77|178:38,1,69.9999978637696
262,189,2068,6,0,P|297:205|339:215,2,69.9999978637696,2|0|0,0:0|0:0|0:0,0:0:0:0:
323,132,2676,2,0,P|267:157|182:167,1,139.999995727539,8|0,0:0|0:0,0:0:0:0:
179,153,3284,2,0,P|139:141|100:138,1,69.9999978637696,8|2,0:0|0:0,0:0:0:0:
103,256,3690,6,0,B|168:216|261:224|228:265|324:266|390:225,1,279.999991455078,4|2,0:0|0:0,0:0:0:0:
371,250,5311,2,0,P|361:179|348:111,1,139.999995727539,8|0,0:0|0:0,0:0:0:0:
227,36,6122,2,0,P|204:99|249:161,1,139.999995727539,2|0,0:0|0:0,0:0:0:0:
450,134,6933,6,0,P|388:117|304:108,1,133.333333333333,4|0,0:0|0:0,0:0:0:0:
311,119,7338,2,0,P|377:124|443:121,1,133.333333333333,8|0,0:0|0:0,0:0:0:0:
280,28,7744,2,0,P|247:85|224:159,1,133.333333333333,10|0,0:0|0:0,0:0:0:0:
232,161,8149,2,0,P|224:94|204:31,1,133.333333333333,8|0,0:0|0:0,0:0:0:0:
110,61,8555,5,12,0:0:0:0:
151,82,8690,1,0,0:0:0:0:
197,90,8825,1,0,0:0:0:0:
243,83,8960,5,8,0:0:0:0:
200,115,9095,1,0,0:0:0:0:
148,126,9230,1,0,0:0:0:0:
96,112,9365,5,10,0:0:0:0:
135,174,9501,1,0,0:0:0:0:
200,207,9636,1,0,0:0:0:0:
272,194,9771,5,8,0:0:0:0:
219,164,9906,1,0,0:0:0:0:
172,164,10041,1,0,0:0:0:0:
135,174,10176,6,0,P|118:112|109:28,1,133.333333333333,8|0,0:0|0:0,0:0:0:0:
120,35,10581,2,0,P|125:101|122:167,1,133.333333333333,8|0,0:0|0:0,0:0:0:0:
71,287,10987,2,0,P|125:249|184:219,1,133.333333333333,10|0,0:0|0:0,0:0:0:0:
195,229,11392,2,0,P|135:198|80:160,1,133.333333333333,8|0,0:0|0:0,0:0:0:0:
101,75,11798,5,12,0:0:0:0:
142,54,11933,1,0,0:0:0:0:
188,54,12068,1,0,0:0:0:0:
227,78,12203,5,8,0:0:0:0:
202,125,12338,1,0,0:0:0:0:
215,176,12474,1,0,0:0:0:0:
258,206,12609,5,10,0:0:0:0:
284,137,12744,1,0,0:0:0:0:
261,67,12879,1,0,0:0:0:0:
199,27,13014,5,8,0:0:0:0:
227,78,13149,1,0,0:0:0:0:
269,97,13284,1,0,0:0:0:0:
302,99,13419,6,0,P|233:110|168:133,1,133.333333333333,8|0,0:0|0:0,0:0:0:0:
174,146,13825,2,0,P|236:122|293:88,1,133.333333333333,8|0,0:0|0:0,0:0:0:0:
450,185,14230,2,0,P|382:168|311:162,1,133.333333333333,10|0,0:0|0:0,0:0:0:0:
306,150,14636,2,0,P|374:133|445:127,1,133.333333333333,8|0,0:0|0:0,0:0:0:0:
478,200,15041,5,12,0:0:0:0:
473,246,15176,1,0,0:0:0:0:
450,286,15311,1,0,0:0:0:0:
413,314,15446,5,8,0:0:0:0:
407,260,15582,1,0,0:0:0:0:
380,214,15717,1,0,0:0:0:0:
332,188,15852,5,10,0:0:0:0:
267,223,15987,1,0,0:0:0:0:
193,216,16122,1,0,0:0:0:0:
139,165,16257,5,8,0:0:0:0:
198,166,16392,1,0,0:0:0:0:
240,186,16528,1,0,0:0:0:0:
257,213,16663,6,0,P|254:281|243:363,1,133.333333333333,8|0,0:0|0:0,0:0:0:0:
230,344,17068,2,0,P|249:280|273:218,1,133.333333333333,8|0,0:0|0:0,0:0:0:0:
411,132,17474,2,0,P|344:142|258:144,1,133.333333333333,10|0,0:0|0:0,0:0:0:0:
269,161,17879,2,0,P|209:130|143:113,1,133.333333333333,8|0,0:0|0:0,0:0:0:0:
47,163,18284,5,12,0:0:0:0:
89,181,18419,1,0,0:0:0:0:
135,186,18555,1,0,0:0:0:0:
180,177,18690,5,8,0:0:0:0:
156,129,18825,1,0,0:0:0:0:
109,102,18960,1,0,0:0:0:0:
55,100,19095,5,10,0:0:0:0:
120,133,19230,1,0,0:0:0:0:
193,127,19365,1,0,0:0:0:0:
256,88,19501,5,8,0:0:0:0:
315,81,19636,1,0,0:0:0:0:
359,94,19771,1,0,0:0:0:0:
376,117,19906,6,0,B|330:149|280:157|224:137|224:137|291:135|354:172,1,280,4|0,0:0|0:0,0:0:0:0:
251,267,21528,2,0,B|297:235|347:227|403:247|403:247|336:249|273:212,1,280,4|0,0:0|0:0,0:0:0:0:
220,155,23149,6,0,P|159:153|162:297,1,240,4|2,0:0|0:0,0:0:0:0:
231,287,24771,2,0,P|263:235|138:165,1,240,4|0,0:0|0:0,0:0:0:0:
360,275,26392,1,2,0:0:0:0:
339,266,26494,1,0,0:0:0:0:
317,263,26595,1,0,0:0:0:0:
295,266,26696,1,0,0:0:0:0:
275,276,26798,1,10,0:0:0:0:
255,286,26899,1,8,0:0:0:0:
233,291,27001,1,0,0:0:0:0:
211,289,27102,1,0,0:0:0:0:
192,277,27203,6,0,P|272:285|352:308,1,160,8|4,0:0|0:0,0:0:0:0:
333,179,28217,1,0,0:0:0:0:
319,191,28318,1,0,0:0:0:0:
304,201,28419,1,10,0:0:0:0:
287,207,28521,1,8,0:0:0:0:
269,210,28622,1,0,0:0:0:0:
250,209,28724,1,0,0:0:0:0:
229,201,28825,1,8,0:0:0:0:
202,183,28926,1,8,0:0:0:0:
172,169,29028,1,0,0:0:0:0:
140,168,29129,1,0,0:0:0:0:
110,180,29230,5,2,0:0:0:0:
126,188,29332,1,2,0:0:0:0:
143,191,29433,1,2,0:0:0:0:
160,187,29534,1,2,0:0:0:0:
176,177,29636,2,0,B|234:152|309:164|279:186|366:200|428:175,1,240,4|2,0:0|0:0,0:0:0:0:
190,76,31257,5,4,0:0:0:0:
182,94,32879,5,4,0:0:0:0:
177,79,32980,1,0,0:0:0:0:
267,192,33183,1,0,0:0:0:0:
260,205,33284,1,0,0:0:0:0:
292,218,33385,1,0,0:0:0:0:
326,222,33486,1,0,0:0:0:0:
361,217,33588,1,0,0:0:0:0:
392,202,33690,6,0,P|384:231|374:284,1,50,2|0,0:0|0:0,0:0:0:0:
398,362,33892,2,0,P|380:343|362:326,1,50
512,174,34095,1,2,0:0:0:0:
467,153,34196,1,0,0:0:0:0:
418,161,34297,1,0,0:0:0:0:
381,194,34399,1,0,0:0:0:0:
369,242,34500,5,4,0:0:0:0:
373,256,34602,1,0,0:0:0:0:
374,270,34703,1,0,0:0:0:0:
373,285,34805,1,0,0:0:0:0:
369,299,34906,1,2,0:0:0:0:
331,286,35007,1,0,0:0:0:0:
295,285,35109,1,0,0:0:0:0:
263,299,35210,1,0,0:0:0:0:
243,332,35311,5,4,0:0:0:0:
288,302,35412,1,0,0:0:0:0:
316,255,35513,1,0,0:0:0:0:
321,201,35615,1,0,0:0:0:0:
302,150,35716,1,4,0:0:0:0:
285,148,36122,5,4,0:0:0:0:
267,153,36224,1,0,0:0:0:0:
453,215,36426,1,0,0:0:0:0:
471,219,36528,1,0,0:0:0:0:
442,198,36629,1,0,0:0:0:0:
407,195,36730,1,0,0:0:0:0:
372,202,36832,1,0,0:0:0:0:
344,223,36933,6,0,P|339:258|339:289,1,50,2|0,0:0|0:0,0:0:0:0:
235,158,37136,2,0,P|250:177|264:198,1,50
387,84,37338,1,2,0:0:0:0:
339,97,37439,1,0,0:0:0:0:
289,92,37540,1,0,0:0:0:0:
246,68,37642,1,0,0:0:0:0:
221,24,37743,5,4,0:0:0:0:
209,33,37845,1,0,0:0:0:0:
197,39,37946,1,0,0:0:0:0:
183,43,38048,1,0,0:0:0:0:
169,43,38149,1,2,0:0:0:0:
134,39,38251,1,0,0:0:0:0:
100,33,38352,1,0,0:0:0:0:
66,37,38453,1,0,0:0:0:0:
37,56,38555,5,4,0:0:0:0:
92,50,38656,1,0,0:0:0:0:
143,70,38757,1,0,0:0:0:0:
180,110,38859,1,0,0:0:0:0:
195,162,38960,1,4,0:0:0:0:
212,177,39365,6,0,P|161:167|74:167,1,100,4|0,0:0|0:0,0:0:0:0:
338,131,39771,1,8,0:0:0:0:
362,137,39872,1,0,0:0:0:0:
386,133,39974,2,0,P|364:116|330:102,1,50,2|2,0:0|0:0,0:0:0:0:
170,53,40176,2,0,P|178:107|180:170,1,100,2|0,0:0|0:0,0:0:0:0:
359,300,40582,1,8,0:0:0:0:
312,124,40784,1,0,0:0:0:0:
118,354,40987,6,0,P|171:343|251:341,1,100,2|0,0:0|0:0,0:0:0:0:
434,314,41392,1,8,0:0:0:0:
411,324,41494,1,0,0:0:0:0:
386,326,41595,2,0,P|373:303|363:273,1,50,2|2,0:0|0:0,0:0:0:0:
412,56,41798,2,0,P|397:108|369:168,1,100,2|0,0:0|0:0,0:0:0:0:
175,44,42203,2,0,P|207:49|236:50,1,50,8|2,0:0|0:0,0:0:0:0:
319,18,42406,1,2,0:0:0:0:
168,249,42609,6,0,P|154:191|132:130,1,100,2|0,0:0|0:0,0:0:0:0:
267,272,43014,1,8,0:0:0:0:
279,293,43115,1,2,0:0:0:0:
283,317,43217,1,2,0:0:0:0:
50,261,43419,2,0,P|106:265|170:278,1,100,2|0,0:0|0:0,0:0:0:0:
306,90,43825,1,8,0:0:0:0:
169,133,44028,1,0,0:0:0:0:
337,286,44230,6,0,P|340:231|351:184,1,100,2|0,0:0|0:0,0:0:0:0:
235,93,44636,1,8,0:0:0:0:
247,114,44737,1,2,0:0:0:0:
251,138,44838,2,0,P|222:131|176:128,1,50,2|2,0:0|0:0,0:0:0:0:
45,207,45041,2,0,P|99:196|167:190,1,100,2|2,0:0|0:0,0:0:0:0:
208,226,45345,1,2,0:0:0:0:
203,250,45446,1,8,0:0:0:0:
316,113,45649,2,0,P|321:145|322:174,1,50,2|2,0:0|0:0,0:0:0:0:
275,304,45852,6,0,P|325:290|393:287,1,100,2|0,0:0|0:0,0:0:0:0:
244,175,46257,1,8,0:0:0:0:
219,170,46359,1,0,0:0:0:0:
194,173,46460,2,0,P|164:173|139:169,1,50,2|2,0:0|0:0,0:0:0:0:
295,10,46663,2,0,P|284:52|273:135,1,100,2|0,0:0|0:0,0:0:0:0:
178,323,47068,1,8,0:0:0:0:
117,173,47271,1,0,0:0:0:0:
369,249,47474,6,0,P|324:225|258:208,1,100,2|0,0:0|0:0,0:0:0:0:
114,271,47879,1,8,0:0:0:0:
180,99,48082,2,0,P|181:130|180:159,1,50,2|2,0:0|0:0,0:0:0:0:
19,266,48284,2,0,P|68:251|142:246,1,100,2|0,0:0|0:0,0:0:0:0:
337,203,48690,1,8,0:0:0:0:
359,213,48791,1,2,0:0:0:0:
383,216,48892,1,2,0:0:0:0:
239,43,49095,6,0,P|253:96|262:153,1,100,10|0,0:0|0:0,0:0:0:0:
88,277,49501,2,0,P|114:270|159:266,1,50,8|2,0:0|0:0,0:0:0:0:
238,290,49703,1,2,0:0:0:0:
134,163,49906,1,8,0:0:0:0:
123,140,50007,1,2,0:0:0:0:
121,114,50109,1,2,0:0:0:0:
293,201,50311,1,8,0:0:0:0:
268,205,50413,1,2,0:0:0:0:
246,217,50514,1,2,0:0:0:0:
471,168,50717,6,0,P|429:202|396:257,1,100,10|0,0:0|0:0,0:0:0:0:
321,68,51122,1,10,0:0:0:0:
294,213,51325,1,2,0:0:0:0:
426,48,51528,1,8,0:0:0:0:
474,123,51730,1,2,0:0:0:0:
220,33,51933,2,0,P|234:84|238:150,1,100,8|2,0:0|0:0,0:0:0:0:
313,210,52237,1,2,0:0:0:0:
324,222,52338,6,0,P|272:210|212:207,1,100,4|0,0:0|0:0,0:0:0:0:
50,293,52744,2,0,P|119:282|170:291,1,100,8|2,0:0|0:0,0:0:0:0:
219,321,53048,1,2,0:0:0:0:
213,333,53149,1,2,0:0:0:0:
242,338,53250,1,2,0:0:0:0:
272,337,53351,1,2,0:0:0:0:
300,329,53453,1,0,0:0:0:0:
329,309,53554,1,8,0:0:0:0:
351,275,53656,1,2,0:0:0:0:
390,254,53757,1,2,0:0:0:0:
434,262,53859,1,2,0:0:0:0:
459,285,53960,6,0,P|402:286|339:295,1,100,2|0,0:0|0:0,0:0:0:0:
142,192,54365,2,0,P|195:171|233:136,1,100,8|2,0:0|0:0,0:0:0:0:
208,63,54669,1,2,0:0:0:0:
194,65,54771,1,2,0:0:0:0:
232,41,54872,1,2,0:0:0:0:
277,38,54974,1,2,0:0:0:0:
318,54,55075,1,0,0:0:0:0:
340,92,55176,1,8,0:0:0:0:
335,132,55278,1,2,0:0:0:0:
326,165,55379,1,2,0:0:0:0:
330,194,55480,1,0,0:0:0:0:
345,214,55582,6,0,P|295:224|223:222,1,100,2|2,0:0|0:0,0:0:0:0:
169,284,55886,1,2,0:0:0:0:
156,295,55987,2,0,P|163:235|175:187,1,100,8|0,0:0|0:0,0:0:0:0:
385,76,56392,1,2,0:0:0:0:
367,93,56494,1,2,0:0:0:0:
345,105,56595,1,2,0:0:0:0:
320,110,56696,1,2,0:0:0:0:
289,106,56798,1,8,0:0:0:0:
257,91,56899,1,2,0:0:0:0:
214,75,57001,1,2,0:0:0:0:
169,81,57102,1,0,0:0:0:0:
136,111,57203,6,0,P|144:163|147:219,1,100,2|0,0:0|0:0,0:0:0:0:
261,346,57609,2,0,P|264:296|271:246,1,100,8|2,0:0|0:0,0:0:0:0:
340,207,57913,1,2,0:0:0:0:
350,220,58014,1,2,0:0:0:0:
308,236,58115,1,2,0:0:0:0:
262,232,58217,1,2,0:0:0:0:
227,202,58318,1,0,0:0:0:0:
215,158,58419,1,8,0:0:0:0:
226,124,58521,1,2,0:0:0:0:
235,95,58622,1,2,0:0:0:0:
222,67,58724,1,0,0:0:0:0:
201,52,58825,6,0,P|254:53|331:44,1,100,2|0,0:0|0:0,0:0:0:0:
413,227,59230,2,0,P|373:189|311:156,1,100,8|2,0:0|0:0,0:0:0:0:
255,163,59534,1,2,0:0:0:0:
240,169,59636,1,2,0:0:0:0:
226,201,59737,1,2,0:0:0:0:
229,235,59838,1,2,0:0:0:0:
244,266,59940,1,0,0:0:0:0:
272,285,60041,1,8,0:0:0:0:
296,302,60142,1,2,0:0:0:0:
309,323,60244,1,2,0:0:0:0:
312,342,60345,1,2,0:0:0:0:
306,361,60446,6,0,P|307:300|320:236,1,100,2|0,0:0|0:0,0:0:0:0:
432,60,60852,2,0,P|385:91|315:116,1,100,8|2,0:0|0:0,0:0:0:0:
262,105,61156,1,2,0:0:0:0:
249,94,61257,1,2,0:0:0:0:
290,75,61359,1,2,0:0:0:0:
334,75,61460,1,2,0:0:0:0:
373,95,61561,1,0,0:0:0:0:
399,131,61663,1,8,0:0:0:0:
430,155,61764,1,2,0:0:0:0:
464,162,61865,1,2,0:0:0:0:
493,152,61967,1,2,0:0:0:0:
504,130,62068,6,0,P|453:138|382:163,1,100,10|0,0:0|0:0,0:0:0:0:
202,66,62474,1,8,0:0:0:0:
214,85,62575,1,2,0:0:0:0:
232,102,62676,2,0,P|261:113|296:121,1,50,2|0,0:0|0:0,0:0:0:0:
133,176,62879,1,8,0:0:0:0:
121,198,62980,1,2,0:0:0:0:
115,222,63082,1,2,0:0:0:0:
281,264,63284,2,0,P|256:270|231:281,1,50,8|2,0:0|0:0,0:0:0:0:
152,357,63487,1,2,0:0:0:0:
34,156,63690,6,0,P|29:106|30:53,1,100,10|0,0:0|0:0,0:0:0:0:
212,208,64095,2,0,P|241:167|266:120,1,100,10|0,0:0|0:0,0:0:0:0:
106,57,64501,1,8,0:0:0:0:
137,274,64703,1,8,0:0:0:0:
277,136,64906,6,0,P|283:109|285:74,1,50,8|0,0:0|0:0,0:0:0:0:
288,122,65109,2,0,P|291:97|291:73,1,50,8|8,0:0|0:0,0:0:0:0:
155,231,65311,5,4,0:0:0:0:
149,246,65412,1,0,0:0:0:0:
146,263,65513,1,0,0:0:0:0:
186,263,65615,1,0,0:0:0:0:
223,277,65717,2,0,P|198:282|174:289,1,50,4|8,0:0|0:0,0:0:0:0:
304,344,65919,1,10,0:0:0:0:
324,309,66021,1,2,0:0:0:0:
354,284,66122,2,0,P|346:307|340:332,1,50,8|0,0:0|0:0,0:0:0:0:
469,223,66325,5,8,0:0:0:0:
446,211,66426,1,0,0:0:0:0:
420,210,66528,2,0,P|422:180|427:148,1,50,4|0,0:0|0:0,0:0:0:0:
269,150,66730,2,0,P|254:123|237:96,1,50,2|2,0:0|0:0,0:0:0:0:
325,321,66933,5,2,0:0:0:0:
375,341,67034,1,0,0:0:0:0:
429,336,67135,1,2,0:0:0:0:
475,306,67237,1,2,0:0:0:0:
493,254,67338,5,4,0:0:0:0:
454,277,67440,1,8,0:0:0:0:
409,282,67541,1,10,0:0:0:0:
366,268,67642,1,2,0:0:0:0:
336,233,67744,5,8,0:0:0:0:
369,243,67845,1,0,0:0:0:0:
403,239,67946,1,10,0:0:0:0:
435,225,68048,1,2,0:0:0:0:
455,197,68149,2,0,P|419:189|387:186,1,50,4|8,0:0|0:0,0:0:0:0:
203,269,68352,1,10,0:0:0:0:
211,293,68453,1,2,0:0:0:0:
210,318,68555,5,4,0:0:0:0:
153,338,68656,1,10,0:0:0:0:
95,323,68757,1,10,0:0:0:0:
62,272,68859,1,10,0:0:0:0:
71,212,68960,5,4,0:0:0:0:
121,229,69061,1,10,0:0:0:0:
173,216,69162,1,10,0:0:0:0:
203,170,69264,1,10,0:0:0:0:
195,117,69365,5,8,0:0:0:0:
175,146,69467,1,0,0:0:0:0:
169,180,69568,1,2,0:0:0:0:
178,213,69669,1,0,0:0:0:0:
191,245,69771,1,4,0:0:0:0:
205,276,69872,1,8,0:0:0:0:
210,310,69974,1,10,0:0:0:0:
205,344,70075,1,2,0:0:0:0:
187,373,70176,5,8,0:0:0:0:
201,370,70278,1,0,0:0:0:0:
215,369,70379,1,2,0:0:0:0:
229,369,70480,1,2,0:0:0:0:
243,371,70582,1,8,0:0:0:0:
282,377,70683,1,0,0:0:0:0:
321,370,70784,1,2,0:0:0:0:
346,339,70886,1,2,0:0:0:0:
347,299,70987,6,0,P|344:279|335:248,1,50,4|8,0:0|0:0,0:0:0:0:
437,142,71190,2,0,P|414:153|393:167,1,50,8|8,0:0|0:0,0:0:0:0:
210,134,71392,1,4,0:0:0:0:
250,136,71494,1,2,0:0:0:0:
283,157,71595,1,2,0:0:0:0:
413,300,71798,5,4,0:0:0:0:
410,319,71899,1,0,0:0:0:0:
407,338,72001,1,0,0:0:0:0:
369,350,72102,1,0,0:0:0:0:
329,344,72203,2,0,P|322:316|318:287,1,50,4|8,0:0|0:0,0:0:0:0:
447,227,72406,1,10,0:0:0:0:
417,200,72507,1,2,0:0:0:0:
402,162,72608,2,0,P|422:141|445:123,1,50,8|0,0:0|0:0,0:0:0:0:
278,219,72811,5,2,0:0:0:0:
253,212,72913,1,0,0:0:0:0:
227,212,73014,2,0,P|212:191|191:171,1,50,4|8,0:0|0:0,0:0:0:0:
301,346,73217,2,0,P|303:321|311:293,1,50,10|2,0:0|0:0,0:0:0:0:
467,130,73419,5,2,0:0:0:0:
422,152,73520,1,0,0:0:0:0:
373,157,73621,1,0,0:0:0:0:
325,143,73723,1,0,0:0:0:0:
285,113,73824,5,4,0:0:0:0:
333,122,73926,1,8,0:0:0:0:
375,149,74028,1,10,0:0:0:0:
404,188,74129,1,2,0:0:0:0:
419,237,74230,5,2,0:0:0:0:
390,207,74332,1,0,0:0:0:0:
375,170,74433,1,2,0:0:0:0:
372,130,74535,1,2,0:0:0:0:
387,93,74636,2,0,P|421:93|456:98,1,50,4|8,0:0|0:0,0:0:0:0:
302,230,74838,1,10,0:0:0:0:
272,222,74940,1,2,0:0:0:0:
245,229,75041,5,4,0:0:0:0:
272,277,75142,1,10,0:0:0:0:
323,299,75244,1,10,0:0:0:0:
378,291,75345,1,10,0:0:0:0:
416,250,75446,5,4,0:0:0:0:
360,251,75548,1,10,0:0:0:0:
316,218,75650,1,10,0:0:0:0:
295,166,75751,1,10,0:0:0:0:
312,113,75852,5,10,0:0:0:0:
328,137,75953,1,0,0:0:0:0:
336,166,76054,1,8,0:0:0:0:
334,196,76156,1,0,0:0:0:0:
322,223,76257,1,4,0:0:0:0:
301,245,76358,1,8,0:0:0:0:
274,258,76460,1,10,0:0:0:0:
245,262,76561,1,2,0:0:0:0:
216,256,76662,5,2,0:0:0:0:
201,253,76764,1,0,0:0:0:0:
186,254,76865,2,0,P|147:258|120:266,1,50,2|2,0:0|0:0,0:0:0:0:
149,119,77068,1,4,0:0:0:0:
168,141,77169,1,8,0:0:0:0:
195,153,77271,1,10,0:0:0:0:
224,155,77372,1,2,0:0:0:0:
252,145,77474,6,0,P|256:180|262:222,1,50,6|10,0:0|0:0,0:0:0:0:
371,70,77676,2,0,P|350:98|323:131,1,50,10|8,0:0|0:0,0:0:0:0:
163,48,77879,1,6,0:0:0:0:
202,40,77980,1,10,0:0:0:0:
239,54,78082,1,10,0:0:0:0:
362,234,78284,5,4,0:0:0:0:
365,219,78386,1,0,0:0:0:0:
193,281,78588,1,0,0:0:0:0:
196,296,78690,1,4,0:0:0:0:
162,288,78791,1,8,0:0:0:0:
127,291,78892,1,2,0:0:0:0:
95,306,78994,1,2,0:0:0:0:
70,329,79095,5,8,0:0:0:0:
100,290,79196,1,0,0:0:0:0:
103,239,79298,1,8,0:0:0:0:
83,193,79399,1,0,0:0:0:0:
50,154,79501,1,4,0:0:0:0:
38,119,79602,1,8,0:0:0:0:
39,84,79703,1,10,0:0:0:0:
60,63,79805,1,2,0:0:0:0:
84,57,79906,5,8,0:0:0:0:
96,64,80007,1,0,0:0:0:0:
109,70,80109,1,0,0:0:0:0:
123,73,80210,1,0,0:0:0:0:
137,73,80311,2,0,P|143:43|146:12,1,50,4|0,0:0|0:0,0:0:0:0:
237,142,80514,2,0,P|231:112|228:81,1,50,8|0,0:0|0:0,0:0:0:0:
92,218,80717,5,4,0:0:0:0:
136,212,80818,1,4,0:0:0:0:
179,224,80919,1,8,0:0:0:0:
210,256,81021,1,8,0:0:0:0:
223,298,81122,1,4,0:0:0:0:
353,70,81528,5,4,0:0:0:0:
352,88,81629,1,0,0:0:0:0:
193,135,81832,1,0,0:0:0:0:
192,117,81933,1,8,0:0:0:0:
223,131,82034,1,8,0:0:0:0:
245,157,82136,1,2,0:0:0:0:
255,190,82237,1,2,0:0:0:0:
252,224,82338,5,8,0:0:0:0:
298,204,82440,1,0,0:0:0:0:
347,207,82541,1,8,0:0:0:0:
388,234,82642,1,0,0:0:0:0:
406,280,82744,1,4,0:0:0:0:
362,269,82845,1,8,0:0:0:0:
327,275,82946,1,10,0:0:0:0:
302,292,83048,1,2,0:0:0:0:
289,313,83149,5,8,0:0:0:0:
295,326,83251,1,0,0:0:0:0:
305,336,83352,1,0,0:0:0:0:
318,341,83453,1,0,0:0:0:0:
332,341,83555,2,0,P|347:315|357:280,1,50,4|0,0:0|0:0,0:0:0:0:
214,221,83757,2,0,P|193:198|176:166,1,50,8|0,0:0|0:0,0:0:0:0:
401,59,83960,5,4,0:0:0:0:
419,104,84061,1,4,0:0:0:0:
409,152,84162,1,8,0:0:0:0:
372,185,84264,1,8,0:0:0:0:
323,191,84365,2,0,P|272:181|188:176,1,100,4|8,0:0|0:0,0:0:0:0:
430,337,84771,6,0,P|439:278|451:232,1,100,4|0,0:0|0:0,0:0:0:0:
340,249,85582,2,0,P|331:190|319:144,1,100,8|0,0:0|0:0,0:0:0:0:
169,77,86392,5,4,0:0:0:0:
211,170,86798,2,0,P|154:173|95:185,2,100,8|2|0,0:0|0:0|0:0,0:0:0:0:
400,294,88014,6,0,P|345:279|302:277,1,100,4|0,0:0|0:0,0:0:0:0:
135,320,88825,2,0,P|193:320|228:283,1,100,8|0,0:0|0:0,0:0:0:0:
239,121,89636,6,0,B|185:175|175:227|190:280|222:294|222:294|200:246|134:228,1,300,4|0,0:0|0:0,0:0:0:0:
291,211,91257,6,0,P|344:206|399:195,1,100,4|0,0:0|0:0,0:0:0:0:
245,280,92068,2,0,P|298:285|353:296,1,100,8|0,0:0|0:0,0:0:0:0:
158,180,92879,5,4,0:0:0:0:
99,252,93284,2,0,P|110:296|114:356,2,100,8|2|0,0:0|0:0|0:0,0:0:0:0:
47,103,94501,6,0,P|97:115|163:120,1,100,4|0,0:0|0:0,0:0:0:0:
311,167,95311,2,0,P|261:179|195:184,1,100,8|0,0:0|0:0,0:0:0:0:
155,46,96122,5,4,0:0:0:0:
102,243,96528,2,0,B|164:206|261:225|215:254|314:278|388:236,1,275,8|0,0:0|0:0,0:0:0:0:
381,228,97744,6,0,P|365:286|359:354,1,100,4|0,0:0|0:0,0:0:0:0:
278,158,98149,1,8,0:0:0:0:
272,133,98251,1,2,0:0:0:0:
260,111,98352,1,2,0:0:0:0:
151,301,98555,2,0,P|193:304|264:321,1,100,8|0,0:0|0:0,0:0:0:0:
90,147,98960,1,8,0:0:0:0:
52,305,99163,1,2,0:0:0:0:
240,144,99365,6,0,P|289:130|366:117,1,100,8|0,0:0|0:0,0:0:0:0:
422,196,99771,1,8,0:0:0:0:
277,314,99974,1,2,0:0:0:0:
255,325,100075,1,2,0:0:0:0:
231,325,100176,2,0,P|268:254|325:203,2,150,8|0|2,0:0|0:0|0:0,0:0:0:0:
112,83,100987,6,0,P|159:104|223:119,1,100,8|0,0:0|0:0,0:0:0:0:
337,65,101392,1,8,0:0:0:0:
324,86,101494,1,2,0:0:0:0:
318,110,101595,1,2,0:0:0:0:
136,238,101798,2,0,P|190:222|242:195,1,100,8|0,0:0|0:0,0:0:0:0:
353,312,102203,1,8,0:0:0:0:
330,300,102305,1,2,0:0:0:0:
305,295,102406,1,2,0:0:0:0:
100,342,102609,6,0,P|102:293|97:239,1,100,8|2,0:0|0:0,0:0:0:0:
55,178,102913,1,2,0:0:0:0:
39,174,103014,2,0,P|63:169|100:159,1,50,8|0,0:0|0:0,0:0:0:0:
159,196,103217,2,0,P|183:201|220:211,1,50,2|2,0:0|0:0,0:0:0:0:
304,180,103419,2,0,P|279:239|267:340,2,150,8|2|2,0:0|0:0|0:0,0:0:0:0:
124,79,104230,6,0,P|177:66|238:40,1,100,8|0,0:0|0:0,0:0:0:0:
37,89,104636,1,8,0:0:0:0:
50,109,104737,1,0,0:0:0:0:
56,132,104838,2,0,P|54:173|49:209,1,50,2|2,0:0|0:0,0:0:0:0:
157,204,105041,2,0,P|142:242|132:277,1,50,8|2,0:0|0:0,0:0:0:0:
143,333,105244,1,2,0:0:0:0:
318,267,105446,2,0,P|259:269|198:282,1,100,8|2,0:0|0:0,0:0:0:0:
420,88,105852,6,0,P|408:131|401:191,1,100,8|0,0:0|0:0,0:0:0:0:
453,326,106257,1,8,0:0:0:0:
282,222,106460,1,2,0:0:0:0:
306,223,106561,1,2,0:0:0:0:
330,229,106663,1,8,0:0:0:0:
265,349,106865,1,0,0:0:0:0:
170,173,107068,2,0,P|179:209|182:248,1,50,8|2,0:0|0:0,0:0:0:0:
216,110,107271,1,2,0:0:0:0:
384,268,107474,6,0,P|331:273|251:266,1,100,8|0,0:0|0:0,0:0:0:0:
425,77,107879,1,8,0:0:0:0:
410,97,107980,1,2,0:0:0:0:
402,121,108082,1,2,0:0:0:0:
200,186,108284,1,8,0:0:0:0:
224,189,108386,1,2,0:0:0:0:
246,199,108487,1,2,0:0:0:0:
343,316,108690,2,0,P|345:262|360:189,1,100,8|2,0:0|0:0,0:0:0:0:
173,335,109095,6,0,P|114:334|48:319,1,100,8|2,0:0|0:0,0:0:0:0:
168,135,109501,2,0,P|163:165|157:191,1,50,8|2,0:0|0:0,0:0:0:0:
87,232,109703,1,8,0:0:0:0:
102,251,109805,1,2,0:0:0:0:
123,263,109906,1,2,0:0:0:0:
41,77,110109,2,0,P|47:112|50:136,1,50,2|2,0:0|0:0,0:0:0:0:
103,30,110311,1,8,0:0:0:0:
245,208,110514,1,2,0:0:0:0:
221,200,110615,1,2,0:0:0:0:
196,202,110717,6,0,P|196:243|201:282,2,69.9999978637696,4|0|0,0:0|0:0|0:0,0:0:0:0:
132,313,111325,2,0,P|167:298|278:293,1,139.999995727539,8|0,0:0|0:0,0:0:0:0:
387,190,112136,2,0,P|363:189|336:186,1,34.9999989318848,2|2,0:0|0:0,0:0:0:0:
249,139,112338,6,0,B|292:134|324:138|351:151|351:151|281:152|244:88|255:26,1,279.999991455078,4|4,0:0|0:0,0:0:0:0:
139,122,113555,2,0,P|152:161|159:211,1,69.9999978637696,8|0,0:0|0:0,0:0:0:0:
256,235,113960,6,0,P|198:215|113:216,1,139.999995727539,4|0,0:0|0:0,0:0:0:0:
176,289,114568,2,0,P|234:269|319:270,1,139.999995727539,8|0,0:0|0:0,0:0:0:0:
216,110,115379,2,0,P|220:137|222:169,1,34.9999989318848,2|2,0:0|0:0,0:0:0:0:
286,180,115582,6,0,B|228:160|174:180|137:225|144:284|144:284|180:261|184:220,1,279.999991455078,4|8,0:0|0:0,0:0:0:0:
114,75,117203,6,0,P|149:68|205:51,2,69.9999978637696,4|0|0,0:0|0:0|0:0,0:0:0:0:
191,132,117811,2,0,P|264:136|329:157,1,139.999995727539,8|0,0:0|0:0,0:0:0:0:
174,238,118622,2,0,P|173:220|171:203,1,34.9999989318848,2|2,0:0|0:0,0:0:0:0:
240,296,118825,6,0,B|207:320|214:357|214:357|225:330|234:287|180:235|128:226|70:254,1,279.999991455078,4|4,0:0|0:0,0:0:0:0:
294,181,120041,2,0,P|330:191|391:193,1,69.9999978637696,8|0,0:0|0:0,0:0:0:0:
263,257,120446,6,0,P|247:184|220:123,1,139.999995727539,4|0,0:0|0:0,0:0:0:0:
229,45,121055,2,0,P|201:109|186:177,1,139.999995727539,8|0,0:0|0:0,0:0:0:0:
297,266,121865,2,0,P|270:271|241:279,1,34.9999989318848,2|2,0:0|0:0,0:0:0:0:
364,212,122068,6,0,P|258:222|198:140,1,209.999993591309,4|2,0:0|0:0,0:0:0:0:
159,78,122879,2,0,P|173:150|168:226,1,139.999995727539,8|2,0:0|0:0,0:0:0:0:
446,136,123690,6,0,P|352:148|266:175,1,180,4|0,0:0|0:0,0:0:0:0:
