osu file format v14

[General]
AudioFilename: audio.mp3
AudioLeadIn: 0
PreviewTime: 39163
Countdown: 0
SampleSet: Soft
StackLeniency: 0.7
Mode: 0
LetterboxInBreaks: 0
WidescreenStoryboard: 1

[Editor]
Bookmarks: 447,6933,19906,32879,39365,52338,65311,84771,97744,110717,123690,125514
DistanceSpacing: 1.2
BeatDivisor: 4
GridSize: 8
TimelineZoom: 1

[Metadata]
Title:Turii ~Panta rhei~
TitleUnicode:Turii ~Panta rhei~
Artist:Zektbach
ArtistUnicode:Zektbach
Creator:celerih
Version:Hyper
Source:beatmania IIDX 16 EMPRESS
Tags:Muya Realazy JBHyperion ゼクトバッハ iidx16 tomosuke funaki 舟木智介 maya takamura 高村真耶 Akiko Shikata 志方あきこ elemental chant malchut REFLEC BEAT
BeatmapID:1680866
BeatmapSetID:800638

[Difficulty]
HPDrainRate:6
CircleSize:3.5
OverallDifficulty:5.5
ApproachRate:7
SliderMultiplier:1.6
SliderTickRate:1

[Events]
//Background and Video events
0,0,"Turii BG.jpg",0,0
//Break Periods
//Storyboard Layer 0 (Background)
//Storyboard Layer 1 (Fail)
//Storyboard Layer 2 (Pass)
//Storyboard Layer 3 (Foreground)
//Storyboard Sound Samples

[TimingPoints]
447,405.405405405405,4,2,1,50,1,0
447,-125,4,2,1,60,0,0
2068,-125,4,2,1,50,0,0
3690,-125,4,3,1,60,0,0
3892,-125,4,3,1,20,0,0
4501,-125,4,3,1,40,0,0
5311,-125,4,2,1,60,0,0
6933,-125,4,3,1,60,0,0
7136,-125,4,2,2,60,0,0
9365,-125,4,2,2,70,0,0
10176,-125,4,2,2,60,0,0
12609,-125,4,2,2,70,0,0
13419,-125,4,2,2,60,0,0
15852,-125,4,2,2,70,0,0
16662,-125,4,2,2,60,0,0
19095,-125,4,2,2,70,0,0
19906,-166.666666666667,4,2,1,50,0,0
20109,-166.666666666667,4,2,1,20,0,0
21528,-166.666666666667,4,2,10,40,0,0
21730,-166.666666666667,4,2,1,20,0,0
23149,-166.666666666667,4,3,1,40,0,0
23351,-166.666666666667,4,2,1,20,0,0
24771,-166.666666666667,4,2,10,40,0,0
24973,-166.666666666667,4,2,1,20,0,0
25987,-166.666666666667,4,2,1,40,0,0
26798,-166.666666666667,4,2,10,25,0,0
27001,-166.666666666667,4,2,1,40,0,0
28014,-166.666666666667,4,2,10,40,0,0
28216,-166.666666666667,4,2,1,30,0,0
28419,-166.666666666667,4,2,10,25,0,0
28622,-166.666666666667,4,2,1,30,0,0
28825,-166.666666666667,4,2,10,25,0,0
29028,-166.666666666667,4,2,1,40,0,0
29332,-166.666666666667,4,2,1,35,0,0
29433,-166.666666666667,4,2,1,30,0,0
29534,-166.666666666667,4,2,1,25,0,0
29636,-166.666666666667,4,3,1,50,0,0
29838,-166.666666666667,4,2,1,20,0,0
30852,-166.666666666667,4,2,1,50,0,0
31257,-166.666666666667,4,2,10,40,0,0
32879,-166.666666666667,4,3,2,60,0,0
32980,-100,4,3,2,40,0,0
33284,-100,4,3,2,41,0,0
33690,-100,4,3,2,42,0,0
34095,-100,4,3,2,43,0,0
34501,-100,4,3,2,60,0,0
34602,-100,4,3,2,44,0,0
34906,-100,4,3,2,45,0,0
35311,-100,4,3,2,60,0,0
35413,-100,4,3,2,46,0,0
35717,-100,4,3,2,60,0,0
36224,-100,4,3,2,50,0,0
36528,-100,4,3,2,52,0,0
36933,-100,4,3,2,55,0,0
37338,-100,4,3,2,58,0,0
37744,-100,4,3,2,60,0,0
38149,-100,4,3,2,65,0,0
38555,-100,4,3,2,70,0,0
39365,-100,4,2,3,60,0,0
65311,-100,4,3,2,70,0,0
65413,-100,4,3,3,60,0,0
68555,-100,4,3,10,60,0,0
68656,-100,4,3,3,60,0,0
68960,-100,4,3,10,60,0,0
69061,-100,4,3,3,60,0,0
71392,-100,4,3,10,60,0,0
71494,-100,4,3,3,60,0,0
71798,-100,4,3,2,70,0,0
71900,-100,4,3,3,60,0,0
75041,-100,4,3,10,60,0,0
75142,-100,4,3,3,60,0,0
75446,-100,4,3,10,60,0,0
75547,-100,4,3,3,60,0,0
78284,-100,4,3,2,70,0,0
78386,-100,4,3,3,60,0,0
81122,-100,4,2,3,70,0,0
81528,-100,4,3,2,70,0,0
81630,-100,4,3,3,60,0,0
84771,-166.666666666667,4,2,1,60,0,0
84974,-166.666666666667,4,2,1,50,0,0
86392,-166.666666666667,4,2,10,40,0,0
86594,-166.666666666667,4,2,1,50,0,0
88014,-166.666666666667,4,3,1,60,0,0
88217,-166.666666666667,4,2,1,50,0,0
89636,-166.666666666667,4,2,10,40,0,0
89838,-166.666666666667,4,2,1,20,0,0
90852,-166.666666666667,4,2,1,50,0,0
91257,-166.666666666667,4,2,1,40,0,0
91460,-166.666666666667,4,2,1,50,0,0
92879,-166.666666666667,4,2,10,40,0,0
93081,-166.666666666667,4,2,1,50,0,0
94501,-166.666666666667,4,3,1,60,0,0
94704,-166.666666666667,4,2,1,50,0,0
96122,-166.666666666667,4,2,10,40,0,0
96324,-166.666666666667,4,2,1,50,0,0
96933,-166.666666666667,4,2,1,40,0,0
97338,-166.666666666667,4,2,1,30,0,0
97642,-166.666666666667,4,2,1,20,0,0
97744,-100,4,2,1,70,0,0
97946,-100,4,2,3,70,0,0
110717,-125,4,2,1,50,0,0
112338,-125,4,3,10,40,0,0
112439,-125,4,2,1,20,0,0
113149,-125,4,2,10,40,0,0
113351,-125,4,2,1,50,0,0
115582,-125,4,3,10,40,0,0
115683,-125,4,2,1,20,0,0
116392,-125,4,2,1,50,0,0
117203,-125,4,2,1,50,0,0
118825,-125,4,3,10,40,0,0
118926,-125,4,2,1,20,0,0
119636,-125,4,2,10,40,0,0
119838,-125,4,2,1,50,0,0
120446,-125,4,2,3,70,0,0
120649,-125,4,2,1,50,0,0
122068,-125,4,3,10,40,0,0
122169,-125,4,2,1,20,0,0
122878,-125,4,2,1,50,0,0
123690,-200,4,2,3,70,0,0
124095,-500,4,2,1,60,0,0
124501,-500,4,2,1,50,0,0
124906,-500,4,2,1,40,0,0
125311,-500,4,2,1,30,0,0

[Colours]
Combo1 : 243,243,107
Combo2 : 228,149,122
Combo3 : 152,218,152

[HitObjects]
98,146,447,6,0,P|98:118|91:76,2,64,4|0|0,0:0|0:0|0:0,0:0:0:0:
70,231,1055,2,0,P|146:238|205:266,1,128,8|0,0:0|0:0,0:0:0:0:
270,307,1663,2,0,P|306:306|340:299,1,64,0|0,0:0|0:0,0:0:0:0:
434,257,2068,6,0,P|462:256|498:262,2,64,2|0|0,0:0|0:0|0:0,0:0:0:0:
365,206,2676,2,0,P|366:144|388:63,1,128,8|0,0:0|0:0,0:0:0:0:
464,46,3284,2,0,P|469:76|469:111,1,64,8|2,0:0|0:0,0:0:0:0:
401,192,3690,6,0,P|305:149|143:173,1,256,4|2,0:0|0:0,0:0:0:0:
145,184,5311,2,0,P|138:118|121:37,1,128,8|0,0:0|0:0,0:0:0:0:
251,21,6122,2,0,P|224:73|246:146,1,128,2|0,0:0|0:0,0:0:0:0:
399,213,6933,6,0,P|348:213|286:228,1,85.3333333333333,4|0,0:0|0:0,0:0:0:0:
301,236,7338,1,8,0:0:0:0:
212,298,7744,2,0,P|161:298|99:283,1,85.3333333333333,10|0,0:0|0:0,0:0:0:0:
114,275,8149,1,8,0:0:0:0:
91,149,8555,6,0,P|89:123|79:79,2,42.6666666666667,12|0|0,0:0|0:0|0:0,0:0:0:0:
165,175,8960,2,0,P|168:149|167:104,2,42.6666666666667,8|0|0,0:0|0:0|0:0,0:0:0:0:
255,120,9365,6,0,P|251:141|250:162,2,42.6666666666667,10|0|0,0:0|0:0|0:0,0:0:0:0:
329,146,9770,2,0,P|330:167|333:188,2,42.6666666666667,8|0|0,0:0|0:0|0:0,0:0:0:0:
395,95,10176,6,0,P|451:98|505:115,1,85.3333333333333,8|0,0:0|0:0,0:0:0:0:
487,125,10581,1,8,0:0:0:0:
397,240,10987,2,0,P|341:237|287:220,1,85.3333333333333,10|0,0:0|0:0,0:0:0:0:
305,210,11392,1,8,0:0:0:0:
234,71,11798,6,0,P|232:43|219:-4,2,42.6666666666667,12|0|0,0:0|0:0|0:0,0:0:0:0:
156,59,12203,2,0,P|148:32|125:-11,2,42.6666666666667,8|0|0,0:0|0:0|0:0,0:0:0:0:
97,120,12609,6,0,P|95:148|82:195,2,42.6666666666667,10|0|0,0:0|0:0|0:0,0:0:0:0:
19,132,13014,2,0,P|11:158|-11:202,2,42.6666666666667,8|0|0,0:0|0:0|0:0,0:0:0:0:
57,236,13419,6,0,P|101:234|169:247,1,85.3333333333333,8|0,0:0|0:0,0:0:0:0:
155,252,13824,1,8,0:0:0:0:
244,201,14230,2,0,P|288:203|356:190,1,85.3333333333333,10|0,0:0|0:0,0:0:0:0:
342,185,14635,1,8,0:0:0:0:
428,253,15041,6,0,P|432:283|432:316,2,42.6666666666667,12|0|0,0:0|0:0|0:0,0:0:0:0:
357,287,15446,2,0,P|354:317|347:349,2,42.6666666666667,8|0|0,0:0|0:0|0:0,0:0:0:0:
270,246,15852,6,0,P|271:225|274:204,2,42.6666666666667,10|0|0,0:0|0:0|0:0,0:0:0:0:
198,280,16257,2,0,P|195:259|194:238,2,42.6666666666667,8|0|0,0:0|0:0|0:0,0:0:0:0:
114,244,16662,6,0,P|108:187|110:133,1,85.3333333333333,8|0,0:0|0:0,0:0:0:0:
127,148,17067,1,8,0:0:0:0:
257,117,17474,2,0,P|263:60|261:6,1,85.3333333333333,10|0,0:0|0:0,0:0:0:0:
244,21,17879,1,8,0:0:0:0:
124,45,18284,6,0,P|98:44|64:37,2,42.6666666666667,12|0|0,0:0|0:0|0:0,0:0:0:0:
158,116,18690,2,0,P|132:120|97:120,2,42.6666666666667,8|0|0,0:0|0:0|0:0,0:0:0:0:
239,195,19095,6,0,P|219:192|197:190,2,42.6666666666667,10|0|0,0:0|0:0|0:0,0:0:0:0:
205,267,19501,2,0,P|184:267|163:270,2,42.6666666666667,8|0|0,0:0|0:0|0:0,0:0:0:0:
269,329,19906,6,0,P|366:324|465:353,2,191.999994140625,4|0|4,0:0|0:0|0:0,0:0:0:0:
114,381,22338,1,0,0:0:0:0:
50,208,23149,6,0,B|118:175|211:196|178:231|262:240|344:203,1,287.999991210938,4|2,0:0|0:0,0:0:0:0:
342,95,24771,2,0,P|240:135|255:296,1,287.999991210938,4|0,0:0|0:0,0:0:0:0:
403,211,26392,6,0,L|433:208,3,23.9999992675781,2|0|0|0,0:0|0:0|0:0|0:0,0:0:0:0:
441,183,26798,2,0,L|471:186,3,23.9999992675781,10|8|0|0,0:0|0:0|0:0|0:0,0:0:0:0:
374,125,27203,2,0,P|326:120|262:133,1,95.9999970703126,8|0,0:0|0:0,0:0:0:0:
190,232,28014,6,0,P|252:136|114:88,1,287.999991210938,4|2,0:0|0:0,0:0:0:0:
20,176,29636,2,0,P|128:200|179:360,1,287.999991210938,4|2,0:0|0:0,0:0:0:0:
267,237,31257,5,4,0:0:0:0:
142,199,32879,5,4,0:0:0:0:
138,181,32980,1,0,0:0:0:0:
234,150,33183,1,0,0:0:0:0:
241,135,33284,2,0,P|263:134|287:131,3,40,0|0|0|0,0:0|0:0|0:0|0:0,0:0:0:0:
309,170,33690,2,0,P|328:170|348:173,3,40,2|0|0|0,0:0|0:0|0:0|0:0,0:0:0:0:
428,142,34095,1,2,0:0:0:0:
439,163,34196,1,0,0:0:0:0:
445,186,34298,1,0,0:0:0:0:
442,209,34399,1,0,0:0:0:0:
437,232,34501,6,0,L|433:283,2,40,4|0|0,0:0|0:0|0:0,0:0:0:0:
376,328,34906,2,0,L|380:378,2,40,2|0|0,0:0|0:0|0:0,0:0:0:0:
313,274,35311,1,4,0:0:0:0:
283,260,35413,1,0,0:0:0:0:
251,260,35514,1,0,0:0:0:0:
221,271,35615,1,0,0:0:0:0:
198,295,35717,1,4,0:0:0:0:
243,142,36122,5,4,0:0:0:0:
248,124,36223,1,0,0:0:0:0:
154,175,36426,1,0,0:0:0:0:
156,194,36527,2,0,L|160:238,3,40
124,267,36933,2,0,L|120:311,3,40,2|0|0|0,0:0|0:0|0:0|0:0,0:0:0:0:
31,253,37338,1,2,0:0:0:0:
19,232,37439,1,0,0:0:0:0:
16,208,37541,1,0,0:0:0:0:
24,185,37642,1,0,0:0:0:0:
38,165,37744,6,0,L|32:108,2,40,4|0|0,0:0|0:0|0:0,0:0:0:0:
108,217,38149,2,0,L|102:274,2,40,2|0|0,0:0|0:0|0:0,0:0:0:0:
187,191,38555,1,4,0:0:0:0:
215,205,38656,1,0,0:0:0:0:
246,208,38757,1,0,0:0:0:0:
276,199,38858,1,0,0:0:0:0:
302,180,38960,1,4,0:0:0:0:
336,33,39365,6,0,P|295:43|252:64,1,80,4|0,0:0|0:0,0:0:0:0:
204,125,39771,2,0,P|212:167|215:210,2,80,8|2|2,0:0|0:0|0:0,0:0:0:0:
129,92,40379,1,0,0:0:0:0:
133,8,40582,2,0,P|181:20|234:25,1,80,8|0,0:0|0:0,0:0:0:0:
331,90,40987,6,0,P|283:101|229:221,1,160,2|8,0:0|0:0,0:0:0:0:
270,265,41595,1,2,0:0:0:0:
377,235,41798,2,0,P|419:241|464:254,2,80,2|0|8,0:0|0:0|0:0,0:0:0:0:
340,305,42406,1,2,0:0:0:0:
260,325,42609,6,0,P|213:325|147:317,1,80,2|0,0:0|0:0,0:0:0:0:
88,243,43014,2,0,P|79:200|78:151,1,80,8|2,0:0|0:0,0:0:0:0:
140,103,43419,2,0,P|181:116|224:140,1,80,2|0,0:0|0:0,0:0:0:0:
237,219,43825,2,0,P|204:248|162:273,1,80,8|0,0:0|0:0,0:0:0:0:
96,322,44230,6,0,P|142:315|264:341,1,160,2|8,0:0|0:0,0:0:0:0:
317,383,44838,1,2,0:0:0:0:
397,300,45041,2,0,B|414:255|414:255|404:130,1,160,2|8,0:0|0:0,0:0:0:0:
389,66,45649,1,2,0:0:0:0:
282,103,45852,6,0,P|207:83|112:84,2,160,2|8|2,0:0|0:0|0:0,0:0:0:0:
331,170,46865,1,0,0:0:0:0:
302,252,47068,2,0,P|303:294|309:343,1,80,8|0,0:0|0:0,0:0:0:0:
396,355,47474,6,0,P|428:314|322:173,1,240,2|2,0:0|0:0,0:0:0:0:
270,211,48284,2,0,P|208:152|311:84,1,240,2|2,0:0|0:0,0:0:0:0:
393,138,49095,6,0,P|384:182|381:237,1,80,10|0,0:0|0:0,0:0:0:0:
316,274,49501,2,0,P|325:318|328:373,1,80,8|2,0:0|0:0,0:0:0:0:
413,329,49906,2,0,P|448:324|503:324,2,80,8|2|8,0:0|0:0|0:0,0:0:0:0:
334,367,50514,1,2,0:0:0:0:
229,315,50717,6,0,P|218:244|229:141,1,160,10|10,0:0|0:0,0:0:0:0:
286,102,51325,1,2,0:0:0:0:
359,132,51528,2,0,P|403:139|440:140,1,80,8|2,0:0|0:0,0:0:0:0:
492,215,51933,2,0,P|452:216|412:223,1,80,8|2,0:0|0:0,0:0:0:0:
341,301,52338,6,0,P|273:312|273:169,1,240,4|2,0:0|0:0,0:0:0:0:
337,185,53149,2,0,P|378:196|419:199,1,80,2|2,0:0|0:0,0:0:0:0:
490,131,53555,2,0,L|496:78,3,40,8|2|2|2,0:0|0:0|0:0|0:0,0:0:0:0:
477,46,53960,6,0,P|436:41|383:42,1,80,2|0,0:0|0:0,0:0:0:0:
345,103,54365,2,0,P|303:106|252:118,1,80,8|2,0:0|0:0,0:0:0:0:
237,199,54771,2,0,L|240:243,3,40,2|2|2|0,0:0|0:0|0:0|0:0,0:0:0:0:
278,268,55176,2,0,P|277:310|269:355,1,80,8|2,0:0|0:0,0:0:0:0:
195,376,55582,6,0,P|147:374|92:365,1,80,2|2,0:0|0:0,0:0:0:0:
52,261,55987,2,0,P|47:221|36:173,1,80,8|0,0:0|0:0,0:0:0:0:
123,180,56392,2,0,P|128:140|139:92,1,80,2|2,0:0|0:0,0:0:0:0:
225,233,56798,2,0,P|220:193|209:145,1,80,8|2,0:0|0:0,0:0:0:0:
320,238,57203,6,0,P|243:241|195:325,1,160,2|8,0:0|0:0,0:0:0:0:
255,368,57811,1,2,0:0:0:0:
346,352,58014,2,0,L|391:356,3,40,2|2|2|0,0:0|0:0|0:0|0:0,0:0:0:0:
431,341,58419,2,0,P|440:300|446:238,1,80,8|2,0:0|0:0,0:0:0:0:
396,153,58825,6,0,P|320:169|219:169,2,160,2|8|2,0:0|0:0|0:0,0:0:0:0:
432,80,59838,1,2,0:0:0:0:
512,93,60041,2,0,P|514:136|507:175,1,80,8|2,0:0|0:0,0:0:0:0:
439,252,60446,6,0,P|371:250|262:297,1,160,2|8,0:0|0:0,0:0:0:0:
235,354,61055,1,2,0:0:0:0:
132,309,61257,2,0,B|117:266|117:266|131:146,1,160,2|8,0:0|0:0,0:0:0:0:
152,70,61865,1,2,0:0:0:0:
249,124,62068,6,0,P|298:121|352:101,1,80,10|0,0:0|0:0,0:0:0:0:
386,52,62474,2,0,P|358:115|381:221,1,160,8|8,0:0|0:0,0:0:0:0:
442,239,63082,1,2,0:0:0:0:
454,321,63284,2,0,P|418:331|368:335,1,80,8|2,0:0|0:0,0:0:0:0:
275,295,63690,6,0,P|226:294|174:300,1,80,10|0,0:0|0:0,0:0:0:0:
130,347,64095,2,0,P|81:348|29:342,1,80,10|0,0:0|0:0,0:0:0:0:
6,255,64501,1,8,0:0:0:0:
26,171,64703,1,8,0:0:0:0:
108,149,64906,2,0,L|159:154,1,40,8|0,0:0|0:0,0:0:0:0:
180,181,65109,2,0,L|231:176,1,40,8|8,0:0|0:0,0:0:0:0:
284,132,65311,5,4,0:0:0:0:
306,141,65413,1,0,0:0:0:0:
329,145,65514,2,0,L|368:141,2,40,0|0|4,0:0|0:0|0:0,0:0:0:0:
285,233,65919,2,0,L|246:229,2,40,10|2|8,0:0|0:0|0:0,0:0:0:0:
331,313,66325,2,0,L|373:308,1,40,8|0,0:0|0:0,0:0:0:0:
414,321,66528,2,0,P|417:293|424:263,3,40,4|0|2|2,0:0|0:0|0:0|0:0,0:0:0:0:
452,206,66933,5,2,0:0:0:0:
434,189,67034,1,0,0:0:0:0:
411,180,67136,1,2,0:0:0:0:
387,179,67237,1,2,0:0:0:0:
363,185,67338,2,0,P|357:214|354:245,2,40,4|8|10,0:0|0:0|0:0,0:0:0:0:
281,210,67744,2,0,P|281:239|284:270,2,40,8|0|10,0:0|0:0|0:0,0:0:0:0:
204,249,68149,2,0,P|210:277|220:307,2,40,4|8|10,0:0|0:0|0:0,0:0:0:0:
127,294,68555,5,4,0:0:0:0:
96,303,68656,1,10,0:0:0:0:
64,298,68757,1,10,0:0:0:0:
36,280,68859,1,10,0:0:0:0:
24,250,68960,2,0,L|29:195,3,40,4|10|10|10,0:0|0:0|0:0|0:0,0:0:0:0:
66,182,69365,2,0,P|65:155|61:127,3,40,8|0|2|0,0:0|0:0|0:0|0:0,0:0:0:0:
151,161,69771,2,0,P|155:134|157:106,2,40,4|8|10,0:0|0:0|0:0,0:0:0:0:
221,287,70176,6,0,L|226:353,3,40,8|0|2|2,0:0|0:0|0:0|0:0,0:0:0:0:
269,344,70582,2,0,L|264:410,3,40,8|0|2|0,0:0|0:0|0:0|0:0,0:0:0:0:
325,273,70987,1,4,0:0:0:0:
343,288,71088,1,8,0:0:0:0:
364,298,71190,1,8,0:0:0:0:
387,302,71291,1,8,0:0:0:0:
410,298,71392,2,0,L|414:244,2,40,4|2|2,0:0|0:0|0:0,0:0:0:0:
337,188,71798,5,4,0:0:0:0:
323,167,71900,1,0,0:0:0:0:
310,146,72001,2,0,L|264:153,2,40,0|0|4,0:0|0:0|0:0,0:0:0:0:
200,214,72406,2,0,L|161:210,2,40,10|2|8,0:0|0:0|0:0,0:0:0:0:
84,164,72812,2,0,P|79:144|75:117,1,40,2|0,0:0|0:0,0:0:0:0:
100,90,73015,2,0,P|103:70|105:50,3,40,4|8|10|2,0:0|0:0|0:0|0:0,0:0:0:0:
166,146,73420,5,2,0:0:0:0:
184,163,73521,1,0,0:0:0:0:
207,172,73623,1,0,0:0:0:0:
231,173,73724,1,0,0:0:0:0:
255,167,73825,2,0,L|303:159,2,40,4|8|10,0:0|0:0|0:0,0:0:0:0:
314,233,74230,2,0,L|362:235,2,40,2|0|2,0:0|0:0|0:0,0:0:0:0:
349,309,74636,2,0,L|396:321,2,40,4|8|10,0:0|0:0|0:0,0:0:0:0:
275,336,75042,5,4,0:0:0:0:
243,337,75143,1,10,0:0:0:0:
211,339,75244,1,10,0:0:0:0:
179,342,75346,1,10,0:0:0:0:
147,343,75447,2,0,L|92:347,3,40,4|10|10|10,0:0|0:0|0:0|0:0,0:0:0:0:
69,316,75852,2,0,L|20:311,3,40,10|0|8|0,0:0|0:0|0:0|0:0,0:0:0:0:
43,210,76257,2,0,L|-6:215,2,40,4|8|10,0:0|0:0|0:0,0:0:0:0:
159,167,76663,6,0,P|182:174|206:187,3,40,2|0|2|2,0:0|0:0|0:0|0:0,0:0:0:0:
231,148,77068,2,0,P|249:163|265:185,3,40,4|8|10|2,0:0|0:0|0:0|0:0,0:0:0:0:
309,90,77474,5,6,0:0:0:0:
331,99,77575,1,10,0:0:0:0:
348,115,77677,1,10,0:0:0:0:
357,136,77778,1,8,0:0:0:0:
360,159,77879,2,0,L|354:211,2,40,6|10|10,0:0|0:0|0:0,0:0:0:0:
307,269,78284,5,4,0:0:0:0:
311,287,78385,1,0,0:0:0:0:
224,345,78588,1,0,0:0:0:0:
217,360,78689,2,0,P|195:361|171:364,3,40,4|8|2|2,0:0|0:0|0:0|0:0,0:0:0:0:
105,314,79095,1,8,0:0:0:0:
93,284,79196,1,0,0:0:0:0:
98,252,79298,1,8,0:0:0:0:
117,227,79399,1,0,0:0:0:0:
148,221,79501,2,0,L|187:224,3,40,4|8|10|2,0:0|0:0|0:0|0:0,0:0:0:0:
244,281,79906,6,0,L|240:332,2,40,8|0|0,0:0|0:0|0:0,0:0:0:0:
320,327,80311,2,0,L|324:377,2,40,4|0|8,0:0|0:0|0:0,0:0:0:0:
390,287,80716,1,4,0:0:0:0:
404,257,80818,1,4,0:0:0:0:
404,225,80919,1,8,0:0:0:0:
393,195,81020,1,8,0:0:0:0:
369,173,81122,1,4,0:0:0:0:
230,214,81528,5,4,0:0:0:0:
212,218,81629,1,0,0:0:0:0:
131,169,81832,1,0,0:0:0:0:
114,165,81933,2,0,P|113:143|110:119,3,40,8|8|2|2,0:0|0:0|0:0|0:0,0:0:0:0:
181,74,82339,1,8,0:0:0:0:
203,66,82440,1,0,0:0:0:0:
227,67,82542,1,8,0:0:0:0:
250,73,82643,1,0,0:0:0:0:
268,88,82745,2,0,L|266:131,3,40,4|0|0|0,0:0|0:0|0:0|0:0,0:0:0:0:
332,180,83150,6,0,L|328:231,2,40,8|0|0,0:0|0:0|0:0,0:0:0:0:
252,213,83555,2,0,L|256:263,2,40,4|0|8,0:0|0:0|0:0,0:0:0:0:
177,184,83960,1,4,0:0:0:0:
147,198,84062,1,4,0:0:0:0:
115,198,84163,1,8,0:0:0:0:
85,187,84264,1,8,0:0:0:0:
64,164,84366,1,4,0:0:0:0:
108,36,84771,6,0,P|164:45|207:56,1,95.9999970703126,4|0,0:0|0:0,0:0:0:0:
279,129,85582,2,0,P|335:120|378:109,1,95.9999970703126,8|0,0:0|0:0,0:0:0:0:
472,16,86392,5,4,0:0:0:0:
509,133,86798,2,0,P|507:186|500:233,2,95.9999970703126,8|2|0,0:0|0:0|0:0,0:0:0:0:
402,172,88014,6,0,P|348:185|300:189,1,95.9999970703126,4|0,0:0|0:0,0:0:0:0:
235,271,88825,2,0,P|181:258|133:254,1,95.9999970703126,8|0,0:0|0:0,0:0:0:0:
63,157,89636,2,0,P|119:128|247:274,1,287.999991210938,4|0,0:0|0:0,0:0:0:0:
163,345,91257,6,0,P|213:349|265:360,1,95.9999970703126,4|0,0:0|0:0,0:0:0:0:
348,291,92068,2,0,P|398:287|450:276,1,95.9999970703126,8|0,0:0|0:0,0:0:0:0:
472,162,92879,5,4,0:0:0:0:
393,66,93284,2,0,P|359:66|280:56,2,95.9999970703126,8|2|0,0:0|0:0|0:0,0:0:0:0:
333,157,94501,6,0,P|322:203|317:251,1,95.9999970703126,4|0,0:0|0:0,0:0:0:0:
248,341,95311,2,0,P|243:293|232:246,1,95.9999970703126,8|0,0:0|0:0,0:0:0:0:
140,163,96122,5,4,0:0:0:0:
256,94,96528,2,0,P|326:110|306:247,1,239.999992675781,8|0,0:0|0:0,0:0:0:0:
200,300,97744,6,0,P|158:292|115:291,1,80,4|0,0:0|0:0,0:0:0:0:
53,233,98149,2,0,P|92:217|131:192,1,80,8|2,0:0|0:0,0:0:0:0:
151,123,98555,2,0,P|187:140|225:151,1,80,8|0,0:0|0:0,0:0:0:0:
310,138,98960,1,8,0:0:0:0:
264,284,99365,6,0,P|184:300|88:274,1,160,8|8,0:0|0:0,0:0:0:0:
58,223,99974,1,2,0:0:0:0:
100,119,100176,2,0,P|97:64|74:-16,2,120,8|0|2,0:0|0:0|0:0,0:0:0:0:
144,202,100987,6,0,P|180:202|234:210,1,80,8|0,0:0|0:0,0:0:0:0:
304,261,101392,2,0,P|299:220|302:174,1,80,8|2,0:0|0:0,0:0:0:0:
328,100,101798,2,0,P|284:109|213:114,1,80,8|0,0:0|0:0,0:0:0:0:
201,177,102203,2,0,P|157:168|86:163,1,80,8|2,0:0|0:0,0:0:0:0:
63,223,102609,6,0,P|123:281|209:275,1,160,8|8,0:0|0:0,0:0:0:0:
259,235,103217,1,2,0:0:0:0:
351,301,103419,2,0,P|412:299|476:311,2,120,8|2|2,0:0|0:0|0:0,0:0:0:0:
283,355,104230,6,0,P|247:331|204:314,1,80,8|0,0:0|0:0,0:0:0:0:
130,332,104636,2,0,P|142:294|148:254,1,80,8|2,0:0|0:0,0:0:0:0:
131,170,105041,2,0,P|168:182|208:188,1,80,8|2,0:0|0:0,0:0:0:0:
263,245,105446,2,0,P|302:241|341:230,1,80,8|2,0:0|0:0,0:0:0:0:
406,177,105852,6,0,P|392:231|393:328,2,120,8|0|2,0:0|0:0|0:0,0:0:0:0:
446,92,106663,2,0,P|388:102|300:98,2,120,8|0|2,0:0|0:0|0:0,0:0:0:0:
382,17,107474,6,0,P|338:16|286:22,1,80,8|0,0:0|0:0,0:0:0:0:
229,83,107879,2,0,P|272:91|321:107,1,80,8|2,0:0|0:0,0:0:0:0:
378,145,108284,2,0,P|341:170|303:205,1,80,8|2,0:0|0:0,0:0:0:0:
234,208,108690,2,0,P|256:245|277:293,1,80,8|2,0:0|0:0,0:0:0:0:
338,333,109095,6,0,P|260:312|164:332,1,160,8|8,0:0|0:0,0:0:0:0:
116,374,109703,1,8,0:0:0:0:
40,291,109906,2,0,B|26:244|26:244|42:127,1,160,2|8,0:0|0:0,0:0:0:0:
56,54,110514,1,2,0:0:0:0:
167,85,110717,6,0,P|195:85|234:77,2,64,4|0|0,0:0|0:0|0:0,0:0:0:0:
125,147,111325,2,0,P|193:140|265:172,1,128,8|0,0:0|0:0,0:0:0:0:
313,277,112136,1,2,0:0:0:0:
399,308,112338,6,0,B|434:280|454:230|454:230|414:153|424:64,1,256,4|4,0:0|0:0,0:0:0:0:
304,146,113555,2,0,P|269:155|230:153,1,64,8|0,0:0|0:0,0:0:0:0:
179,99,113960,6,0,P|198:155|197:237,1,128,4|0,0:0|0:0,0:0:0:0:
176,299,114568,2,0,P|231:279|313:280,1,128,8|0,0:0|0:0,0:0:0:0:
430,357,115379,1,2,0:0:0:0:
478,282,115582,6,0,B|417:261|332:267|367:307|279:313|214:282,1,256,4|8,0:0|0:0,0:0:0:0:
129,124,117203,6,0,P|92:120|44:124,2,64,4|0|0,0:0|0:0|0:0,0:0:0:0:
182,187,117811,2,0,P|243:169|307:166,1,128,8|0,0:0|0:0,0:0:0:0:
415,270,118622,1,2,0:0:0:0:
329,290,118825,6,0,B|302:309|284:332|284:332|222:344|148:336|89:298,1,256,4|4,0:0|0:0,0:0:0:0:
90,161,120041,2,0,P|130:162|174:173,1,64,8|0,0:0|0:0,0:0:0:0:
185,243,120446,6,0,P|197:180|222:121,1,128,4|0,0:0|0:0,0:0:0:0:
280,66,121055,2,0,P|342:93|407:108,1,128,8|0,0:0|0:0,0:0:0:0:
467,241,121865,1,2,0:0:0:0:
383,210,122068,6,0,P|281:219|211:287,1,192,4|2,0:0|0:0,0:0:0:0:
171,343,122879,2,0,P|185:274|180:201,1,128,8|2,0:0|0:0,0:0:0:0:
142,78,123690,6,0,P|268:38|259:213,1,360,4|0,0:0|0:0,0:0:0:0:
