osu file format v14

[General]
AudioFilename: audio.mp3
AudioLeadIn: 0
PreviewTime: 39163
Countdown: 0
SampleSet: None
StackLeniency: 0.7
Mode: 0
LetterboxInBreaks: 0
WidescreenStoryboard: 1

[Editor]
Bookmarks: 447,6933,19906,32879,39365,52338,65311,84771,97744,110717,123690,125514
DistanceSpacing: 1
BeatDivisor: 4
GridSize: 8
TimelineZoom: 1

[Metadata]
Title:Turii ~Panta rhei~
TitleUnicode:Turii ~Panta rhei~
Artist:Zektbach
ArtistUnicode:Zektbach
Creator:celerih
Version:Beginner
Source:beatmania IIDX 16 EMPRESS
Tags:Muya Realazy JBHyperion ゼクトバッハ iidx16 tomosuke funaki 舟木智介 maya takamura 高村真耶 Akiko Shikata 志方あきこ elemental chant malchut REFLEC BEAT
BeatmapID:1680865
BeatmapSetID:800638

[Difficulty]
HPDrainRate:4
CircleSize:2.5
OverallDifficulty:3
ApproachRate:4.5
SliderMultiplier:0.9
SliderTickRate:1

[Events]
//Background and Video events
0,0,"Turii BG.jpg",0,0
//Break Periods
2,84971,96484
//Storyboard Layer 0 (Background)
//Storyboard Layer 1 (Fail)
//Storyboard Layer 2 (Pass)
//Storyboard Layer 3 (Foreground)
//Storyboard Sound Samples

[TimingPoints]
447,405.405405405405,4,2,1,50,1,0
447,-100,4,2,1,60,0,0
2068,-100,4,2,1,50,0,0
3690,-100,4,3,1,60,0,0
3892,-100,4,3,1,20,0,0
4501,-100,4,3,1,40,0,0
5311,-100,4,2,1,60,0,0
6933,-100,4,3,1,60,0,0
7136,-100,4,2,2,60,0,0
9365,-100,4,2,2,70,0,0
10176,-100,4,2,2,60,0,0
12609,-100,4,2,2,70,0,0
13419,-100,4,2,2,60,0,0
15852,-100,4,2,2,70,0,0
16662,-100,4,2,2,60,0,0
19095,-100,4,2,2,70,0,0
19906,-100,4,2,1,50,0,0
20109,-100,4,2,1,20,0,0
21528,-100,4,2,10,40,0,0
21730,-100,4,2,1,20,0,0
23149,-100,4,3,1,40,0,0
23351,-100,4,2,1,20,0,0
24771,-100,4,2,10,40,0,0
24973,-100,4,2,1,20,0,0
25987,-100,4,2,1,40,0,0
26798,-100,4,2,10,25,0,0
27001,-100,4,2,1,40,0,0
28014,-100,4,2,10,40,0,0
28216,-100,4,2,1,30,0,0
28419,-100,4,2,10,25,0,0
28622,-100,4,2,1,30,0,0
28825,-100,4,2,10,25,0,0
29028,-100,4,2,1,40,0,0
29332,-100,4,2,1,35,0,0
29433,-100,4,2,1,30,0,0
29534,-100,4,2,1,25,0,0
29636,-100,4,3,1,50,0,0
29838,-100,4,2,1,20,0,0
30852,-100,4,2,1,50,0,0
31257,-100,4,2,10,40,0,0
32879,-100,4,3,2,60,0,0
32980,-100,4,3,2,40,0,0
33284,-100,4,3,2,41,0,0
33690,-100,4,3,2,42,0,0
34095,-100,4,3,2,43,0,0
34501,-100,4,3,2,60,0,0
34602,-100,4,3,2,44,0,0
34906,-100,4,3,2,45,0,0
35311,-100,4,3,2,60,0,0
35413,-100,4,3,2,46,0,0
35717,-100,4,3,2,60,0,0
36224,-100,4,3,2,50,0,0
36528,-100,4,3,2,52,0,0
36933,-100,4,3,2,55,0,0
37338,-100,4,3,2,58,0,0
37744,-100,4,3,2,60,0,0
38149,-100,4,3,2,65,0,0
38555,-100,4,3,2,70,0,0
39365,-100,4,2,3,60,0,0
65311,-100,4,3,2,70,0,0
65413,-100,4,3,3,60,0,0
68555,-100,4,3,10,60,0,0
68656,-100,4,3,3,60,0,0
68960,-100,4,3,10,60,0,0
69061,-100,4,3,3,60,0,0
71392,-100,4,3,10,60,0,0
71494,-100,4,3,3,60,0,0
71798,-100,4,3,2,70,0,0
71900,-100,4,3,3,60,0,0
75041,-100,4,3,10,60,0,0
75142,-100,4,3,3,60,0,0
75446,-100,4,3,10,60,0,0
75547,-100,4,3,3,60,0,0
78284,-100,4,3,2,70,0,0
78386,-100,4,3,3,60,0,0
81122,-100,4,2,3,70,0,0
81528,-100,4,3,2,70,0,0
81630,-100,4,3,3,60,0,0
84771,-100,4,2,1,60,0,0
97744,-100,4,2,1,70,0,0
97946,-100,4,2,3,70,0,0
110717,-100,4,2,1,50,0,0
112338,-100,4,3,10,40,0,0
112439,-100,4,2,1,20,0,0
113149,-100,4,2,10,40,0,0
113351,-100,4,2,1,50,0,0
115582,-100,4,3,10,40,0,0
115683,-100,4,2,1,20,0,0
116392,-100,4,2,1,50,0,0
117203,-100,4,2,1,50,0,0
118825,-100,4,3,10,40,0,0
118926,-100,4,2,1,20,0,0
119636,-100,4,2,10,40,0,0
119838,-100,4,2,1,50,0,0
120446,-100,4,2,3,70,0,0
120649,-100,4,2,1,50,0,0
122068,-100,4,3,10,40,0,0
122169,-100,4,2,1,20,0,0
122878,-100,4,2,1,50,0,0
123690,-100,4,2,3,70,0,0
124095,-100,4,2,1,60,0,0
124501,-100,4,2,1,50,0,0
124906,-100,4,2,1,40,0,0
125311,-100,4,2,1,30,0,0

[Colours]
Combo1 : 243,243,107
Combo2 : 228,149,122
Combo3 : 152,218,152

[HitObjects]
127,155,447,6,0,P|193:155|271:170,2,135,4|8|0,0:0|0:0|0:0,0:0:0:0:
53,206,2068,2,0,P|53:251|233:318,1,270,2|8,0:0|0:0,0:0:0:0:
283,249,3690,5,4,0:0:0:0:
254,71,4501,1,2,0:0:0:0:
418,146,5311,2,0,P|471:144|511:138,2,90,8|0|2,0:0|0:0|0:0,0:0:0:0:
341,98,6528,1,0,0:0:0:0:
254,123,6933,6,0,P|264:176|267:225,1,90,4|8,0:0|0:0,0:0:0:0:
203,275,7744,1,10,0:0:0:0:
114,262,8149,1,8,0:0:0:0:
222,95,10176,6,0,P|212:148|209:197,1,90,8|8,0:0|0:0,0:0:0:0:
273,247,10987,1,10,0:0:0:0:
362,234,11392,1,8,0:0:0:0:
313,300,13419,6,0,P|323:247|326:198,1,90,8|8,0:0|0:0,0:0:0:0:
296,125,14230,1,10,0:0:0:0:
331,42,14635,1,8,0:0:0:0:
183,329,16663,6,0,P|173:276|170:227,1,90,8|8,0:0|0:0,0:0:0:0:
200,154,17474,1,10,0:0:0:0:
165,71,17879,1,8,0:0:0:0:
364,158,19906,6,0,P|384:254|376:341,2,180,4|0|4,0:0|0:0|0:0,0:0:0:0:
188,119,22338,1,0,0:0:0:0:
203,298,23149,2,0,P|363:296|391:121,1,360,4|4,0:0|0:0,0:0:0:0:
159,140,26392,6,0,P|146:204|165:334,2,180,2|8|4,0:0|0:0|0:0,0:0:0:0:
427,170,29230,1,2,0:0:0:0:
388,251,29636,2,0,P|294:269|319:82,1,360,4|4,0:0|0:0,0:0:0:0:
444,180,32879,6,0,P|402:173|350:171,1,90,4|0,0:0|0:0,0:0:0:0:
270,203,33690,1,2,0:0:0:0:
185,172,34095,1,2,0:0:0:0:
103,209,34501,2,0,P|54:209|12:200,1,90,4|2,0:0|0:0,0:0:0:0:
4,111,35311,2,0,L|-2:55,2,45,4|0|4,0:0|0:0|0:0,0:0:0:0:
97,113,36122,6,0,P|139:106|191:104,1,90,4|0,0:0|0:0,0:0:0:0:
274,123,36933,1,2,0:0:0:0:
306,206,37338,1,2,0:0:0:0:
284,293,37744,2,0,P|329:292|390:282,1,90,4|2,0:0|0:0,0:0:0:0:
442,232,38554,2,0,P|467:233|499:237,2,45,4|0|4,0:0|0:0|0:0,0:0:0:0:
380,166,39365,6,0,P|332:159|277:157,2,90,4|8|2,0:0|0:0|0:0,0:0:0:0:
444,102,40582,1,8,0:0:0:0:
374,44,40987,2,0,P|267:67|191:35,1,180,2|2,0:0|0:0,0:0:0:0:
113,34,42203,2,0,P|94:74|80:124,1,90,8|2,0:0|0:0,0:0:0:0:
155,168,43014,5,8,0:0:0:0:
212,236,43419,2,0,P|213:286|206:340,1,90,2|8,0:0|0:0,0:0:0:0:
129,368,44230,2,0,P|218:342|312:353,1,180,2|2,0:0|0:0,0:0:0:0:
387,383,45446,1,8,0:0:0:0:
453,306,45852,6,0,L|461:213,2,90,2|8|2,0:0|0:0|0:0,0:0:0:0:
371,345,47068,1,8,0:0:0:0:
282,329,47474,2,0,P|266:244|275:138,1,180,2|2,0:0|0:0,0:0:0:0:
335,86,48690,1,8,0:0:0:0:
421,108,49095,6,0,P|451:246|352:255,1,270,10|8,0:0|0:0,0:0:0:0:
289,195,50717,2,0,P|177:221|219:357,1,270,10|8,0:0|0:0,0:0:0:0:
289,363,52338,6,0,P|337:356|392:354,2,90,4|8|2,0:0|0:0|0:0,0:0:0:0:
234,290,53555,1,8,0:0:0:0:
241,200,53960,2,0,P|336:197|412:241,1,180,2|2,0:0|0:0,0:0:0:0:
497,248,55176,2,0,P|501:203|500:158,1,90,8|2,0:0|0:0,0:0:0:0:
470,73,55987,5,8,0:0:0:0:
399,17,56392,2,0,P|349:16|295:23,1,90,2|8,0:0|0:0,0:0:0:0:
266,99,57203,2,0,P|279:190|279:287,1,180,2|2,0:0|0:0,0:0:0:0:
204,327,58419,1,8,0:0:0:0:
124,284,58825,6,0,P|78:294|18:293,2,90,2|8|2,0:0|0:0|0:0,0:0:0:0:
187,214,60041,1,8,0:0:0:0:
276,223,60447,2,0,P|353:218|462:248,1,180,2|2,0:0|0:0,0:0:0:0:
479,328,61663,1,8,0:0:0:0:
396,364,62068,6,0,P|269:325|118:337,1,270,10|8,0:0|0:0,0:0:0:0:
46,355,63690,2,0,P|41:260|98:198,1,180,10|8,0:0|0:0,0:0:0:0:
252,250,65311,6,0,P|255:301|261:348,2,90,4|4|8,0:0|0:0|0:0,0:0:0:0:
280,163,66528,1,4,0:0:0:0:
369,164,66933,2,0,P|414:170|475:169,1,90,2|4,0:0|0:0,0:0:0:0:
490,77,67744,2,0,P|445:82|400:83,1,90,8|4,0:0|0:0,0:0:0:0:
322,38,68555,5,4,0:0:0:0:
232,39,68960,1,4,0:0:0:0:
177,110,69365,2,0,P|178:163|186:214,1,90,8|4,0:0|0:0,0:0:0:0:
224,279,70176,2,0,P|274:267|329:263,1,90,8|8,0:0|0:0,0:0:0:0:
400,280,70987,2,0,P|402:304|403:334,2,45,4|8|4,0:0|0:0|0:0,0:0:0:0:
450,205,71798,6,0,P|453:154|459:107,2,90,4|4|8,0:0|0:0|0:0,0:0:0:0:
455,295,73015,1,4,0:0:0:0:
376,250,73420,2,0,P|331:244|270:245,1,90,2|0,0:0|0:0,0:0:0:0:
211,293,74231,2,0,P|166:298|121:299,1,90,2|4,0:0|0:0,0:0:0:0:
58,234,75042,5,4,0:0:0:0:
45,144,75447,1,4,0:0:0:0:
101,73,75852,2,0,P|145:78|190:79,1,90,10|4,0:0|0:0,0:0:0:0:
277,55,76663,2,0,P|289:105|293:160,1,90,2|4,0:0|0:0,0:0:0:0:
252,223,77474,2,0,P|225:220|197:219,2,45,6|10|6,0:0|0:0|0:0,0:0:0:0:
304,296,78284,5,0,0:0:0:0:
378,131,79095,2,0,P|333:109|292:94,1,90,8|4,0:0|0:0,0:0:0:0:
235,162,79906,2,0,P|192:184|145:201,2,90,8|4|4,0:0|0:0|0:0,0:0:0:0:
275,81,81122,1,4,0:0:0:0:
202,27,81528,5,0,0:0:0:0:
77,146,82338,2,0,P|106:184|128:221,1,90,8|4,0:0|0:0,0:0:0:0:
203,268,83149,2,0,P|196:326|196:371,2,90,8|4|4,0:0|0:0|0:0,0:0:0:0:
275,214,84365,1,4,0:0:0:0:
364,218,84771,5,4,0:0:0:0:
330,303,97744,5,4,0:0:0:0:
252,256,98149,2,0,P|201:261|153:261,1,90,8|8,0:0|0:0,0:0:0:0:
84,216,98960,1,8,0:0:0:0:
110,130,99365,2,0,P|189:113|291:158,1,180,8|8,0:0|0:0,0:0:0:0:
307,233,100582,1,0,0:0:0:0:
275,317,100987,6,0,P|226:309|170:305,1,90,8|8,0:0|0:0,0:0:0:0:
116,247,101798,2,0,P|67:255|11:259,1,90,8|8,0:0|0:0,0:0:0:0:
0,175,102609,2,0,P|58:131|168:131,1,180,8|8,0:0|0:0,0:0:0:0:
233,183,103825,1,0,0:0:0:0:
314,220,104230,5,8,0:0:0:0:
402,200,104636,2,0,P|408:150|411:102,1,90,8|8,0:0|0:0,0:0:0:0:
349,44,105446,1,8,0:0:0:0:
270,88,105852,2,0,P|187:89|101:39,1,180,8|8,0:0|0:0,0:0:0:0:
14,54,107069,1,8,0:0:0:0:
50,136,107474,6,0,P|58:185|62:241,1,90,8|8,0:0|0:0,0:0:0:0:
51,314,108285,2,0,P|100:322|156:326,1,90,8|8,0:0|0:0,0:0:0:0:
221,287,109096,2,0,P|315:289|398:255,1,180,8|2,0:0|0:0,0:0:0:0:
374,78,110717,6,0,P|311:63|235:55,2,135,4|8|0,0:0|0:0|0:0,0:0:0:0:
452,121,112338,2,0,P|441:198|393:236,1,135,4|4,0:0|0:0,0:0:0:0:
277,175,113555,1,8,0:0:0:0:
193,142,113960,6,0,P|127:159|49:164,2,135,4|8|0,0:0|0:0|0:0,0:0:0:0:
268,92,115582,2,0,P|338:96|411:121,1,135,4|8,0:0|0:0,0:0:0:0:
406,325,117203,6,0,P|339:339|264:339,2,135,4|8|0,0:0|0:0|0:0,0:0:0:0:
448,245,118825,2,0,P|384:215|320:202,1,135,4|4,0:0|0:0,0:0:0:0:
198,258,120041,1,8,0:0:0:0:
119,214,120446,6,0,P|114:156|101:81,2,135,4|8|0,0:0|0:0|0:0,0:0:0:0:
97,301,122068,2,0,P|169:325|242:324,1,135,4|8,0:0|0:0,0:0:0:0:
303,148,123690,6,0,P|106:116|119:273,1,405,4|0,0:0|0:0,0:0:0:0:
