osu file format v14

[General]
AudioFilename: audio.mp3
AudioLeadIn: 0
PreviewTime: 39260
Countdown: 0
SampleSet: Normal
StackLeniency: 0.7
Mode: 1
LetterboxInBreaks: 0
WidescreenStoryboard: 0

[Editor]
DistanceSpacing: 1
BeatDivisor: 4
GridSize: 32
TimelineZoom: 1

[Metadata]
Title:Turii ~Panta rhei~
TitleUnicode:Turii ~Panta rhei~
Artist:Zektbach
ArtistUnicode:Zektbach
Creator:Yales
Version:Inner Oni
Source:beatmania IIDX 16 EMPRESS
Tags:ゼクトバッハ iidx16 tomosuke funaki 舟木智介 maya takamura 高村真耶 Akiko Shikata 志方あきこ elemental chant malchut REFLEC BEAT Video Game Konami Ron [R] greek instrumental
BeatmapID:1884714
BeatmapSetID:902770

[Difficulty]
HPDrainRate:5
CircleSize:2
OverallDifficulty:6
ApproachRate:5
SliderMultiplier:1.4
SliderTickRate:1

[Events]
//Background and Video events
0,0,"bg.jpg",0,-80
//Break Periods
//Storyboard Layer 0 (Background)
//Storyboard Layer 1 (Fail)
//Storyboard Layer 2 (Pass)
//Storyboard Layer 3 (Foreground)
//Storyboard Layer 4 (Overlay)
//Storyboard Sound Samples

[TimingPoints]
443,405.405405405405,4,1,0,70,1,0
443,-111.111111111111,4,1,0,50,0,0
6929,-100,4,1,0,60,0,0
20105,-111.111111111111,4,1,0,30,0,0
24665,-111.111111111111,4,1,0,50,0,0
26287,-111.111111111111,4,1,0,30,0,0
29429,-111.111111111111,4,1,0,50,0,0
32875,-100,4,1,0,60,0,0
35915,-95.2380952380952,4,1,0,60,0,0
39361,-100,4,1,0,70,0,1
64902,-100,4,1,0,70,0,0
65307,-95.2380952380952,4,1,0,70,0,1
78280,-97.5609756097561,4,1,0,70,0,0
78382,-100,4,1,0,60,0,0
84902,-111.111111111111,4,1,0,45,0,0
96422,-125,4,1,0,30,0,0
97740,-100,4,1,0,70,0,1
110713,-100,4,1,0,70,0,0
110915,-100,4,1,0,55,0,0

[Colours]
Combo1 : 186,182,135
Combo2 : 189,113,113
Combo3 : 102,137,176
Combo4 : 126,164,119

[HitObjects]
256,192,443,5,12,0:0:0:0:
256,192,848,1,0,0:0:0:0:
256,192,1051,1,8,0:0:0:0:
256,192,1253,1,8,0:0:0:0:
256,192,1456,1,0,0:0:0:0:
256,192,1659,1,8,0:0:0:0:
256,192,1861,1,8,0:0:0:0:
256,192,2064,1,0,0:0:0:0:
256,192,2267,1,0,0:0:0:0:
256,192,2470,1,8,0:0:0:0:
256,192,2672,1,0,0:0:0:0:
256,192,3078,1,0,0:0:0:0:
256,192,3280,1,8,0:0:0:0:
256,192,3483,1,8,0:0:0:0:
256,192,3686,1,4,0:0:0:0:
256,192,4091,1,8,0:0:0:0:
256,192,4497,1,0,0:0:0:0:
256,192,4902,1,8,0:0:0:0:
256,192,5105,1,0,0:0:0:0:
256,192,5307,1,8,0:0:0:0:
256,192,5510,1,8,0:0:0:0:
256,192,5713,1,0,0:0:0:0:
256,192,5915,1,0,0:0:0:0:
256,192,6118,1,8,0:0:0:0:
256,192,6524,1,0,0:0:0:0:
256,192,6929,5,12,0:0:0:0:
256,192,7199,1,0,0:0:0:0:
256,192,7334,1,8,0:0:0:0:
256,192,7470,1,0,0:0:0:0:
256,192,7605,1,0,0:0:0:0:
256,192,7740,1,8,0:0:0:0:
256,192,7875,1,8,0:0:0:0:
256,192,8010,1,0,0:0:0:0:
256,192,8145,1,8,0:0:0:0:
252,199,8213,1,8,0:0:0:0:
256,192,8280,1,0,0:0:0:0:
249,187,8415,1,0,0:0:0:0:
256,192,8551,1,8,0:0:0:0:
256,192,8686,1,8,0:0:0:0:
256,192,8821,1,8,0:0:0:0:
256,192,8956,1,0,0:0:0:0:
256,192,9091,1,8,0:0:0:0:
256,192,9226,1,8,0:0:0:0:
256,192,9361,1,0,0:0:0:0:
256,192,9497,1,8,0:0:0:0:
256,192,9632,1,0,0:0:0:0:
256,192,9767,1,8,0:0:0:0:
268,203,9834,1,8,0:0:0:0:
256,183,9902,1,8,0:0:0:0:
256,192,10037,1,0,0:0:0:0:
256,192,10172,1,8,0:0:0:0:
256,192,10307,1,0,0:0:0:0:
267,193,10442,1,0,0:0:0:0:
256,192,10578,1,0,0:0:0:0:
256,192,10713,1,8,0:0:0:0:
256,192,10848,1,0,0:0:0:0:
256,192,10983,1,8,0:0:0:0:
256,192,11118,1,8,0:0:0:0:
256,192,11253,1,0,0:0:0:0:
256,192,11388,1,8,0:0:0:0:
255,205,11456,1,8,0:0:0:0:
256,192,11524,1,0,0:0:0:0:
265,195,11659,1,0,0:0:0:0:
256,192,11794,1,8,0:0:0:0:
256,192,11929,1,8,0:0:0:0:
256,192,12064,1,0,0:0:0:0:
256,192,12199,1,8,0:0:0:0:
256,192,12334,1,0,0:0:0:0:
256,192,12470,1,8,0:0:0:0:
256,192,12605,1,8,0:0:0:0:
256,192,12740,1,0,0:0:0:0:
256,192,12875,1,0,0:0:0:0:
256,192,13010,1,8,0:0:0:0:
269,200,13078,1,8,0:0:0:0:
256,192,13145,1,8,0:0:0:0:
267,192,13280,1,0,0:0:0:0:
256,192,13415,1,8,0:0:0:0:
256,192,13551,1,0,0:0:0:0:
256,192,13686,1,0,0:0:0:0:
256,192,13821,1,8,0:0:0:0:
256,192,13956,1,0,0:0:0:0:
256,192,14091,1,8,0:0:0:0:
265,192,14226,1,8,0:0:0:0:
256,192,14361,1,0,0:0:0:0:
256,192,14497,1,0,0:0:0:0:
256,192,14632,1,8,0:0:0:0:
270,200,14699,1,8,0:0:0:0:
256,192,14767,1,0,0:0:0:0:
247,193,14902,1,0,0:0:0:0:
256,192,15037,1,8,0:0:0:0:
256,192,15172,1,8,0:0:0:0:
256,192,15307,1,0,0:0:0:0:
256,192,15442,1,8,0:0:0:0:
256,192,15577,1,0,0:0:0:0:
256,192,15712,1,0,0:0:0:0:
256,192,15847,1,8,0:0:0:0:
256,192,15982,1,0,0:0:0:0:
256,192,16118,1,0,0:0:0:0:
256,192,16253,1,8,0:0:0:0:
268,200,16321,1,8,0:0:0:0:
256,192,16388,1,8,0:0:0:0:
249,186,16524,1,0,0:0:0:0:
256,192,16658,1,8,0:0:0:0:
256,184,16794,1,0,0:0:0:0:
268,191,16929,1,0,0:0:0:0:
256,192,17064,1,8,0:0:0:0:
256,192,17199,1,0,0:0:0:0:
256,192,17334,1,8,0:0:0:0:
256,192,17470,1,8,0:0:0:0:
256,192,17605,1,0,0:0:0:0:
256,192,17740,1,0,0:0:0:0:
256,192,17875,1,8,0:0:0:0:
268,200,17942,1,8,0:0:0:0:
256,192,18010,1,0,0:0:0:0:
263,196,18145,1,0,0:0:0:0:
256,192,18280,1,8,0:0:0:0:
256,192,18415,1,0,0:0:0:0:
262,196,18551,1,8,0:0:0:0:
256,192,18686,1,8,0:0:0:0:
256,192,18821,1,0,0:0:0:0:
256,192,18956,1,8,0:0:0:0:
256,192,19092,1,8,0:0:0:0:
256,192,19227,1,0,0:0:0:0:
256,192,19361,1,0,0:0:0:0:
256,192,19497,1,8,0:0:0:0:
267,200,19564,1,8,0:0:0:0:
256,192,19632,1,8,0:0:0:0:
256,192,19767,1,0,0:0:0:0:
256,192,19902,1,12,0:0:0:0:
256,192,20307,12,0,24361,0:0:0:0:
256,192,24767,5,4,0:0:0:0:
256,192,25172,5,8,0:0:0:0:
256,192,26388,12,0,29226,0:0:0:0:
256,192,29632,5,4,0:0:0:0:
256,192,30442,1,0,0:0:0:0:
256,192,30848,1,0,0:0:0:0:
256,192,31051,1,0,0:0:0:0:
256,192,31253,5,8,0:0:0:0:
256,192,32875,5,12,0:0:0:0:
256,192,33078,1,0,0:0:0:0:
256,192,33280,1,8,0:0:0:0:
256,192,33382,1,8,0:0:0:0:
256,192,33483,1,0,0:0:0:0:
256,192,33686,1,8,0:0:0:0:
256,192,33888,1,0,0:0:0:0:
256,192,33990,1,0,0:0:0:0:
256,192,34091,1,8,0:0:0:0:
256,192,34294,1,0,0:0:0:0:
256,192,34497,1,12,0:0:0:0:
256,192,34699,1,0,0:0:0:0:
256,192,34801,1,0,0:0:0:0:
256,192,34902,1,0,0:0:0:0:
256,192,35105,1,0,0:0:0:0:
256,192,35307,1,12,0:0:0:0:
256,192,35510,1,0,0:0:0:0:
256,192,35713,1,12,0:0:0:0:
256,192,36118,1,12,0:0:0:0:
256,192,36321,1,0,0:0:0:0:
256,192,36524,1,8,0:0:0:0:
256,192,36625,1,8,0:0:0:0:
256,192,36726,1,0,0:0:0:0:
256,192,36828,1,0,0:0:0:0:
256,192,36929,1,8,0:0:0:0:
256,192,37132,1,0,0:0:0:0:
256,192,37334,1,8,0:0:0:0:
256,192,37436,1,8,0:0:0:0:
256,192,37537,1,0,0:0:0:0:
256,192,37740,5,12,0:0:0:0:
256,192,37942,1,0,0:0:0:0:
256,192,38044,1,8,0:0:0:0:
256,192,38145,1,8,0:0:0:0:
256,192,38247,1,8,0:0:0:0:
256,192,38348,1,0,0:0:0:0:
256,192,38551,1,12,0:0:0:0:
256,192,38753,1,0,0:0:0:0:
256,192,38956,1,12,0:0:0:0:
256,192,39361,5,4,0:0:0:0:
256,192,39564,1,0,0:0:0:0:
256,192,39767,1,8,0:0:0:0:
256,192,39970,1,0,0:0:0:0:
256,192,40071,1,0,0:0:0:0:
256,192,40172,1,8,0:0:0:0:
256,192,40375,1,0,0:0:0:0:
256,192,40578,1,8,0:0:0:0:
256,192,40679,1,8,0:0:0:0:
256,192,40780,1,0,0:0:0:0:
256,192,40882,1,0,0:0:0:0:
256,192,40983,1,8,0:0:0:0:
256,192,41186,1,0,0:0:0:0:
256,192,41389,1,8,0:0:0:0:
256,192,41490,1,0,0:0:0:0:
256,192,41693,1,0,0:0:0:0:
256,192,41794,1,8,0:0:0:0:
256,192,41896,1,8,0:0:0:0:
256,192,41997,1,0,0:0:0:0:
256,192,42098,1,0,0:0:0:0:
256,192,42199,1,8,0:0:0:0:
256,192,42402,1,0,0:0:0:0:
256,192,42605,1,8,0:0:0:0:
256,192,42807,1,0,0:0:0:0:
256,192,42909,1,0,0:0:0:0:
256,192,43010,1,8,0:0:0:0:
256,192,43111,1,0,0:0:0:0:
256,192,43213,1,0,0:0:0:0:
256,192,43314,1,8,0:0:0:0:
256,192,43415,1,8,0:0:0:0:
256,192,43618,1,0,0:0:0:0:
256,192,43821,1,8,0:0:0:0:
256,192,44024,1,0,0:0:0:0:
256,192,44125,1,0,0:0:0:0:
256,192,44226,1,8,0:0:0:0:
256,192,44328,1,0,0:0:0:0:
256,192,44530,1,0,0:0:0:0:
256,192,44632,1,8,0:0:0:0:
256,192,44834,1,0,0:0:0:0:
256,192,45037,1,8,0:0:0:0:
256,192,45138,1,0,0:0:0:0:
256,192,45240,1,8,0:0:0:0:
256,192,45341,1,0,0:0:0:0:
256,192,45442,1,8,0:0:0:0:
256,192,45544,1,8,0:0:0:0:
256,192,45645,1,0,0:0:0:0:
256,192,45848,5,8,0:0:0:0:
256,192,46051,1,0,0:0:0:0:
256,192,46152,1,0,0:0:0:0:
256,192,46253,1,8,0:0:0:0:
256,192,46355,1,8,0:0:0:0:
256,192,46456,1,8,0:0:0:0:
256,192,46557,1,0,0:0:0:0:
256,192,46659,1,8,0:0:0:0:
256,192,46861,1,0,0:0:0:0:
256,192,47064,1,8,0:0:0:0:
256,192,47165,1,8,0:0:0:0:
256,192,47267,1,0,0:0:0:0:
256,192,47470,1,8,0:0:0:0:
256,192,47672,1,0,0:0:0:0:
256,192,47774,1,0,0:0:0:0:
256,192,47875,1,8,0:0:0:0:
256,192,47976,1,8,0:0:0:0:
256,192,48179,1,0,0:0:0:0:
256,192,48280,1,8,0:0:0:0:
256,192,48382,1,8,0:0:0:0:
256,192,48483,1,8,0:0:0:0:
256,192,48584,1,0,0:0:0:0:
256,192,48686,1,8,0:0:0:0:
256,192,48888,1,0,0:0:0:0:
256,192,49091,1,8,0:0:0:0:
256,192,49192,1,0,0:0:0:0:
256,192,49294,1,8,0:0:0:0:
256,192,49395,1,8,0:0:0:0:
256,192,49497,1,0,0:0:0:0:
256,192,49598,1,0,0:0:0:0:
256,192,49699,1,8,0:0:0:0:
256,192,49902,1,8,0:0:0:0:
256,192,50105,1,0,0:0:0:0:
256,192,50206,1,0,0:0:0:0:
256,192,50307,1,8,0:0:0:0:
256,192,50510,1,0,0:0:0:0:
256,192,50713,1,8,0:0:0:0:
256,192,50814,1,0,0:0:0:0:
256,192,51017,1,0,0:0:0:0:
256,192,51118,1,8,0:0:0:0:
256,192,51220,1,0,0:0:0:0:
256,192,51321,1,0,0:0:0:0:
256,192,51422,1,8,0:0:0:0:
256,192,51524,1,0,0:0:0:0:
256,192,51625,1,8,0:0:0:0:
256,192,51726,1,8,0:0:0:0:
256,192,51828,1,0,0:0:0:0:
256,192,51929,1,8,0:0:0:0:
256,192,52132,1,0,0:0:0:0:
256,192,52334,1,12,0:0:0:0:
256,192,52537,1,0,0:0:0:0:
256,192,52638,1,0,0:0:0:0:
256,192,52740,1,8,0:0:0:0:
256,192,52942,1,0,0:0:0:0:
256,192,53145,1,8,0:0:0:0:
256,192,53247,1,0,0:0:0:0:
256,192,53348,1,0,0:0:0:0:
256,192,53449,1,8,0:0:0:0:
256,192,53551,1,8,0:0:0:0:
256,192,53652,1,0,0:0:0:0:
256,192,53753,1,8,0:0:0:0:
256,192,53855,1,8,0:0:0:0:
256,192,53956,1,0,0:0:0:0:
256,192,54159,1,0,0:0:0:0:
256,192,54361,1,8,0:0:0:0:
256,192,54564,1,0,0:0:0:0:
256,192,54767,1,8,0:0:0:0:
256,192,54868,1,8,0:0:0:0:
256,192,54970,1,0,0:0:0:0:
256,192,55071,1,8,0:0:0:0:
256,192,55172,1,0,0:0:0:0:
256,192,55274,1,0,0:0:0:0:
256,192,55375,1,8,0:0:0:0:
256,192,55476,1,8,0:0:0:0:
256,192,55578,1,0,0:0:0:0:
256,192,55780,1,0,0:0:0:0:
256,192,55983,1,8,0:0:0:0:
256,192,56186,1,0,0:0:0:0:
256,192,56388,1,8,0:0:0:0:
256,192,56490,1,0,0:0:0:0:
256,192,56591,1,0,0:0:0:0:
256,192,56692,1,8,0:0:0:0:
256,192,56794,1,0,0:0:0:0:
256,192,56895,1,8,0:0:0:0:
256,192,56997,1,8,0:0:0:0:
256,192,57098,1,8,0:0:0:0:
256,192,57199,1,0,0:0:0:0:
256,192,57402,1,0,0:0:0:0:
256,192,57503,1,0,0:0:0:0:
256,192,57605,1,8,0:0:0:0:
256,192,57807,1,0,0:0:0:0:
256,192,58010,1,8,0:0:0:0:
256,192,58111,1,0,0:0:0:0:
256,192,58213,1,8,0:0:0:0:
256,192,58314,1,8,0:0:0:0:
256,192,58415,1,0,0:0:0:0:
256,192,58517,1,8,0:0:0:0:
256,192,58618,1,0,0:0:0:0:
256,192,58720,1,0,0:0:0:0:
256,192,58821,1,8,0:0:0:0:
256,192,59024,1,0,0:0:0:0:
256,192,59125,1,0,0:0:0:0:
256,192,59226,1,8,0:0:0:0:
256,192,59429,1,0,0:0:0:0:
256,192,59632,1,8,0:0:0:0:
256,192,59733,1,8,0:0:0:0:
256,192,59834,1,0,0:0:0:0:
256,192,59936,1,0,0:0:0:0:
256,192,60037,1,0,0:0:0:0:
256,192,60138,1,8,0:0:0:0:
256,192,60240,1,0,0:0:0:0:
256,192,60341,1,0,0:0:0:0:
256,192,60442,1,8,0:0:0:0:
256,192,60645,1,0,0:0:0:0:
256,192,60848,1,8,0:0:0:0:
256,192,60949,1,8,0:0:0:0:
256,192,61051,1,0,0:0:0:0:
256,192,61152,1,0,0:0:0:0:
256,192,61253,1,8,0:0:0:0:
256,192,61355,1,8,0:0:0:0:
256,192,61456,1,0,0:0:0:0:
256,192,61557,1,8,0:0:0:0:
256,192,61659,1,8,0:0:0:0:
256,192,61861,1,0,0:0:0:0:
256,192,62064,1,8,0:0:0:0:
256,192,62165,1,8,0:0:0:0:
256,192,62267,1,0,0:0:0:0:
256,192,62470,1,8,0:0:0:0:
256,192,62571,1,0,0:0:0:0:
256,192,62672,1,0,0:0:0:0:
256,192,62875,1,8,0:0:0:0:
256,192,62976,1,8,0:0:0:0:
256,192,63078,1,0,0:0:0:0:
256,192,63280,1,8,0:0:0:0:
256,192,63382,1,0,0:0:0:0:
256,192,63483,1,0,0:0:0:0:
256,192,63686,1,8,0:0:0:0:
256,192,63787,1,8,0:0:0:0:
256,192,63888,1,0,0:0:0:0:
256,192,63990,1,0,0:0:0:0:
256,192,64091,1,8,0:0:0:0:
256,192,64192,1,8,0:0:0:0:
256,192,64294,1,8,0:0:0:0:
256,192,64395,1,0,0:0:0:0:
256,192,64497,1,8,0:0:0:0:
256,192,64598,1,8,0:0:0:0:
256,192,64699,1,0,0:0:0:0:
256,192,64902,1,0,0:0:0:0:
256,192,65003,1,8,0:0:0:0:
256,192,65105,1,0,0:0:0:0:
256,192,65307,1,12,0:0:0:0:
256,192,65510,1,0,0:0:0:0:
256,192,65611,1,0,0:0:0:0:
256,192,65713,1,8,0:0:0:0:
256,192,65915,1,8,0:0:0:0:
256,192,66017,1,0,0:0:0:0:
256,192,66118,1,8,0:0:0:0:
256,192,66321,1,0,0:0:0:0:
256,192,66422,1,8,0:0:0:0:
256,192,66524,1,0,0:0:0:0:
256,192,66726,1,0,0:0:0:0:
256,192,66828,1,0,0:0:0:0:
256,192,66929,1,8,0:0:0:0:
256,192,67030,1,8,0:0:0:0:
256,192,67132,1,0,0:0:0:0:
256,192,67233,1,0,0:0:0:0:
256,192,67334,1,8,0:0:0:0:
256,192,67436,1,8,0:0:0:0:
256,192,67537,1,0,0:0:0:0:
256,192,67638,1,0,0:0:0:0:
256,192,67740,1,8,0:0:0:0:
256,192,67841,1,0,0:0:0:0:
256,192,67942,1,8,0:0:0:0:
256,192,68044,1,8,0:0:0:0:
256,192,68145,1,0,0:0:0:0:
256,192,68348,1,8,0:0:0:0:
256,192,68449,1,8,0:0:0:0:
256,192,68551,1,0,0:0:0:0:
256,192,68652,1,8,0:0:0:0:
256,192,68753,1,8,0:0:0:0:
256,192,68855,1,8,0:0:0:0:
256,192,68956,1,0,0:0:0:0:
256,192,69057,1,8,0:0:0:0:
256,192,69159,1,8,0:0:0:0:
256,192,69260,1,8,0:0:0:0:
256,192,69361,1,0,0:0:0:0:
256,192,69463,1,8,0:0:0:0:
256,192,69564,1,0,0:0:0:0:
256,192,69665,1,0,0:0:0:0:
256,192,69767,1,8,0:0:0:0:
256,192,69868,1,8,0:0:0:0:
256,192,69970,1,0,0:0:0:0:
256,192,70172,1,8,0:0:0:0:
256,192,70274,1,0,0:0:0:0:
256,192,70375,1,0,0:0:0:0:
256,192,70476,1,8,0:0:0:0:
256,192,70578,1,0,0:0:0:0:
256,192,70679,1,0,0:0:0:0:
256,192,70780,1,8,0:0:0:0:
256,192,70882,1,8,0:0:0:0:
256,192,70983,1,8,0:0:0:0:
256,192,71084,1,0,0:0:0:0:
256,192,71186,1,8,0:0:0:0:
256,192,71287,1,8,0:0:0:0:
256,192,71388,1,0,0:0:0:0:
256,192,71490,1,8,0:0:0:0:
256,192,71591,1,0,0:0:0:0:
256,192,71794,1,12,0:0:0:0:
256,192,71997,1,0,0:0:0:0:
256,192,72098,1,0,0:0:0:0:
256,192,72199,1,8,0:0:0:0:
256,192,72402,1,8,0:0:0:0:
256,192,72503,1,0,0:0:0:0:
256,192,72605,1,8,0:0:0:0:
256,192,72807,1,0,0:0:0:0:
256,192,72909,1,8,0:0:0:0:
256,192,73010,1,0,0:0:0:0:
256,192,73213,1,0,0:0:0:0:
256,192,73314,1,0,0:0:0:0:
256,192,73415,1,8,0:0:0:0:
256,192,73517,1,8,0:0:0:0:
256,192,73618,1,0,0:0:0:0:
256,192,73720,1,0,0:0:0:0:
256,192,73821,1,8,0:0:0:0:
256,192,73922,1,8,0:0:0:0:
256,192,74024,1,0,0:0:0:0:
256,192,74125,1,0,0:0:0:0:
256,192,74226,1,8,0:0:0:0:
256,192,74328,1,0,0:0:0:0:
256,192,74429,1,8,0:0:0:0:
256,192,74530,1,8,0:0:0:0:
256,192,74632,1,0,0:0:0:0:
256,192,74834,1,8,0:0:0:0:
256,192,74936,1,8,0:0:0:0:
256,192,75037,1,0,0:0:0:0:
256,192,75138,1,8,0:0:0:0:
256,192,75240,1,8,0:0:0:0:
256,192,75341,1,8,0:0:0:0:
256,192,75442,1,0,0:0:0:0:
256,192,75544,1,8,0:0:0:0:
256,192,75645,1,8,0:0:0:0:
256,192,75747,1,8,0:0:0:0:
256,192,75848,1,0,0:0:0:0:
256,192,75949,1,8,0:0:0:0:
256,192,76051,1,0,0:0:0:0:
256,192,76152,1,0,0:0:0:0:
256,192,76253,1,8,0:0:0:0:
256,192,76355,1,0,0:0:0:0:
256,192,76456,1,8,0:0:0:0:
256,192,76557,1,8,0:0:0:0:
256,192,76659,1,0,0:0:0:0:
256,192,76760,1,0,0:0:0:0:
256,192,76861,1,0,0:0:0:0:
256,192,76963,1,8,0:0:0:0:
256,192,77064,1,0,0:0:0:0:
256,192,77165,1,0,0:0:0:0:
256,192,77267,1,8,0:0:0:0:
256,192,77368,1,0,0:0:0:0:
256,192,77470,1,8,0:0:0:0:
256,192,77571,1,8,0:0:0:0:
256,192,77672,1,0,0:0:0:0:
256,192,77774,1,8,0:0:0:0:
256,192,77875,1,0,0:0:0:0:
256,192,77976,1,0,0:0:0:0:
256,192,78078,1,8,0:0:0:0:
256,192,78280,1,12,0:0:0:0:
256,192,78483,1,0,0:0:0:0:
256,192,78686,1,8,0:0:0:0:
256,192,78787,1,8,0:0:0:0:
256,192,78888,1,0,0:0:0:0:
256,192,78990,1,0,0:0:0:0:
256,192,79091,1,8,0:0:0:0:
256,192,79192,1,0,0:0:0:0:
256,192,79294,1,0,0:0:0:0:
256,192,79497,1,8,0:0:0:0:
256,192,79699,1,0,0:0:0:0:
256,192,79801,1,0,0:0:0:0:
256,192,79902,1,8,0:0:0:0:
256,192,80003,1,0,0:0:0:0:
256,192,80206,1,0,0:0:0:0:
256,192,80307,1,8,0:0:0:0:
256,192,80510,1,0,0:0:0:0:
256,192,80611,1,0,0:0:0:0:
256,192,80713,1,8,0:0:0:0:
256,192,80814,1,0,0:0:0:0:
256,192,80915,1,8,0:0:0:0:
256,192,81017,1,8,0:0:0:0:
256,192,81118,1,0,0:0:0:0:
256,192,81321,1,0,0:0:0:0:
256,192,81524,1,12,0:0:0:0:
256,192,81726,1,0,0:0:0:0:
256,192,81929,1,8,0:0:0:0:
256,192,82030,1,0,0:0:0:0:
256,192,82132,1,8,0:0:0:0:
256,192,82233,1,8,0:0:0:0:
256,192,82334,1,0,0:0:0:0:
256,192,82436,1,8,0:0:0:0:
256,192,82537,1,8,0:0:0:0:
256,192,82638,1,8,0:0:0:0:
256,192,82740,1,0,0:0:0:0:
256,192,82942,1,0,0:0:0:0:
256,192,83044,1,0,0:0:0:0:
256,192,83145,1,8,0:0:0:0:
256,192,83247,1,0,0:0:0:0:
265,191,83449,1,0,0:0:0:0:
256,192,83551,1,8,0:0:0:0:
256,192,83753,1,0,0:0:0:0:
256,192,83855,1,0,0:0:0:0:
256,192,83956,1,8,0:0:0:0:
256,192,84057,1,0,0:0:0:0:
256,192,84159,1,8,0:0:0:0:
256,192,84260,1,8,0:0:0:0:
256,192,84361,1,0,0:0:0:0:
256,192,84564,1,0,0:0:0:0:
256,192,84767,1,12,0:0:0:0:
256,192,85274,1,0,0:0:0:0:
256,192,85375,1,0,0:0:0:0:
256,192,85476,1,0,0:0:0:0:
256,192,85578,1,8,0:0:0:0:
256,192,85983,1,0,0:0:0:0:
256,192,86186,1,0,0:0:0:0:
256,192,86388,1,8,0:0:0:0:
256,192,86794,1,0,0:0:0:0:
269,198,86997,1,8,0:0:0:0:
256,192,87199,1,0,0:0:0:0:
256,192,87605,1,8,0:0:0:0:
256,192,87807,1,0,0:0:0:0:
256,192,88010,1,8,0:0:0:0:
249,203,88111,1,8,0:0:0:0:
262,204,88213,1,0,0:0:0:0:
256,192,88415,1,0,0:0:0:0:
263,199,88517,1,8,0:0:0:0:
256,192,88618,1,0,0:0:0:0:
256,192,88720,1,0,0:0:0:0:
256,192,88821,1,8,0:0:0:0:
256,192,89024,1,0,0:0:0:0:
256,192,89226,1,8,0:0:0:0:
256,192,89632,1,8,0:0:0:0:
256,192,89834,1,8,0:0:0:0:
256,192,90037,1,0,0:0:0:0:
256,192,90240,1,8,0:0:0:0:
256,192,90442,1,0,0:0:0:0:
256,192,90645,1,8,0:0:0:0:
256,192,90848,1,8,0:0:0:0:
256,192,91051,1,8,0:0:0:0:
256,192,91253,1,4,0:0:0:0:
256,192,91659,1,8,0:0:0:0:
256,192,91861,1,0,0:0:0:0:
256,192,92064,1,8,0:0:0:0:
256,192,92470,5,8,0:0:0:0:
256,192,92571,1,8,0:0:0:0:
264,187,92672,1,0,0:0:0:0:
256,192,92774,1,8,0:0:0:0:
256,192,92875,1,0,0:0:0:0:
256,192,93078,1,0,0:0:0:0:
256,192,93280,1,8,0:0:0:0:
256,192,93686,1,0,0:0:0:0:
256,192,94091,1,8,0:0:0:0:
256,192,94192,1,0,0:0:0:0:
256,192,94294,1,8,0:0:0:0:
256,192,94395,1,8,0:0:0:0:
256,192,94497,1,0,0:0:0:0:
256,192,94699,1,0,0:0:0:0:
256,192,94902,1,8,0:0:0:0:
256,192,95307,1,0,0:0:0:0:
245,185,95510,1,0,0:0:0:0:
256,192,95713,1,8,0:0:0:0:
256,192,96118,1,8,0:0:0:0:
256,192,96524,12,0,97334,0:0:0:0:
256,192,97740,5,12,0:0:0:0:
256,192,97942,1,0,0:0:0:0:
256,192,98044,1,0,0:0:0:0:
256,192,98145,1,8,0:0:0:0:
256,192,98247,1,0,0:0:0:0:
256,192,98348,1,0,0:0:0:0:
256,192,98449,1,8,0:0:0:0:
256,192,98551,1,8,0:0:0:0:
256,192,98753,1,0,0:0:0:0:
256,192,98956,1,0,0:0:0:0:
256,192,99057,1,8,0:0:0:0:
256,192,99159,1,8,0:0:0:0:
256,192,99361,1,4,0:0:0:0:
256,192,99564,1,8,0:0:0:0:
256,192,99665,1,0,0:0:0:0:
256,192,99767,1,8,0:0:0:0:
256,192,99868,1,8,0:0:0:0:
256,192,99970,1,0,0:0:0:0:
256,192,100071,1,0,0:0:0:0:
256,192,100172,1,8,0:0:0:0:
256,192,100375,1,0,0:0:0:0:
256,192,100578,1,8,0:0:0:0:
256,192,100780,1,0,0:0:0:0:
256,192,100882,1,8,0:0:0:0:
256,192,100983,1,0,0:0:0:0:
256,192,101186,1,0,0:0:0:0:
256,192,101388,1,8,0:0:0:0:
256,192,101490,1,8,0:0:0:0:
256,192,101591,1,0,0:0:0:0:
256,192,101692,1,0,0:0:0:0:
256,192,101794,1,8,0:0:0:0:
256,192,101895,1,0,0:0:0:0:
256,192,101997,1,0,0:0:0:0:
256,192,102098,1,0,0:0:0:0:
256,192,102199,1,8,0:0:0:0:
256,192,102402,1,8,0:0:0:0:
256,192,102605,1,4,0:0:0:0:
256,192,102807,1,8,0:0:0:0:
256,192,102909,1,0,0:0:0:0:
256,192,103010,1,0,0:0:0:0:
256,192,103111,1,8,0:0:0:0:
256,192,103213,1,0,0:0:0:0:
256,192,103314,1,0,0:0:0:0:
256,192,103415,1,8,0:0:0:0:
256,192,103517,1,8,0:0:0:0:
256,192,103618,1,8,0:0:0:0:
256,192,103720,1,0,0:0:0:0:
256,192,103821,1,8,0:0:0:0:
256,192,103922,1,8,0:0:0:0:
256,192,104024,1,0,0:0:0:0:
256,192,104125,1,0,0:0:0:0:
256,192,104226,1,8,0:0:0:0:
256,192,104429,1,0,0:0:0:0:
256,192,104632,1,8,0:0:0:0:
256,192,104733,1,8,0:0:0:0:
256,192,104834,1,0,0:0:0:0:
256,192,104936,1,8,0:0:0:0:
256,192,105037,1,0,0:0:0:0:
256,192,105138,1,0,0:0:0:0:
256,192,105240,1,8,0:0:0:0:
256,192,105341,1,0,0:0:0:0:
256,192,105442,1,8,0:0:0:0:
256,192,105544,1,8,0:0:0:0:
256,192,105645,1,0,0:0:0:0:
256,192,105848,1,4,0:0:0:0:
256,192,106051,1,0,0:0:0:0:
256,192,106152,1,8,0:0:0:0:
256,192,106253,1,8,0:0:0:0:
256,192,106355,1,8,0:0:0:0:
256,192,106456,1,0,0:0:0:0:
256,192,106557,1,8,0:0:0:0:
256,192,106659,1,0,0:0:0:0:
256,192,106760,1,0,0:0:0:0:
256,192,106861,1,8,0:0:0:0:
256,192,107064,1,8,0:0:0:0:
256,192,107165,1,0,0:0:0:0:
256,192,107267,1,8,0:0:0:0:
256,192,107368,1,8,0:0:0:0:
256,192,107470,1,0,0:0:0:0:
256,192,107672,1,0,0:0:0:0:
256,192,107875,1,8,0:0:0:0:
256,192,107976,1,8,0:0:0:0:
256,192,108078,1,0,0:0:0:0:
256,192,108280,1,8,0:0:0:0:
256,192,108382,1,0,0:0:0:0:
256,192,108483,1,0,0:0:0:0:
256,192,108584,1,8,0:0:0:0:
256,192,108686,1,8,0:0:0:0:
256,192,108787,1,0,0:0:0:0:
256,192,108888,1,8,0:0:0:0:
256,192,109091,1,4,0:0:0:0:
256,192,109294,1,8,0:0:0:0:
256,192,109395,1,8,0:0:0:0:
256,192,109497,1,0,0:0:0:0:
256,192,109598,1,0,0:0:0:0:
256,192,109699,1,8,0:0:0:0:
256,192,109801,1,8,0:0:0:0:
256,192,109902,1,0,0:0:0:0:
256,192,110003,1,8,0:0:0:0:
256,192,110105,1,0,0:0:0:0:
256,192,110206,1,0,0:0:0:0:
256,192,110307,1,8,0:0:0:0:
256,192,110510,1,0,0:0:0:0:
256,192,110713,1,12,0:0:0:0:
240,178,111321,1,0,0:0:0:0:
256,192,111524,1,8,0:0:0:0:
266,183,111726,1,0,0:0:0:0:
256,192,111828,1,0,0:0:0:0:
281,185,111929,1,0,0:0:0:0:
256,203,112132,1,0,0:0:0:0:
256,192,112334,1,8,0:0:0:0:
267,192,112638,1,0,0:0:0:0:
252,187,112942,1,8,0:0:0:0:
255,188,113044,1,8,0:0:0:0:
256,192,113145,1,0,0:0:0:0:
267,192,113551,1,0,0:0:0:0:
271,196,113753,1,0,0:0:0:0:
256,192,113956,1,12,0:0:0:0:
269,192,114361,1,0,0:0:0:0:
303,182,114564,1,8,0:0:0:0:
256,192,114767,1,0,0:0:0:0:
288,201,115071,1,8,0:0:0:0:
288,212,115375,1,0,0:0:0:0:
289,204,115476,1,0,0:0:0:0:
256,192,115578,1,8,0:0:0:0:
256,192,115882,1,0,0:0:0:0:
256,192,116186,1,8,0:0:0:0:
257,190,116287,1,8,0:0:0:0:
256,192,116388,1,0,0:0:0:0:
256,192,116692,1,0,0:0:0:0:
256,192,116997,1,0,0:0:0:0:
256,192,117199,1,12,0:0:0:0:
269,207,117807,1,8,0:0:0:0:
256,192,118010,1,0,0:0:0:0:
265,203,118213,1,8,0:0:0:0:
261,202,118314,1,8,0:0:0:0:
261,202,118415,1,8,0:0:0:0:
269,207,118618,1,8,0:0:0:0:
256,192,118821,1,0,0:0:0:0:
267,204,119024,1,8,0:0:0:0:
256,192,119429,1,8,0:0:0:0:
256,192,119632,1,0,0:0:0:0:
291,182,120037,1,8,0:0:0:0:
288,197,120240,1,0,0:0:0:0:
256,192,120442,1,12,0:0:0:0:
286,204,120848,1,0,0:0:0:0:
256,192,121051,1,0,0:0:0:0:
288,197,121253,1,8,0:0:0:0:
257,197,121557,1,0,0:0:0:0:
260,193,121861,1,8,0:0:0:0:
256,192,122064,1,0,0:0:0:0:
256,192,122368,1,8,0:0:0:0:
256,192,122672,1,8,0:0:0:0:
256,192,122774,1,0,0:0:0:0:
256,192,122875,1,8,0:0:0:0:
256,192,123179,1,8,0:0:0:0:
256,192,123483,1,8,0:0:0:0:
256,192,123686,1,4,0:0:0:0:
