osu file format v14

[General]
AudioFilename: audio.mp3
AudioLeadIn: 0
PreviewTime: 39260
Countdown: 0
SampleSet: Normal
StackLeniency: 0.7
Mode: 1
LetterboxInBreaks: 0
WidescreenStoryboard: 0

[Editor]
DistanceSpacing: 1
BeatDivisor: 4
GridSize: 32
TimelineZoom: 1

[Metadata]
Title:Turii ~Panta rhei~
TitleUnicode:Turii ~Panta rhei~
Artist:Zektbach
ArtistUnicode:Zektbach
Creator:Yales
Version:Futsuu
Source:beatmania IIDX 16 EMPRESS
Tags:ゼクトバッハ iidx16 tomosuke funaki 舟木智介 maya takamura 高村真耶 Akiko Shikata 志方あきこ elemental chant malchut REFLEC BEAT Video Game Konami Ron [R] greek instrumental
BeatmapID:2281049
BeatmapSetID:902770

[Difficulty]
HPDrainRate:6
CircleSize:2
OverallDifficulty:4
ApproachRate:5
SliderMultiplier:1.4
SliderTickRate:1

[Events]
//Background and Video events
0,0,"bg.jpg",0,-80
//Break Periods
//Storyboard Layer 0 (Background)
//Storyboard Layer 1 (Fail)
//Storyboard Layer 2 (Pass)
//Storyboard Layer 3 (Foreground)
//Storyboard Layer 4 (Overlay)
//Storyboard Sound Samples

[TimingPoints]
443,405.405405405405,4,1,0,70,1,0
443,-100,4,1,0,50,0,0
6929,-100,4,1,0,60,0,0
20105,-100,4,1,0,30,0,0
24665,-100,4,1,0,50,0,0
26287,-100,4,1,0,30,0,0
29429,-100,4,1,0,50,0,0
32875,-100,4,1,0,60,0,0
35915,-100,4,1,0,60,0,0
39361,-100,4,1,0,70,0,1
64902,-100,4,1,0,70,0,0
65307,-100,4,1,0,70,0,1
78280,-100,4,1,0,70,0,0
78382,-100,4,1,0,60,0,0
84902,-100,4,1,0,45,0,0
97740,-100,4,1,0,70,0,1
110713,-100,4,1,0,70,0,0
110915,-100,4,1,0,55,0,0

[Colours]
Combo1 : 186,182,135
Combo2 : 189,113,113
Combo3 : 102,137,176
Combo4 : 126,164,119

[HitObjects]
256,192,443,5,12,0:0:0:0:
256,192,1051,1,0,0:0:0:0:
256,192,2064,1,0,0:0:0:0:
256,192,2672,1,8,0:0:0:0:
256,192,3686,1,4,0:0:0:0:
256,192,4497,1,8,0:0:0:0:
256,192,5307,1,0,0:0:0:0:
256,192,6118,1,8,0:0:0:0:
256,192,6929,1,12,0:0:0:0:
256,192,7334,1,0,0:0:0:0:
256,192,7740,1,8,0:0:0:0:
256,192,7942,1,8,0:0:0:0:
256,192,8145,1,0,0:0:0:0:
256,192,8551,1,8,0:0:0:0:
256,192,8956,1,0,0:0:0:0:
256,192,9159,1,0,0:0:0:0:
256,192,9361,1,8,0:0:0:0:
256,192,9564,1,0,0:0:0:0:
256,192,9767,1,8,0:0:0:0:
256,192,10172,1,0,0:0:0:0:
256,192,10578,1,0,0:0:0:0:
256,192,10983,1,8,0:0:0:0:
256,192,11186,1,8,0:0:0:0:
256,192,11388,1,0,0:0:0:0:
256,192,11794,1,8,0:0:0:0:
256,192,12605,1,0,0:0:0:0:
256,192,13010,1,0,0:0:0:0:
256,192,13415,1,8,0:0:0:0:
256,192,13618,1,0,0:0:0:0:
256,192,13821,1,8,0:0:0:0:
256,192,14226,1,0,0:0:0:0:
256,192,14632,1,8,0:0:0:0:
256,192,15037,1,0,0:0:0:0:
256,192,15240,1,8,0:0:0:0:
256,192,15442,1,8,0:0:0:0:
256,192,15645,1,0,0:0:0:0:
256,192,15848,1,8,0:0:0:0:
256,192,16253,1,8,0:0:0:0:
256,192,16659,1,0,0:0:0:0:
256,192,17064,1,8,0:0:0:0:
256,192,17267,1,0,0:0:0:0:
256,192,17470,1,8,0:0:0:0:
256,192,17875,1,8,0:0:0:0:
256,192,18280,1,0,0:0:0:0:
288,192,18483,1,8,0:0:0:0:
256,192,18686,1,8,0:0:0:0:
256,192,19091,1,0,0:0:0:0:
256,192,19902,12,0,24361,0:0:0:0:
256,192,24767,5,4,0:0:0:0:
256,192,25172,1,8,0:0:0:0:
256,192,26388,12,8,29632,0:0:0:0:
256,192,31253,5,8,0:0:0:0:
256,192,32875,1,12,0:0:0:0:
256,192,34497,1,12,0:0:0:0:
256,192,35307,1,12,0:0:0:0:
256,192,35713,1,4,0:0:0:0:
256,192,36118,1,12,0:0:0:0:
256,192,36929,1,0,0:0:0:0:
256,192,37334,1,0,0:0:0:0:
256,192,37740,1,12,0:0:0:0:
256,192,38551,1,12,0:0:0:0:
256,192,38956,1,12,0:0:0:0:
256,192,39361,1,4,0:0:0:0:
256,192,39767,1,8,0:0:0:0:
256,192,39970,1,0,0:0:0:0:
256,192,40172,1,8,0:0:0:0:
256,192,40578,1,8,0:0:0:0:
256,192,40983,1,0,0:0:0:0:
256,192,41388,1,8,0:0:0:0:
256,192,41591,1,0,0:0:0:0:
256,192,41794,1,8,0:0:0:0:
256,192,41997,1,8,0:0:0:0:
256,192,42199,1,0,0:0:0:0:
256,192,42605,1,0,0:0:0:0:
256,192,43010,1,8,0:0:0:0:
256,192,43415,1,8,0:0:0:0:
256,192,43821,1,0,0:0:0:0:
256,192,44024,1,0,0:0:0:0:
256,192,44226,1,8,0:0:0:0:
256,192,44632,1,8,0:0:0:0:
256,192,45037,1,0,0:0:0:0:
256,192,45848,1,8,0:0:0:0:
256,192,46253,1,8,0:0:0:0:
256,192,46456,1,0,0:0:0:0:
256,192,46659,1,8,0:0:0:0:
256,192,47064,1,8,0:0:0:0:
256,192,47470,1,0,0:0:0:0:
256,192,47875,1,0,0:0:0:0:
256,192,48280,1,8,0:0:0:0:
256,192,48686,1,0,0:0:0:0:
256,192,48888,1,0,0:0:0:0:
256,192,49091,1,8,0:0:0:0:
256,192,49497,1,0,0:0:0:0:
256,192,49902,1,8,0:0:0:0:
256,192,50307,1,8,0:0:0:0:
256,192,50713,1,0,0:0:0:0:
256,192,51118,1,8,0:0:0:0:
256,192,51321,1,0,0:0:0:0:
256,192,51524,1,8,0:0:0:0:
256,192,51726,1,0,0:0:0:0:
288,192,51929,1,0,0:0:0:0:
288,192,52334,1,12,0:0:0:0:
256,192,53145,1,0,0:0:0:0:
256,192,53551,1,0,0:0:0:0:
256,192,53753,1,8,0:0:0:0:
256,192,53956,1,8,0:0:0:0:
256,192,54361,1,0,0:0:0:0:
256,192,54767,1,8,0:0:0:0:
256,192,54970,1,8,0:0:0:0:
256,192,55172,1,0,0:0:0:0:
256,192,55578,1,0,0:0:0:0:
256,192,55983,1,8,0:0:0:0:
256,192,56388,1,8,0:0:0:0:
256,192,56591,1,0,0:0:0:0:
256,192,56794,1,8,0:0:0:0:
256,192,57199,1,8,0:0:0:0:
256,192,57605,1,0,0:0:0:0:
256,192,58010,1,8,0:0:0:0:
256,192,58213,1,0,0:0:0:0:
256,192,58415,1,0,0:0:0:0:
256,192,58821,1,8,0:0:0:0:
256,192,59226,1,8,0:0:0:0:
256,192,59632,1,0,0:0:0:0:
256,192,60442,1,8,0:0:0:0:
256,192,60848,1,0,0:0:0:0:
256,192,61051,1,0,0:0:0:0:
256,192,61253,1,8,0:0:0:0:
256,192,61659,1,8,0:0:0:0:
256,192,62064,1,0,0:0:0:0:
256,192,62470,1,8,0:0:0:0:
256,192,62875,1,8,0:0:0:0:
288,192,63078,1,0,0:0:0:0:
256,192,63280,1,8,0:0:0:0:
256,192,63686,1,0,0:0:0:0:
256,192,64497,1,8,0:0:0:0:
256,192,64902,1,0,0:0:0:0:
256,192,65307,1,12,0:0:0:0:
256,192,65713,1,0,0:0:0:0:
256,192,65915,1,0,0:0:0:0:
256,192,66118,1,8,0:0:0:0:
256,192,66524,1,0,0:0:0:0:
256,192,66929,1,8,0:0:0:0:
256,192,67132,1,0,0:0:0:0:
256,192,67334,1,8,0:0:0:0:
256,192,67740,1,8,0:0:0:0:
256,192,68145,1,0,0:0:0:0:
256,192,68551,1,8,0:0:0:0:
256,192,68753,1,8,0:0:0:0:
256,192,68956,1,8,0:0:0:0:
256,192,69361,1,0,0:0:0:0:
256,192,69564,1,8,0:0:0:0:
256,192,69767,1,0,0:0:0:0:
256,192,70172,1,8,0:0:0:0:
256,192,70983,1,0,0:0:0:0:
256,192,71388,1,0,0:0:0:0:
256,192,71794,1,12,0:0:0:0:
256,192,72199,1,0,0:0:0:0:
256,192,72402,1,0,0:0:0:0:
256,192,72605,1,8,0:0:0:0:
256,192,73010,1,0,0:0:0:0:
247,191,73415,1,8,0:0:0:0:
256,192,73618,1,0,0:0:0:0:
247,191,73821,1,8,0:0:0:0:
247,191,74226,1,8,0:0:0:0:
256,192,74429,1,8,0:0:0:0:
256,192,74632,1,0,0:0:0:0:
256,192,75037,1,8,0:0:0:0:
256,192,75442,1,8,0:0:0:0:
256,192,75848,1,0,0:0:0:0:
256,192,76659,1,8,0:0:0:0:
256,192,77064,1,8,0:0:0:0:
256,192,77470,1,0,0:0:0:0:
256,192,77672,1,8,0:0:0:0:
256,192,77875,1,0,0:0:0:0:
256,192,78280,1,12,0:0:0:0:
256,192,79091,1,8,0:0:0:0:
256,192,79497,1,8,0:0:0:0:
256,192,79902,1,0,0:0:0:0:
256,192,80307,1,8,0:0:0:0:
256,192,80510,1,8,0:0:0:0:
256,192,80713,1,0,0:0:0:0:
256,192,81118,1,0,0:0:0:0:
256,192,81524,1,12,0:0:0:0:
256,192,82334,1,8,0:0:0:0:
256,192,82740,1,8,0:0:0:0:
256,192,83145,1,0,0:0:0:0:
256,192,83551,1,8,0:0:0:0:
256,192,83753,1,0,0:0:0:0:
256,192,83956,1,8,0:0:0:0:
256,192,84361,1,0,0:0:0:0:
256,192,84767,1,12,0:0:0:0:
256,192,86388,1,0,0:0:0:0:
256,192,88010,1,0,0:0:0:0:
256,192,89632,1,8,0:0:0:0:
256,192,90037,1,0,0:0:0:0:
256,192,90442,1,0,0:0:0:0:
256,192,90848,1,8,0:0:0:0:
256,192,91253,1,4,0:0:0:0:
256,192,92064,1,8,0:0:0:0:
256,192,92470,1,8,0:0:0:0:
256,192,92672,1,8,0:0:0:0:
256,192,92875,1,0,0:0:0:0:
256,192,94091,1,8,0:0:0:0:
256,192,94497,1,0,0:0:0:0:
256,192,96118,1,0,0:0:0:0:
256,192,97740,1,12,0:0:0:0:
256,192,98145,1,0,0:0:0:0:
256,192,98348,1,0,0:0:0:0:
256,192,98551,1,8,0:0:0:0:
256,192,98956,1,8,0:0:0:0:
256,192,99361,1,4,0:0:0:0:
288,192,99767,1,8,0:0:0:0:
256,192,99970,1,0,0:0:0:0:
288,192,100172,1,8,0:0:0:0:
256,192,100578,1,8,0:0:0:0:
256,192,100983,1,0,0:0:0:0:
256,192,101388,1,8,0:0:0:0:
256,192,101591,1,8,0:0:0:0:
256,192,101794,1,0,0:0:0:0:
256,192,102199,1,8,0:0:0:0:
256,192,102605,1,4,0:0:0:0:
256,192,103010,1,8,0:0:0:0:
256,192,103213,1,0,0:0:0:0:
256,192,103415,1,8,0:0:0:0:
256,192,103618,1,8,0:0:0:0:
288,192,104024,1,0,0:0:0:0:
256,192,104226,1,8,0:0:0:0:
288,192,104632,1,0,0:0:0:0:
288,192,105037,1,8,0:0:0:0:
256,192,105442,1,8,0:0:0:0:
256,192,105848,1,4,0:0:0:0:
256,192,106659,1,0,0:0:0:0:
256,192,107064,1,8,0:0:0:0:
256,192,107267,1,0,0:0:0:0:
256,192,107470,1,8,0:0:0:0:
256,192,107875,1,8,0:0:0:0:
256,192,108280,1,0,0:0:0:0:
256,192,108483,1,8,0:0:0:0:
256,192,108686,1,8,0:0:0:0:
256,192,109091,1,4,0:0:0:0:
256,192,109699,1,8,0:0:0:0:
256,192,110307,1,0,0:0:0:0:
256,192,110713,1,12,0:0:0:0:
256,192,111524,1,0,0:0:0:0:
256,192,112334,1,0,0:0:0:0:
256,192,113145,1,8,0:0:0:0:
256,192,113956,1,12,0:0:0:0:
256,192,114767,1,8,0:0:0:0:
256,192,115578,1,0,0:0:0:0:
256,192,116388,1,0,0:0:0:0:
256,192,117199,1,12,0:0:0:0:
256,192,118010,1,0,0:0:0:0:
256,192,118821,1,0,0:0:0:0:
256,192,119632,1,8,0:0:0:0:
256,192,120442,1,12,0:0:0:0:
256,192,121253,1,8,0:0:0:0:
256,192,122064,1,0,0:0:0:0:
256,192,122875,1,0,0:0:0:0:
256,192,123686,1,12,0:0:0:0:
