osu file format v14

[General]
AudioFilename: audio.mp3
AudioLeadIn: 0
PreviewTime: 32845
Countdown: 0
SampleSet: Normal
StackLeniency: 0.7
Mode: 1
LetterboxInBreaks: 0
WidescreenStoryboard: 0

[Editor]
Bookmarks: 447,6933,32879,39365,52338,63791,84872,97744,110615,123690
DistanceSpacing: 1
BeatDivisor: 4
GridSize: 32
TimelineZoom: 1

[Metadata]
Title:Turii ~Panta rhei~
TitleUnicode:Turii ~Panta rhei~
Artist:Zektbach
ArtistUnicode:Zektbach
Creator:Nao Tomori
Version:Hymn
Source:beatmania IIDX 16 EMPRESS
Tags:ゼクトバッハ iidx16 tomosuke funaki 舟木智介 maya takamura 高村真耶 Akiko Shikata 志方あきこ elemental chant malchut REFLEC BEAT
BeatmapID:1909240
BeatmapSetID:914065

[Difficulty]
HPDrainRate:6
CircleSize:5
OverallDifficulty:6
ApproachRate:6
SliderMultiplier:1.4
SliderTickRate:1

[Events]
//Background and Video events
0,0,"65165749_p0.png",0,0
//Break Periods
//Storyboard Layer 0 (Background)
//Storyboard Layer 1 (Fail)
//Storyboard Layer 2 (Pass)
//Storyboard Layer 3 (Foreground)
//Storyboard Layer 4 (Overlay)
//Storyboard Sound Samples

[TimingPoints]
447,405.405405405405,4,1,0,66,1,0
6933,-100,4,1,0,71,0,0
21528,-100,4,1,0,51,0,0
32879,-100,4,1,0,71,0,0
39365,-100,4,1,0,71,0,1
63690,-100,4,1,0,71,0,0
84974,-100,4,1,0,51,0,0
97744,-100,4,1,0,61,0,0
110717,-100,4,1,0,66,0,0

[HitObjects]
256,192,447,5,4,0:0:0:0:
352,192,2068,1,0,0:0:0:0:
352,192,2271,1,0,0:0:0:0:
352,192,3690,1,4,0:0:0:0:
256,128,4501,1,8,0:0:0:0:
256,128,5311,1,0,0:0:0:0:
256,128,5717,1,0,0:0:0:0:
256,128,6122,1,8,0:0:0:0:
256,128,6933,1,12,0:0:0:0:
256,128,7338,1,0,0:0:0:0:
256,128,7744,1,8,0:0:0:0:
320,256,8014,1,0,0:0:0:0:
320,256,8149,1,8,0:0:0:0:
320,256,8555,1,0,0:0:0:0:
320,256,8825,1,0,0:0:0:0:
320,256,8960,1,8,0:0:0:0:
320,256,9095,1,8,0:0:0:0:
352,256,9230,1,8,0:0:0:0:
352,256,9365,1,0,0:0:0:0:
448,288,9636,1,8,0:0:0:0:
448,288,9771,1,0,0:0:0:0:
512,288,10041,1,0,0:0:0:0:
256,192,10176,5,8,0:0:0:0:
256,192,10446,1,8,0:0:0:0:
256,192,10582,1,0,0:0:0:0:
288,192,10717,1,0,0:0:0:0:
288,192,10852,1,0,0:0:0:0:
288,192,10987,1,8,0:0:0:0:
288,192,11257,1,8,0:0:0:0:
288,192,11392,1,0,0:0:0:0:
320,224,11528,1,0,0:0:0:0:
320,224,11663,1,8,0:0:0:0:
320,224,11798,1,0,0:0:0:0:
320,224,12068,1,0,0:0:0:0:
320,224,12203,1,8,0:0:0:0:
384,256,12338,1,0,0:0:0:0:
256,192,12474,1,0,0:0:0:0:
256,192,12609,1,8,0:0:0:0:
256,192,12879,1,8,0:0:0:0:
256,192,13014,1,0,0:0:0:0:
256,192,13419,1,4,0:0:0:0:
256,192,13825,1,0,0:0:0:0:
256,192,13960,1,8,0:0:0:0:
256,192,14095,1,8,0:0:0:0:
256,192,14230,1,0,0:0:0:0:
256,192,14501,1,8,0:0:0:0:
256,192,14636,1,0,0:0:0:0:
288,224,14906,1,0,0:0:0:0:
288,224,15041,1,8,0:0:0:0:
320,256,15311,1,0,0:0:0:0:
320,256,15446,1,8,0:0:0:0:
320,256,15582,1,8,0:0:0:0:
320,256,15717,1,8,0:0:0:0:
320,256,15852,1,0,0:0:0:0:
352,256,15987,1,0,0:0:0:0:
352,256,16122,1,8,0:0:0:0:
352,256,16257,1,0,0:0:0:0:
352,256,16663,1,0,0:0:0:0:
288,224,16933,1,0,0:0:0:0:
288,224,17068,1,8,0:0:0:0:
288,224,17203,1,0,0:0:0:0:
256,192,17338,1,0,0:0:0:0:
256,192,17474,1,8,0:0:0:0:
256,192,17744,1,8,0:0:0:0:
256,192,17879,1,0,0:0:0:0:
256,192,18014,1,0,0:0:0:0:
256,192,18149,1,0,0:0:0:0:
256,192,18284,1,8,0:0:0:0:
256,192,18555,1,0,0:0:0:0:
288,192,18690,1,8,0:0:0:0:
288,192,18825,1,8,0:0:0:0:
288,192,18960,1,8,0:0:0:0:
288,192,19095,1,0,0:0:0:0:
288,192,19230,1,8,0:0:0:0:
288,192,19365,1,8,0:0:0:0:
288,192,19501,1,0,0:0:0:0:
352,224,19906,1,12,0:0:0:0:
352,224,21528,1,8,0:0:0:0:
352,224,23149,1,0,0:0:0:0:
352,224,24365,1,0,0:0:0:0:
352,224,24771,1,8,0:0:0:0:
352,224,26392,1,0,0:0:0:0:
352,224,28014,1,8,0:0:0:0:
352,224,29230,1,0,0:0:0:0:
352,224,29636,1,0,0:0:0:0:
352,224,30852,1,0,0:0:0:0:
352,224,31257,1,8,0:0:0:0:
352,224,32879,1,8,0:0:0:0:
256,96,32980,1,0,0:0:0:0:
256,160,33183,1,0,0:0:0:0:
256,160,33284,1,8,0:0:0:0:
256,160,33386,1,0,0:0:0:0:
320,192,33487,1,8,0:0:0:0:
320,192,33588,1,8,0:0:0:0:
320,192,33690,1,0,0:0:0:0:
416,192,33791,1,0,0:0:0:0:
416,192,33994,1,0,0:0:0:0:
416,192,34095,1,8,0:0:0:0:
416,192,34196,1,8,0:0:0:0:
416,192,34298,1,0,0:0:0:0:
224,128,34399,1,0,0:0:0:0:
416,192,34501,1,8,0:0:0:0:
448,192,34602,1,0,0:0:0:0:
352,128,34805,1,0,0:0:0:0:
480,224,34906,1,8,0:0:0:0:
256,128,35007,1,8,0:0:0:0:
256,128,35109,1,0,0:0:0:0:
192,64,35210,1,0,0:0:0:0:
192,128,35311,1,8,0:0:0:0:
192,64,35413,1,0,0:0:0:0:
192,96,35514,1,0,0:0:0:0:
224,96,35615,1,0,0:0:0:0:
192,96,35717,1,12,0:0:0:0:
264,117,35919,1,0,0:0:0:0:
192,96,36122,1,8,0:0:0:0:
224,96,36224,1,0,0:0:0:0:
224,128,36426,1,0,0:0:0:0:
224,128,36528,1,8,0:0:0:0:
224,128,36629,1,0,0:0:0:0:
224,128,36730,1,8,0:0:0:0:
224,128,36832,1,8,0:0:0:0:
224,128,36933,1,8,0:0:0:0:
224,128,37034,1,0,0:0:0:0:
224,128,37237,1,0,0:0:0:0:
224,128,37338,1,8,0:0:0:0:
224,128,37440,1,8,0:0:0:0:
224,128,37541,1,0,0:0:0:0:
224,128,37642,1,8,0:0:0:0:
224,128,37744,1,8,0:0:0:0:
384,128,37845,1,0,0:0:0:0:
256,160,38048,1,0,0:0:0:0:
256,160,38149,1,8,0:0:0:0:
256,160,38251,1,0,0:0:0:0:
224,96,38352,1,8,0:0:0:0:
224,96,38453,1,8,0:0:0:0:
224,96,38555,1,0,0:0:0:0:
224,96,38656,1,0,0:0:0:0:
224,96,38757,1,0,0:0:0:0:
224,96,38859,1,0,0:0:0:0:
224,96,38960,1,12,0:0:0:0:
224,96,39365,1,4,0:0:0:0:
224,160,39771,1,0,0:0:0:0:
224,160,39974,1,8,0:0:0:0:
224,160,40075,1,8,0:0:0:0:
224,160,40176,1,0,0:0:0:0:
224,160,40379,1,0,0:0:0:0:
224,160,40582,1,8,0:0:0:0:
224,160,40784,1,8,0:0:0:0:
224,160,40987,1,0,0:0:0:0:
256,192,41392,1,0,0:0:0:0:
256,192,41595,1,8,0:0:0:0:
256,192,41798,1,0,0:0:0:0:
256,192,42001,1,0,0:0:0:0:
256,192,42102,1,0,0:0:0:0:
256,192,42203,1,8,0:0:0:0:
256,192,42406,1,0,0:0:0:0:
256,192,42609,1,0,0:0:0:0:
256,192,43014,1,8,0:0:0:0:
320,192,43217,1,8,0:0:0:0:
320,192,43419,1,0,0:0:0:0:
352,192,43521,1,0,0:0:0:0:
352,192,43622,1,0,0:0:0:0:
352,192,43724,1,0,0:0:0:0:
448,224,43825,1,8,0:0:0:0:
448,224,44028,1,0,0:0:0:0:
448,224,44230,1,8,0:0:0:0:
448,224,44636,1,8,0:0:0:0:
448,224,44838,1,0,0:0:0:0:
384,192,44940,1,0,0:0:0:0:
384,192,45041,1,8,0:0:0:0:
416,192,45244,1,8,0:0:0:0:
416,192,45446,1,0,0:0:0:0:
416,192,45649,1,0,0:0:0:0:
416,192,45852,1,8,0:0:0:0:
416,192,46257,1,8,0:0:0:0:
416,192,46460,1,8,0:0:0:0:
416,192,46561,1,8,0:0:0:0:
416,192,46663,1,0,0:0:0:0:
416,192,46865,1,0,0:0:0:0:
416,192,47068,1,8,0:0:0:0:
416,192,47474,1,0,0:0:0:0:
416,192,47676,1,0,0:0:0:0:
416,192,47778,1,0,0:0:0:0:
448,224,47879,1,0,0:0:0:0:
448,224,48082,1,8,0:0:0:0:
448,224,48284,1,0,0:0:0:0:
256,192,48487,1,0,0:0:0:0:
256,192,48690,1,8,0:0:0:0:
256,192,49095,1,0,0:0:0:0:
256,192,49298,1,8,0:0:0:0:
320,224,49399,1,8,0:0:0:0:
320,224,49501,1,0,0:0:0:0:
320,224,49703,1,0,0:0:0:0:
320,224,49906,1,8,0:0:0:0:
384,224,50109,1,0,0:0:0:0:
384,224,50311,1,8,0:0:0:0:
448,224,50514,1,8,0:0:0:0:
448,224,50717,1,0,0:0:0:0:
448,224,51021,1,0,0:0:0:0:
448,224,51122,1,8,0:0:0:0:
448,224,51325,1,8,0:0:0:0:
448,224,51528,1,0,0:0:0:0:
512,256,51629,1,0,0:0:0:0:
256,128,51730,1,8,0:0:0:0:
256,128,51832,1,8,0:0:0:0:
256,128,51933,1,0,0:0:0:0:
256,128,52136,1,0,0:0:0:0:
256,128,52338,1,12,0:0:0:0:
256,192,52744,1,0,0:0:0:0:
256,192,52946,1,8,0:0:0:0:
256,192,53048,1,8,0:0:0:0:
256,192,53149,1,0,0:0:0:0:
256,192,53352,1,0,0:0:0:0:
256,192,53453,1,0,0:0:0:0:
256,192,53555,1,8,0:0:0:0:
256,192,53656,1,0,0:0:0:0:
256,192,53757,1,8,0:0:0:0:
256,192,53859,1,8,0:0:0:0:
256,192,53960,1,0,0:0:0:0:
256,192,54365,1,0,0:0:0:0:
256,192,54568,1,8,0:0:0:0:
256,192,54669,1,0,0:0:0:0:
256,192,54771,1,8,0:0:0:0:
256,192,54872,1,8,0:0:0:0:
256,192,54974,1,0,0:0:0:0:
256,192,55075,1,0,0:0:0:0:
256,192,55176,1,0,0:0:0:0:
256,192,55379,1,0,0:0:0:0:
256,192,55582,1,8,0:0:0:0:
256,192,55987,1,8,0:0:0:0:
288,224,56190,1,8,0:0:0:0:
288,224,56392,1,0,0:0:0:0:
288,224,56595,1,0,0:0:0:0:
288,224,56696,1,8,0:0:0:0:
288,224,56798,1,0,0:0:0:0:
288,224,56899,1,8,0:0:0:0:
288,224,57001,1,8,0:0:0:0:
288,224,57102,1,8,0:0:0:0:
288,224,57203,1,0,0:0:0:0:
224,192,57406,1,0,0:0:0:0:
224,192,57609,1,8,0:0:0:0:
224,192,58014,1,8,0:0:0:0:
224,192,58115,1,0,0:0:0:0:
224,192,58217,1,0,0:0:0:0:
224,192,58318,1,8,0:0:0:0:
224,192,58419,1,0,0:0:0:0:
224,192,58521,1,0,0:0:0:0:
224,192,58622,1,8,0:0:0:0:
224,192,58724,1,0,0:0:0:0:
224,192,58825,1,8,0:0:0:0:
224,192,59230,1,8,0:0:0:0:
224,192,59433,1,0,0:0:0:0:
224,192,59636,1,8,0:0:0:0:
224,192,59737,1,8,0:0:0:0:
288,224,59838,1,0,0:0:0:0:
288,224,59940,1,0,0:0:0:0:
288,224,60041,1,8,0:0:0:0:
288,224,60244,1,0,0:0:0:0:
288,224,60345,1,0,0:0:0:0:
288,224,60446,1,8,0:0:0:0:
256,192,60649,1,0,0:0:0:0:
256,192,60852,1,8,0:0:0:0:
256,192,61257,1,8,0:0:0:0:
256,192,61359,1,8,0:0:0:0:
256,192,61460,1,0,0:0:0:0:
256,192,61561,1,0,0:0:0:0:
256,192,61663,1,0,0:0:0:0:
256,192,61865,1,0,0:0:0:0:
256,192,62068,1,12,0:0:0:0:
288,192,62474,1,0,0:0:0:0:
288,192,62676,1,8,0:0:0:0:
288,192,62879,1,0,0:0:0:0:
288,192,63082,1,8,0:0:0:0:
288,192,63284,1,0,0:0:0:0:
288,192,63487,1,0,0:0:0:0:
288,192,63588,1,8,0:0:0:0:
256,192,63690,5,0,0:0:0:0:
288,192,63892,1,0,0:0:0:0:
256,192,64095,1,8,0:0:0:0:
256,192,64501,1,0,0:0:0:0:
256,192,64703,1,0,0:0:0:0:
256,192,64906,1,8,0:0:0:0:
256,192,65210,1,8,0:0:0:0:
256,192,65311,1,0,0:0:0:0:
256,192,65413,1,8,0:0:0:0:
256,192,65514,1,8,0:0:0:0:
256,192,65615,1,0,0:0:0:0:
256,192,65717,1,8,0:0:0:0:
256,192,65919,1,0,0:0:0:0:
256,192,66021,1,0,0:0:0:0:
256,192,66122,1,8,0:0:0:0:
256,192,66224,1,0,0:0:0:0:
256,192,66325,1,0,0:0:0:0:
256,192,66426,1,0,0:0:0:0:
256,192,66528,1,8,0:0:0:0:
256,192,66629,1,0,0:0:0:0:
256,192,66730,1,0,0:0:0:0:
256,192,66832,1,0,0:0:0:0:
256,192,66933,1,8,0:0:0:0:
256,192,67034,1,8,0:0:0:0:
256,192,67136,1,0,0:0:0:0:
256,192,67237,1,0,0:0:0:0:
256,192,67338,1,8,0:0:0:0:
256,192,67440,1,8,0:0:0:0:
256,192,67541,1,0,0:0:0:0:
256,192,67642,1,0,0:0:0:0:
256,192,67744,1,8,0:0:0:0:
256,192,67946,1,0,0:0:0:0:
256,192,68048,1,8,0:0:0:0:
256,192,68149,1,0,0:0:0:0:
256,192,68251,1,0,0:0:0:0:
256,192,68352,1,0,0:0:0:0:
256,192,68453,1,8,0:0:0:0:
256,192,68555,1,0,0:0:0:0:
256,192,68656,1,8,0:0:0:0:
256,192,68757,1,8,0:0:0:0:
256,192,68859,1,8,0:0:0:0:
256,192,68960,1,0,0:0:0:0:
256,192,69061,1,8,0:0:0:0:
256,192,69162,1,8,0:0:0:0:
256,192,69264,1,8,0:0:0:0:
256,192,69365,1,0,0:0:0:0:
256,192,69467,1,0,0:0:0:0:
256,192,69568,1,8,0:0:0:0:
256,192,69669,1,0,0:0:0:0:
256,192,69771,1,0,0:0:0:0:
256,192,69872,1,8,0:0:0:0:
256,192,69974,1,0,0:0:0:0:
256,192,70075,1,8,0:0:0:0:
256,192,70176,1,0,0:0:0:0:
256,192,70278,1,0,0:0:0:0:
256,192,70379,1,8,0:0:0:0:
256,192,70480,1,0,0:0:0:0:
256,192,70582,1,0,0:0:0:0:
288,192,70683,1,0,0:0:0:0:
288,192,70784,1,8,0:0:0:0:
288,192,70886,1,8,0:0:0:0:
288,192,70987,1,0,0:0:0:0:
288,192,71088,1,0,0:0:0:0:
288,192,71190,1,8,0:0:0:0:
288,192,71291,1,0,0:0:0:0:
288,192,71392,1,8,0:0:0:0:
288,192,71494,1,0,0:0:0:0:
288,192,71595,1,0,0:0:0:0:
288,160,71798,1,12,0:0:0:0:
288,160,72001,1,0,0:0:0:0:
288,160,72102,1,0,0:0:0:0:
288,160,72203,1,8,0:0:0:0:
288,160,72305,1,0,0:0:0:0:
288,160,72406,1,0,0:0:0:0:
288,160,72507,1,0,0:0:0:0:
288,160,72609,1,8,0:0:0:0:
288,160,72710,1,8,0:0:0:0:
288,160,72811,1,0,0:0:0:0:
288,160,72913,1,0,0:0:0:0:
288,160,73014,1,8,0:0:0:0:
288,160,73115,1,0,0:0:0:0:
288,160,73217,1,0,0:0:0:0:
288,160,73318,1,0,0:0:0:0:
288,160,73419,1,8,0:0:0:0:
256,128,73521,1,8,0:0:0:0:
256,128,73622,1,0,0:0:0:0:
256,128,73724,1,0,0:0:0:0:
256,128,73825,1,8,0:0:0:0:
256,128,73926,1,8,0:0:0:0:
256,128,74028,1,0,0:0:0:0:
256,128,74129,1,0,0:0:0:0:
256,128,74230,1,8,0:0:0:0:
256,128,74332,1,0,0:0:0:0:
256,128,74433,1,8,0:0:0:0:
256,128,74534,1,8,0:0:0:0:
256,128,74636,1,0,0:0:0:0:
256,128,74737,1,0,0:0:0:0:
256,128,74838,1,8,0:0:0:0:
256,128,74940,1,8,0:0:0:0:
256,128,75041,1,0,0:0:0:0:
256,128,75142,1,8,0:0:0:0:
256,128,75244,1,8,0:0:0:0:
256,128,75345,1,8,0:0:0:0:
256,128,75446,1,0,0:0:0:0:
256,128,75547,1,8,0:0:0:0:
256,128,75649,1,8,0:0:0:0:
256,128,75750,1,8,0:0:0:0:
128,96,75852,1,0,0:0:0:0:
128,96,75953,1,0,0:0:0:0:
128,96,76055,1,8,0:0:0:0:
128,96,76156,1,0,0:0:0:0:
128,96,76257,1,0,0:0:0:0:
128,96,76359,1,8,0:0:0:0:
128,96,76460,1,0,0:0:0:0:
128,96,76561,1,8,0:0:0:0:
128,96,76663,1,0,0:0:0:0:
128,96,76764,1,0,0:0:0:0:
128,96,76865,1,0,0:0:0:0:
128,96,76967,1,8,0:0:0:0:
128,96,77068,1,0,0:0:0:0:
128,96,77169,1,0,0:0:0:0:
128,96,77271,1,8,0:0:0:0:
128,96,77372,1,0,0:0:0:0:
224,128,77474,1,8,0:0:0:0:
224,128,77575,1,8,0:0:0:0:
224,128,77676,1,0,0:0:0:0:
224,128,77778,1,0,0:0:0:0:
224,128,77879,1,8,0:0:0:0:
224,128,77980,1,0,0:0:0:0:
224,128,78082,1,0,0:0:0:0:
224,64,78284,1,8,0:0:0:0:
256,96,78386,1,0,0:0:0:0:
256,96,78588,1,0,0:0:0:0:
256,96,78690,1,8,0:0:0:0:
256,96,78791,1,8,0:0:0:0:
256,96,78892,1,0,0:0:0:0:
256,96,78994,1,0,0:0:0:0:
416,128,79095,1,8,0:0:0:0:
416,128,79196,1,0,0:0:0:0:
416,128,79298,1,0,0:0:0:0:
416,128,79399,1,0,0:0:0:0:
416,128,79501,1,8,0:0:0:0:
416,128,79602,1,8,0:0:0:0:
416,128,79703,1,0,0:0:0:0:
416,128,79805,1,0,0:0:0:0:
416,128,79906,1,8,0:0:0:0:
256,128,80007,1,0,0:0:0:0:
256,128,80210,1,0,0:0:0:0:
256,128,80311,1,8,0:0:0:0:
256,128,80413,1,0,0:0:0:0:
256,128,80514,1,8,0:0:0:0:
256,128,80615,1,8,0:0:0:0:
256,128,80717,1,0,0:0:0:0:
256,128,80818,1,0,0:0:0:0:
256,128,80919,1,0,0:0:0:0:
256,128,81021,1,0,0:0:0:0:
256,128,81122,1,12,0:0:0:0:
224,160,81325,1,0,0:0:0:0:
224,64,81528,1,8,0:0:0:0:
256,128,81629,1,0,0:0:0:0:
256,96,81832,1,0,0:0:0:0:
256,96,81934,1,8,0:0:0:0:
256,96,82035,1,8,0:0:0:0:
256,96,82136,1,0,0:0:0:0:
256,96,82238,1,0,0:0:0:0:
416,128,82339,1,8,0:0:0:0:
416,128,82440,1,8,0:0:0:0:
416,128,82542,1,8,0:0:0:0:
416,128,82643,1,0,0:0:0:0:
416,128,82745,1,0,0:0:0:0:
416,128,82846,1,8,0:0:0:0:
416,128,82947,1,0,0:0:0:0:
416,128,83049,1,0,0:0:0:0:
416,128,83150,1,8,0:0:0:0:
256,128,83251,1,0,0:0:0:0:
256,128,83454,1,0,0:0:0:0:
256,128,83555,1,8,0:0:0:0:
256,128,83657,1,0,0:0:0:0:
256,128,83758,1,8,0:0:0:0:
256,128,83859,1,8,0:0:0:0:
256,128,83961,1,8,0:0:0:0:
256,128,84062,1,0,0:0:0:0:
256,128,84163,1,0,0:0:0:0:
256,128,84265,1,0,0:0:0:0:
256,128,84366,1,12,0:0:0:0:
224,96,84568,1,0,0:0:0:0:
224,96,84771,1,12,0:0:0:0:
256,192,86392,1,8,0:0:0:0:
256,192,88014,1,0,0:0:0:0:
256,192,88825,1,0,0:0:0:0:
256,192,89636,1,8,0:0:0:0:
256,192,91257,1,12,0:0:0:0:
256,192,92068,1,0,0:0:0:0:
256,192,92879,1,8,0:0:0:0:
256,192,94501,1,0,0:0:0:0:
256,192,95311,1,0,0:0:0:0:
256,192,95717,1,0,0:0:0:0:
256,192,96122,1,8,0:0:0:0:
256,192,96528,1,0,0:0:0:0:
256,192,97744,1,12,0:0:0:0:
256,192,98149,1,0,0:0:0:0:
256,192,98352,1,0,0:0:0:0:
256,192,98453,1,0,0:0:0:0:
256,192,98555,1,8,0:0:0:0:
256,192,98757,1,0,0:0:0:0:
256,192,98960,1,8,0:0:0:0:
256,192,99365,1,8,0:0:0:0:
256,192,99568,1,0,0:0:0:0:
256,192,99669,1,0,0:0:0:0:
256,192,99771,1,8,0:0:0:0:
256,192,99872,1,0,0:0:0:0:
256,192,99974,1,8,0:0:0:0:
256,192,100075,1,8,0:0:0:0:
256,192,100176,1,0,0:0:0:0:
256,192,100480,1,0,0:0:0:0:
256,192,100582,1,8,0:0:0:0:
256,192,100784,1,0,0:0:0:0:
256,192,100987,1,8,0:0:0:0:
256,192,101392,1,8,0:0:0:0:
256,192,101595,1,8,0:0:0:0:
256,192,101696,1,8,0:0:0:0:
256,192,101798,1,0,0:0:0:0:
256,192,102001,1,0,0:0:0:0:
256,192,102203,1,8,0:0:0:0:
256,192,102406,1,0,0:0:0:0:
256,192,102609,1,8,0:0:0:0:
256,192,102913,1,0,0:0:0:0:
256,192,103014,1,8,0:0:0:0:
256,192,103217,1,8,0:0:0:0:
256,192,103419,1,0,0:0:0:0:
256,192,103724,1,0,0:0:0:0:
256,192,103825,1,8,0:0:0:0:
256,192,104028,1,8,0:0:0:0:
256,192,104230,1,0,0:0:0:0:
256,192,104636,1,8,0:0:0:0:
256,192,104838,1,8,0:0:0:0:
256,192,104940,1,8,0:0:0:0:
256,192,105041,1,0,0:0:0:0:
256,192,105244,1,8,0:0:0:0:
256,192,105446,1,0,0:0:0:0:
256,192,105649,1,0,0:0:0:0:
256,192,105852,1,8,0:0:0:0:
256,192,106156,1,8,0:0:0:0:
256,192,106257,1,0,0:0:0:0:
256,192,106460,1,0,0:0:0:0:
256,192,106561,1,0,0:0:0:0:
256,192,106663,1,8,0:0:0:0:
256,192,106865,1,0,0:0:0:0:
256,192,107068,1,8,0:0:0:0:
256,192,107271,1,8,0:0:0:0:
256,192,107474,1,0,0:0:0:0:
256,192,107879,1,8,0:0:0:0:
256,192,108082,1,0,0:0:0:0:
256,192,108183,1,0,0:0:0:0:
256,192,108284,1,0,0:0:0:0:
256,192,108487,1,0,0:0:0:0:
256,192,108690,1,8,0:0:0:0:
256,192,108791,1,8,0:0:0:0:
256,192,108892,1,8,0:0:0:0:
320,192,108994,1,8,0:0:0:0:
320,192,109095,1,0,0:0:0:0:
320,192,109399,1,0,0:0:0:0:
320,192,109501,1,8,0:0:0:0:
320,192,109703,1,8,0:0:0:0:
320,192,109805,1,8,0:0:0:0:
320,192,109906,1,0,0:0:0:0:
320,192,110109,1,0,0:0:0:0:
320,192,110311,1,8,0:0:0:0:
320,192,110413,1,0,0:0:0:0:
320,192,110514,1,0,0:0:0:0:
320,192,110615,1,0,0:0:0:0:
320,192,110717,1,12,0:0:0:0:
256,192,111528,1,8,0:0:0:0:
256,192,112338,1,0,0:0:0:0:
256,192,113149,1,8,0:0:0:0:
256,192,113960,1,4,0:0:0:0:
256,192,114771,1,8,0:0:0:0:
256,192,115176,1,8,0:0:0:0:
256,192,115582,1,0,0:0:0:0:
256,192,116392,1,8,0:0:0:0:
256,192,117203,1,4,0:0:0:0:
256,192,118014,1,8,0:0:0:0:
256,192,118825,1,0,0:0:0:0:
256,192,119636,1,8,0:0:0:0:
256,192,120446,1,4,0:0:0:0:
256,192,121257,1,8,0:0:0:0:
256,192,121663,1,8,0:0:0:0:
256,192,122068,1,0,0:0:0:0:
256,192,122879,1,8,0:0:0:0:
256,192,123284,1,8,0:0:0:0:
256,192,123487,1,8,0:0:0:0:
256,192,123690,1,4,0:0:0:0:
