osu file format v14

[General]
AudioFilename: audio.mp3
AudioLeadIn: 0
PreviewTime: 39163
Countdown: 0
SampleSet: Soft
StackLeniency: 0.7
Mode: 2
LetterboxInBreaks: 0
WidescreenStoryboard: 0

[Editor]
Bookmarks: 447,19906,32879,39365,52338,65311,71798,78284,84771,94501,97744,110717,125514
DistanceSpacing: 0.9
BeatDivisor: 4
GridSize: 8
TimelineZoom: 2.2

[Metadata]
Title:Turii ~Panta rhei~
TitleUnicode:Turii ~Panta rhei~
Artist:Zektbach
ArtistUnicode:Zektbach
Creator:Kyuare
Version:Turii
Source:beatmania IIDX 16 EMPRESS
Tags:ゼクトバッハ iidx16 tomosuke funaki 舟木智介 maya takamura 高村真耶 Akiko Shikata 志方あきこ elemental chant malchut REFLEC BEAT
BeatmapID:1450886
BeatmapSetID:685428

[Difficulty]
HPDrainRate:7
CircleSize:4
OverallDifficulty:9.3
ApproachRate:9.3
SliderMultiplier:1.92
SliderTickRate:2

[Events]
//Background and Video events
0,0,"65165749_p0.png",0,0
Video,-11550,"stare2.avi"
//Break Periods
//Storyboard Layer 0 (Background)
//Storyboard Layer 1 (Fail)
//Storyboard Layer 2 (Pass)
//Storyboard Layer 3 (Foreground)
//Storyboard Sound Samples

[TimingPoints]
447,405.405405405405,4,2,0,50,1,0
6933,-100,4,2,0,70,0,0
19906,-100,4,2,0,50,0,0
32879,-100,4,2,0,70,0,0
39365,-100,4,2,0,60,0,0
52338,-100,4,2,0,70,0,0
65311,-100,4,2,0,80,0,1
78284,-100,4,2,0,70,0,0
84771,-100,4,2,0,50,0,0
90041,-66.6666666666667,4,2,0,50,0,0
90852,-100,4,2,0,50,0,0
92879,-66.6666666666667,4,2,0,50,0,0
93284,-100,4,2,0,50,0,0
93690,-80,4,2,0,50,0,0
94095,-100,4,2,0,50,0,0
97744,-100,4,2,0,60,0,0
110717,-100,4,2,0,70,0,0
112338,-66.6666666666667,4,2,0,70,0,0
112946,-100,4,2,0,70,0,0
118825,-66.6666666666667,4,2,0,70,0,0
119433,-100,4,2,0,70,0,0
123892,-100,4,2,0,10,0,0

[Colours]
Combo1 : 174,170,115
Combo2 : 177,90,90
Combo3 : 66,97,130
Combo4 : 87,118,80

[HitObjects]
388,238,447,5,4,0:0:0:0:
267,213,649,1,0,0:0:0:0:
146,188,852,1,2,0:0:0:0:
338,52,1055,2,0,L|344:258,1,192,2|0,0:0|0:0,0:0:0:0:
222,218,1663,1,0,0:0:0:0:
343,243,1866,1,0,0:0:0:0:
75,307,2068,5,2,0:0:0:0:
70,223,2271,1,0,0:0:0:0:
66,133,2474,1,0,0:0:0:0:
257,90,2676,2,0,P|330:152|301:232,1,192,2|0,0:0|0:0,0:0:0:0:
157,215,3284,1,0,0:0:0:0:
152,116,3487,1,0,0:0:0:0:
422,60,3690,6,0,B|453:151|453:151|358:151,1,192,2|0,0:0|0:0,0:0:0:0:
125,224,4501,2,0,B|94:133|94:133|189:133,1,192,2|0,0:0|0:0,0:0:0:0:
286,132,5109,1,0,0:0:0:0:
95,105,5311,6,0,P|74:173|124:212,1,144,2|0,0:0|0:0,0:0:0:0:
258,174,5717,2,0,P|310:217|287:281,1,144,2|0,0:0|0:0,0:0:0:0:
96,182,6122,2,0,B|59:150|59:150|153:131,1,144,2|0,0:0|0:0,0:0:0:0:
359,131,6528,2,0,B|453:150|453:150|416:182,1,144,2|0,0:0|0:0,0:0:0:0:
96,181,6933,6,0,P|41:150|58:98,1,128,4|0,0:0|0:0,0:0:0:0:
187,103,7338,1,8,0:0:0:0:
100,69,7474,1,0,0:0:0:0:
187,103,7609,1,0,0:0:0:0:
411,127,7744,5,2,0:0:0:0:
324,93,7880,1,0,0:0:0:0:
237,59,8014,1,0,0:0:0:0:
377,160,8149,1,8,0:0:0:0:
464,194,8285,1,0,0:0:0:0:
377,160,8420,1,0,0:0:0:0:
154,156,8555,6,0,B|90:153|90:153|154:157,1,128,2|0,0:0|0:0,0:0:0:0:
378,206,8960,2,0,B|442:209|442:209|378:205,1,128,8|0,0:0|0:0,0:0:0:0:
135,160,9365,2,0,P|81:195|78:254,1,128,2|0,0:0|0:0,0:0:0:0:
303,315,9771,2,0,B|350:271|350:271|296:237,1,128,8|0,0:0|0:0,0:0:0:0:
72,168,10176,6,0,P|83:100|134:81,1,128,2|0,0:0|0:0,0:0:0:0:
262,58,10582,1,8,0:0:0:0:
349,92,10718,1,0,0:0:0:0:
262,58,10853,1,0,0:0:0:0:
40,159,10987,5,2,0:0:0:0:
127,125,11123,1,0,0:0:0:0:
40,159,11257,1,0,0:0:0:0:
180,181,11392,1,8,0:0:0:0:
267,215,11528,1,0,0:0:0:0:
180,181,11663,1,0,0:0:0:0:
404,305,11798,6,0,P|440:252|407:207,1,128,2|0,0:0|0:0,0:0:0:0:
183,154,12203,2,0,L|320:154,1,128,8|0,0:0|0:0,0:0:0:0:
86,81,12609,2,0,P|50:134|83:179,1,128,2|0,0:0|0:0,0:0:0:0:
307,232,13014,2,0,L|170:232,1,128,8|0,0:0|0:0,0:0:0:0:
402,166,13419,6,0,B|432:108|432:108|372:88,1,128,2|0,0:0|0:0,0:0:0:0:
243,94,13825,1,8,0:0:0:0:
330,128,13959,1,0,0:0:0:0:
243,94,14096,1,0,0:0:0:0:
466,263,14230,5,2,0:0:0:0:
379,229,14365,1,0,0:0:0:0:
292,195,14501,1,0,0:0:0:0:
153,236,14636,1,8,0:0:0:0:
240,270,14770,1,0,0:0:0:0:
153,236,14907,1,0,0:0:0:0:
375,223,15041,6,0,P|418:176|390:126,1,128,2|0,0:0|0:0,0:0:0:0:
167,223,15446,2,0,P|124:176|152:126,1,128,8|0,0:0|0:0,0:0:0:0:
376,222,15852,2,0,L|228:222,1,128,2|0,0:0|0:0,0:0:0:0:
472,119,16257,2,0,P|498:172|455:215,1,128,8|0,0:0|0:0,0:0:0:0:
231,225,16663,6,0,B|244:159|244:159|301:141,1,128,2|0,0:0|0:0,0:0:0:0:
174,82,17068,1,8,0:0:0:0:
261,116,17204,1,0,0:0:0:0:
174,82,17339,1,0,0:0:0:0:
398,240,17474,5,2,0:0:0:0:
311,206,17609,1,0,0:0:0:0:
224,172,17744,1,0,0:0:0:0:
378,117,17879,1,8,0:0:0:0:
465,151,18015,1,0,0:0:0:0:
378,117,18150,1,0,0:0:0:0:
156,87,18284,6,0,P|169:148|224:172,1,128,2|0,0:0|0:0,0:0:0:0:
450,213,18690,2,0,P|437:274|382:298,1,128,8|0,0:0|0:0,0:0:0:0:
158,300,19095,2,0,P|101:275|89:215,1,128,2|0,0:0|0:0,0:0:0:0:
314,224,19501,2,0,P|371:199|383:139,1,128,8|0,0:0|0:0,0:0:0:0:
95,322,19906,6,0,P|83:142|253:100,1,384,4|2,0:0|0:0,0:0:0:0:
93,119,21122,1,0,0:0:0:0:
382,88,21528,2,0,P|429:256|263:301,1,384,8|2,0:0|0:0,0:0:0:0:
93,119,22744,1,0,0:0:0:0:
432,112,23149,6,0,P|257:298|72:112,1,576,2|0,0:0|0:0,0:0:0:0:
432,112,24771,2,0,L|435:316,1,192,8|2,0:0|0:0,0:0:0:0:
107,285,25987,1,0,0:0:0:0:
376,290,26392,5,2,0:0:0:0:
414,231,26494,1,0,0:0:0:0:
380,173,26595,1,0,0:0:0:0:
310,177,26696,1,0,0:0:0:0:
228,203,26798,1,0,0:0:0:0:
158,207,26899,1,0,0:0:0:0:
124,149,27000,1,0,0:0:0:0:
162,90,27102,1,0,0:0:0:0:
423,108,27203,6,0,P|425:198|342:233,1,192,2|0,0:0|0:0,0:0:0:0:
160,192,27811,1,0,0:0:0:0:
256,192,27913,1,0,0:0:0:0:
352,192,28014,2,0,B|448:192|448:192|64:192|64:192|184:192,1,576,8|2,0:0|0:0,0:0:0:0:
416,280,29636,6,2,P|256:84|96:280,1,576
496,288,31257,2,0,B|256:128|256:128|16:288,1,576,8|0,0:0|0:0,0:0:0:0:
496,192,32879,5,4,0:0:0:0:
416,239,32980,1,0,0:0:0:0:
414,189,33082,1,0,0:0:0:0:
412,143,33183,1,0,0:0:0:0:
243,135,33284,1,2,0:0:0:0:
167,171,33386,1,0,0:0:0:0:
238,205,33487,1,0,0:0:0:0:
310,236,33589,1,0,0:0:0:0:
142,268,33690,5,2,0:0:0:0:
214,237,33792,1,0,0:0:0:0:
213,173,33892,1,0,0:0:0:0:
285,142,33994,1,0,0:0:0:0:
117,87,34095,1,2,0:0:0:0:
45,118,34197,1,2,0:0:0:0:
122,157,34298,1,2,0:0:0:0:
50,188,34399,1,2,0:0:0:0:
217,209,34501,5,4,0:0:0:0:
145,240,34602,1,0,0:0:0:0:
73,271,34703,1,0,0:0:0:0:
145,240,34805,1,0,0:0:0:0:
313,147,34906,1,2,0:0:0:0:
241,178,35008,1,0,0:0:0:0:
318,217,35109,1,0,0:0:0:0:
246,248,35210,1,0,0:0:0:0:
414,43,35311,5,4,0:0:0:0:
337,62,35412,1,0,0:0:0:0:
416,112,35513,1,0,0:0:0:0:
339,131,35615,1,0,0:0:0:0:
98,43,35717,1,4,0:0:0:0:
98,43,36122,5,4,0:0:0:0:
176,77,36224,1,0,0:0:0:0:
176,77,36324,1,0,0:0:0:0:
98,43,36426,1,0,0:0:0:0:
267,128,36528,1,2,0:0:0:0:
195,159,36630,1,0,0:0:0:0:
272,198,36731,1,0,0:0:0:0:
200,229,36833,1,0,0:0:0:0:
35,231,36933,5,2,0:0:0:0:
107,200,37035,1,0,0:0:0:0:
103,133,37136,1,0,0:0:0:0:
31,164,37237,1,0,0:0:0:0:
199,173,37338,1,2,0:0:0:0:
271,142,37440,1,2,0:0:0:0:
194,103,37541,1,2,0:0:0:0:
266,75,37643,1,2,0:0:0:0:
434,80,37744,5,4,0:0:0:0:
436,147,37845,1,0,0:0:0:0:
338,128,37946,1,0,0:0:0:0:
340,195,38047,1,0,0:0:0:0:
436,147,38149,1,2,0:0:0:0:
434,214,38250,1,0,0:0:0:0:
266,205,38351,1,0,0:0:0:0:
264,272,38452,1,0,0:0:0:0:
435,290,38555,5,4,0:0:0:0:
358,271,38657,1,0,0:0:0:0:
435,290,38758,1,0,0:0:0:0:
358,271,38859,1,0,0:0:0:0:
166,268,38960,1,4,0:0:0:0:
358,271,39365,6,0,L|467:264,1,96,4|0,0:0|0:0,0:0:0:0:
309,258,39771,1,8,0:0:0:0:
239,233,39872,1,0,0:0:0:0:
211,175,39974,1,0,0:0:0:0:
246,125,40075,1,0,0:0:0:0:
318,118,40176,1,2,0:0:0:0:
193,89,40379,1,0,0:0:0:0:
366,46,40582,2,0,L|373:155,1,96,8|0,0:0|0:0,0:0:0:0:
74,113,40987,6,0,L|67:222,1,96,2|0,0:0|0:0,0:0:0:0:
211,184,41392,1,8,0:0:0:0:
144,202,41494,1,0,0:0:0:0:
113,263,41595,1,0,0:0:0:0:
141,325,41696,1,0,0:0:0:0:
310,150,41798,2,0,L|317:259,1,96,2|0,0:0|0:0,0:0:0:0:
173,189,42203,2,0,L|166:298,1,96,8|0,0:0|0:0,0:0:0:0:
437,117,42609,6,0,L|444:226,1,96,2|0,0:0|0:0,0:0:0:0:
270,42,43014,2,0,B|173:52|173:52|201:91,1,144,8|0,0:0|0:0,0:0:0:0:
367,178,43419,1,2,0:0:0:0:
425,177,43521,1,0,0:0:0:0:
367,178,43622,1,0,0:0:0:0:
218,241,43825,1,8,0:0:0:0:
276,243,43927,1,0,0:0:0:0:
218,241,44028,1,0,0:0:0:0:
55,250,44230,6,0,L|53:153,1,96,2|0,0:0|0:0,0:0:0:0:
217,101,44636,2,0,L|116:101,1,96,8|0,0:0|0:0,0:0:0:0:
409,124,45041,2,0,L|415:219,1,96,2|0,0:0|0:0,0:0:0:0:
269,253,45447,2,0,L|370:253,1,96,8|0,0:0|0:0,0:0:0:0:
173,308,45852,6,0,B|88:264|88:264|133:244,1,144,2|0,0:0|0:0,0:0:0:0:
300,200,46257,2,0,B|345:180|345:180|260:136,1,144,8|0,0:0|0:0,0:0:0:0:
92,130,46663,2,0,L|88:229,1,96,2|0,0:0|0:0,0:0:0:0:
161,237,46967,1,0,0:0:0:0:
329,259,47068,2,0,L|332:163,1,96,8|0,0:0|0:0,0:0:0:0:
42,70,47474,6,0,B|8:104|8:104|59:104,1,96,2|0,0:0|0:0,0:0:0:0:
128,103,47778,1,0,0:0:0:0:
295,103,47879,2,0,L|170:103,1,96,8|0,0:0|0:0,0:0:0:0:
468,205,48284,2,0,B|502:239|502:239|451:239,1,96,2|0,0:0|0:0,0:0:0:0:
382,238,48588,1,0,0:0:0:0:
215,238,48690,2,0,L|97:237,1,96,8|0,0:0|0:0,0:0:0:0:
429,212,49095,5,2,0:0:0:0:
434,185,49298,1,0,0:0:0:0:
284,161,49501,1,8,0:0:0:0:
289,134,49703,1,0,0:0:0:0:
129,143,49906,1,2,0:0:0:0:
71,143,50007,1,0,0:0:0:0:
129,143,50109,1,0,0:0:0:0:
274,120,50311,1,8,0:0:0:0:
332,122,50412,1,0,0:0:0:0:
274,120,50514,1,0,0:0:0:0:
91,51,50717,6,0,P|75:121|128:159,1,144,2|0,0:0|0:0,0:0:0:0:
294,103,51122,1,8,0:0:0:0:
198,106,51325,1,2,0:0:0:0:
486,236,51528,1,2,0:0:0:0:
342,168,51731,1,2,0:0:0:0:
198,106,51933,1,8,0:0:0:0:
369,110,52136,1,0,0:0:0:0:
61,175,52338,6,0,B|14:175|14:175|70:175,1,96,4|0,0:0|0:0,0:0:0:0:
125,178,52642,1,0,0:0:0:0:
294,147,52744,1,8,0:0:0:0:
179,102,52946,1,2,0:0:0:0:
448,98,53149,2,0,B|496:101|496:101|450:114,1,96,2|0,0:0|0:0,0:0:0:0:
269,204,53555,1,8,0:0:0:0:
206,201,53657,1,0,0:0:0:0:
269,204,53758,1,0,0:0:0:0:
332,207,53860,1,0,0:0:0:0:
166,283,53960,6,0,L|60:282,1,96,2|0,0:0|0:0,0:0:0:0:
59,196,54264,1,0,0:0:0:0:
227,154,54365,1,8,0:0:0:0:
83,113,54568,1,2,0:0:0:0:
352,51,54771,5,2,0:0:0:0:
417,67,54872,1,0,0:0:0:0:
445,127,54974,1,0,0:0:0:0:
414,188,55075,1,0,0:0:0:0:
246,99,55176,1,8,0:0:0:0:
181,115,55277,1,0,0:0:0:0:
153,175,55379,1,0,0:0:0:0:
184,236,55480,1,0,0:0:0:0:
353,246,55582,6,0,B|413:204|413:204|388:133,1,144,2|0,0:0|0:0,0:0:0:0:
222,126,55987,2,0,P|265:71|336:61,1,144,8|0,0:0|0:0,0:0:0:0:
168,48,56392,5,2,0:0:0:0:
105,51,56494,1,0,0:0:0:0:
168,48,56595,1,0,0:0:0:0:
105,51,56696,1,0,0:0:0:0:
322,124,56798,1,8,0:0:0:0:
385,121,56900,1,0,0:0:0:0:
322,124,57001,1,0,0:0:0:0:
259,127,57103,1,0,0:0:0:0:
93,123,57203,6,0,B|52:149|52:149|52:197,1,96,2|0,0:0|0:0,0:0:0:0:
124,224,57507,1,0,0:0:0:0:
293,227,57609,1,8,0:0:0:0:
386,137,57811,1,2,0:0:0:0:
117,38,58014,5,2,0:0:0:0:
192,49,58115,1,0,0:0:0:0:
256,84,58217,1,0,0:0:0:0:
295,148,58318,1,0,0:0:0:0:
306,220,58419,1,8,0:0:0:0:
279,290,58521,1,0,0:0:0:0:
218,334,58622,1,0,0:0:0:0:
145,339,58724,1,0,0:0:0:0:
312,295,58825,6,0,B|397:251|397:251|352:231,1,144,2|0,0:0|0:0,0:0:0:0:
185,187,59230,2,0,B|140:167|140:167|225:123,1,144,8|0,0:0|0:0,0:0:0:0:
393,40,59636,5,2,0:0:0:0:
318,51,59737,1,0,0:0:0:0:
254,86,59839,1,0,0:0:0:0:
215,150,59940,1,0,0:0:0:0:
204,222,60041,1,8,0:0:0:0:
231,292,60143,1,0,0:0:0:0:
292,336,60244,1,0,0:0:0:0:
365,341,60346,1,0,0:0:0:0:
199,334,60446,6,0,L|144:253,1,96,2|0,0:0|0:0,0:0:0:0:
233,259,60751,1,0,0:0:0:0:
319,265,60852,2,2,L|374:184,1,96,10|2,0:0|0:0,0:0:0:0:
109,61,61257,5,2,0:0:0:0:
98,128,61359,1,0,0:0:0:0:
184,130,61460,1,0,0:0:0:0:
173,197,61562,1,0,0:0:0:0:
250,199,61663,1,8,0:0:0:0:
239,266,61765,1,0,0:0:0:0:
305,269,61865,1,0,0:0:0:0:
294,336,61967,1,0,0:0:0:0:
101,340,62068,6,0,L|59:254,1,96,4|0,0:0|0:0,0:0:0:0:
146,263,62372,1,0,0:0:0:0:
58,253,62474,2,0,L|100:167,1,96,8|0,0:0|0:0,0:0:0:0:
365,272,62879,2,0,L|323:186,1,96,2|0,0:0|0:0,0:0:0:0:
236,191,63183,1,0,0:0:0:0:
322,185,63284,2,0,L|364:99,1,96,8|0,0:0|0:0,0:0:0:0:
98,67,63690,6,0,P|91:115|110:159,1,96,2|0,0:0|0:0,0:0:0:0:
196,151,63994,1,0,0:0:0:0:
364,161,64095,2,0,L|263:171,1,96,8|0,0:0|0:0,0:0:0:0:
341,203,64399,1,0,0:0:0:0:
173,249,64501,5,2,0:0:0:0:
168,220,64602,1,0,0:0:0:0:
336,199,64703,1,2,0:0:0:0:
403,198,64804,1,0,0:0:0:0:
210,90,64906,1,8,0:0:0:0:
134,90,65007,1,0,0:0:0:0:
303,27,65109,1,8,0:0:0:0:
386,27,65210,1,0,0:0:0:0:
147,56,65311,5,4,0:0:0:0:
74,82,65413,1,0,0:0:0:0:
146,113,65514,1,0,0:0:0:0:
73,139,65616,1,0,0:0:0:0:
241,126,65717,1,8,0:0:0:0:
314,152,65819,1,0,0:0:0:0:
310,207,65919,1,0,0:0:0:0:
383,233,66021,1,0,0:0:0:0:
215,283,66122,5,2,0:0:0:0:
212,212,66224,1,0,0:0:0:0:
310,207,66325,1,0,0:0:0:0:
307,136,66427,1,0,0:0:0:0:
124,159,66528,1,8,0:0:0:0:
199,156,66629,1,0,0:0:0:0:
273,152,66730,1,0,0:0:0:0:
348,144,66832,1,0,0:0:0:0:
157,316,66933,5,2,0:0:0:0:
78,301,67034,1,0,0:0:0:0:
76,226,67136,1,0,0:0:0:0:
74,151,67237,1,0,0:0:0:0:
242,287,67338,5,8,0:0:0:0:
163,272,67439,1,0,0:0:0:0:
161,197,67541,1,0,0:0:0:0:
159,122,67642,1,0,0:0:0:0:
327,258,67744,5,2,0:0:0:0:
248,243,67845,1,0,0:0:0:0:
246,168,67947,1,0,0:0:0:0:
244,93,68048,1,0,0:0:0:0:
412,229,68149,5,8,0:0:0:0:
333,214,68250,1,0,0:0:0:0:
331,139,68352,1,2,0:0:0:0:
410,129,68453,1,2,0:0:0:0:
217,58,68555,5,2,0:0:0:0:
385,95,68656,1,2,0:0:0:0:
306,105,68757,1,0,0:0:0:0:
385,95,68859,1,0,0:0:0:0:
217,58,68960,5,10,0:0:0:0:
385,95,69061,1,2,0:0:0:0:
306,105,69162,1,0,0:0:0:0:
385,95,69264,1,0,0:0:0:0:
217,58,69365,5,2,0:0:0:0:
138,68,69467,1,0,0:0:0:0:
306,105,69568,1,2,0:0:0:0:
227,115,69670,1,0,0:0:0:0:
59,168,69771,1,8,0:0:0:0:
138,178,69873,1,0,0:0:0:0:
306,105,69974,1,2,0:0:0:0:
227,115,70076,1,0,0:0:0:0:
417,115,70176,5,2,0:0:0:0:
447,156,70278,1,0,0:0:0:0:
414,203,70379,1,0,0:0:0:0:
346,217,70480,1,0,0:0:0:0:
177,232,70582,1,8,0:0:0:0:
249,227,70683,1,0,0:0:0:0:
417,115,70784,1,2,0:0:0:0:
489,110,70885,1,2,0:0:0:0:
320,52,70987,5,2,0:0:0:0:
248,57,71088,1,2,0:0:0:0:
321,120,71190,1,2,0:0:0:0:
249,125,71291,1,2,0:0:0:0:
441,237,71392,1,8,0:0:0:0:
371,245,71493,1,0,0:0:0:0:
200,225,71595,1,2,0:0:0:0:
130,233,71696,1,0,0:0:0:0:
321,199,71798,5,4,0:0:0:0:
393,177,71899,1,0,0:0:0:0:
321,137,72001,1,0,0:0:0:0:
393,115,72102,1,0,0:0:0:0:
225,89,72203,1,8,0:0:0:0:
222,153,72305,1,0,0:0:0:0:
219,219,72406,1,0,0:0:0:0:
144,222,72507,1,0,0:0:0:0:
317,207,72609,5,2,0:0:0:0:
245,231,72710,1,0,0:0:0:0:
317,271,72811,1,0,0:0:0:0:
389,247,72912,1,0,0:0:0:0:
221,103,73014,1,8,0:0:0:0:
149,127,73115,1,0,0:0:0:0:
317,151,73216,1,0,0:0:0:0:
389,127,73317,1,0,0:0:0:0:
196,85,73419,5,2,0:0:0:0:
193,149,73521,1,0,0:0:0:0:
265,177,73622,1,0,0:0:0:0:
193,149,73724,1,0,0:0:0:0:
361,153,73825,5,8,0:0:0:0:
364,217,73927,1,0,0:0:0:0:
292,245,74028,1,0,0:0:0:0:
364,217,74130,1,0,0:0:0:0:
176,171,74230,5,2,0:0:0:0:
173,235,74332,1,0,0:0:0:0:
245,263,74433,1,0,0:0:0:0:
173,235,74535,1,0,0:0:0:0:
384,171,74636,5,8,0:0:0:0:
387,235,74738,1,0,0:0:0:0:
315,263,74839,1,2,0:0:0:0:
387,235,74941,1,2,0:0:0:0:
197,31,75041,5,2,0:0:0:0:
29,68,75142,1,2,0:0:0:0:
108,78,75243,1,0,0:0:0:0:
29,68,75345,1,0,0:0:0:0:
197,31,75446,5,10,0:0:0:0:
29,68,75547,1,2,0:0:0:0:
108,78,75648,1,0,0:0:0:0:
29,68,75750,1,0,0:0:0:0:
197,31,75852,5,2,0:0:0:0:
276,41,75953,1,0,0:0:0:0:
108,78,76054,1,2,0:0:0:0:
163,147,76156,1,0,0:0:0:0:
331,200,76257,1,8,0:0:0:0:
252,210,76359,1,0,0:0:0:0:
84,137,76460,1,2,0:0:0:0:
163,147,76562,1,0,0:0:0:0:
355,79,76663,5,2,0:0:0:0:
359,155,76764,1,0,0:0:0:0:
287,160,76865,1,0,0:0:0:0:
359,155,76967,1,0,0:0:0:0:
192,96,77068,1,8,0:0:0:0:
158,156,77169,1,0,0:0:0:0:
187,219,77271,1,0,0:0:0:0:
256,235,77372,1,0,0:0:0:0:
425,201,77474,5,2,0:0:0:0:
353,216,77575,1,0,0:0:0:0:
350,277,77676,1,0,0:0:0:0:
277,287,77778,1,0,0:0:0:0:
445,132,77879,1,10,0:0:0:0:
372,142,77981,1,2,0:0:0:0:
445,132,78082,1,2,0:0:0:0:
16,192,78284,5,4,0:0:0:0:
96,239,78386,1,0,0:0:0:0:
98,190,78487,1,0,0:0:0:0:
99,143,78588,1,0,0:0:0:0:
268,137,78690,1,8,0:0:0:0:
199,166,78791,1,0,0:0:0:0:
198,233,78891,1,0,0:0:0:0:
128,262,78993,1,0,0:0:0:0:
295,231,79094,5,2,0:0:0:0:
227,197,79196,1,0,0:0:0:0:
300,161,79297,1,0,0:0:0:0:
228,130,79399,1,0,0:0:0:0:
395,87,79500,1,8,0:0:0:0:
470,97,79602,1,0,0:0:0:0:
491,142,79703,1,0,0:0:0:0:
462,188,79804,1,0,0:0:0:0:
295,209,79906,5,2,0:0:0:0:
367,240,80007,1,0,0:0:0:0:
439,271,80108,1,0,0:0:0:0:
367,240,80210,1,0,0:0:0:0:
199,147,80311,1,8,0:0:0:0:
271,178,80413,1,0,0:0:0:0:
194,217,80514,1,0,0:0:0:0:
266,248,80615,1,0,0:0:0:0:
98,43,80716,5,2,0:0:0:0:
172,59,80817,1,2,0:0:0:0:
96,112,80918,1,2,0:0:0:0:
173,131,81020,1,2,0:0:0:0:
414,43,81122,1,10,0:0:0:0:
414,43,81527,5,4,0:0:0:0:
336,77,81629,1,0,0:0:0:0:
336,77,81729,1,0,0:0:0:0:
414,43,81831,1,0,0:0:0:0:
245,128,81933,1,8,0:0:0:0:
317,159,82035,1,0,0:0:0:0:
240,198,82136,1,0,0:0:0:0:
312,229,82238,1,0,0:0:0:0:
477,231,82338,5,2,0:0:0:0:
405,200,82440,1,0,0:0:0:0:
409,133,82541,1,0,0:0:0:0:
481,164,82642,1,0,0:0:0:0:
313,173,82743,1,8,0:0:0:0:
241,142,82845,1,0,0:0:0:0:
318,103,82946,1,0,0:0:0:0:
246,75,83048,1,0,0:0:0:0:
78,80,83149,5,2,0:0:0:0:
76,147,83250,1,0,0:0:0:0:
174,128,83351,1,0,0:0:0:0:
172,195,83452,1,0,0:0:0:0:
343,169,83555,1,8,0:0:0:0:
345,236,83656,1,0,0:0:0:0:
247,217,83757,1,0,0:0:0:0:
249,284,83858,1,0,0:0:0:0:
77,290,83960,5,2,0:0:0:0:
154,271,84062,1,2,0:0:0:0:
77,290,84163,1,2,0:0:0:0:
154,271,84264,1,2,0:0:0:0:
345,279,84365,2,0,L|452:279,1,96,8|2,0:0|0:0,0:0:0:0:
128,192,84771,6,0,B|30:193|30:193|134:193,1,192,4|0,0:0|0:0,0:0:0:0:
384,192,85582,2,0,B|482:193|482:193|378:193,1,192,2|0,0:0|0:0,0:0:0:0:
160,96,86392,2,0,L|368:96,3,192,8|0|0|0,0:0|0:0|0:0|0:0,0:0:0:0:
64,32,88014,6,0,P|32:120|104:160,1,192,2|0,0:0|0:0,0:0:0:0:
360,168,88825,2,0,P|392:256|320:296,1,192,2|0,0:0|0:0,0:0:0:0:
64,200,89636,1,8,0:0:0:0:
319,280,90041,2,0,P|390:138|96:97,1,576.000021972657,2|0,0:0|0:0,0:0:0:0:
414,94,91257,6,0,L|208:96,3,192,4|0|2|0,0:0|0:0|0:0|0:0,0:0:0:0:
171,114,92541,1,0,0:0:0:0:
147,162,92609,1,0,0:0:0:0:
152,214,92676,1,0,0:0:0:0:
189,248,92744,1,0,0:0:0:0:
247,265,92811,1,0,0:0:0:0:
376,271,92879,6,0,P|478:194|426:64,1,288.000010986329,8|0,0:0|0:0,0:0:0:0:
176,96,93690,2,0,L|392:200,1,240,2|0,0:0|0:0,0:0:0:0:
256,96,94298,1,0,0:0:0:0:
120,96,94501,6,0,B|24:96|24:96|136:96,1,192,2|0,0:0|0:0,0:0:0:0:
376,192,95311,1,2,0:0:0:0:
136,192,95717,1,2,0:0:0:0:
386,37,96122,2,0,P|407:104|360:153,1,144,8|0,0:0|0:0,0:0:0:0:
192,152,96528,2,0,P|254:326|320:152,1,480,2|0,0:0|0:0,0:0:0:0:
24,88,97744,6,0,L|16:184,1,96,4|0,0:0|0:0,0:0:0:0:
168,104,98149,1,8,0:0:0:0:
240,128,98251,1,0,0:0:0:0:
264,200,98352,1,0,0:0:0:0:
232,264,98453,1,0,0:0:0:0:
64,224,98555,2,0,L|56:128,1,96,2|0,0:0|0:0,0:0:0:0:
128,120,98859,1,0,0:0:0:0:
296,96,98960,2,0,L|192:104,1,96,8|0,0:0|0:0,0:0:0:0:
464,80,99365,6,0,L|472:176,1,96,2|0,0:0|0:0,0:0:0:0:
400,184,99669,1,0,0:0:0:0:
232,200,99771,1,8,0:0:0:0:
160,208,99872,1,0,0:0:0:0:
328,128,99974,1,0,0:0:0:0:
400,120,100075,1,0,0:0:0:0:
208,56,100176,6,0,L|200:152,1,96,2|0,0:0|0:0,0:0:0:0:
368,160,100480,1,0,0:0:0:0:
372,209,100582,1,8,0:0:0:0:
376,256,100683,1,0,0:0:0:0:
208,250,100784,1,0,0:0:0:0:
204,297,100885,1,0,0:0:0:0:
397,320,100987,6,0,L|493:312,1,96,2|0,0:0|0:0,0:0:0:0:
319,234,101392,2,0,L|223:226,1,96,8|0,0:0|0:0,0:0:0:0:
296,196,101696,1,0,0:0:0:0:
127,199,101798,2,0,L|119:103,1,96,2|0,0:0|0:0,0:0:0:0:
292,81,102203,2,0,L|388:73,1,96,8|0,0:0|0:0,0:0:0:0:
122,135,102609,6,0,L|26:143,1,96,8|0,0:0|0:0,0:0:0:0:
195,150,102913,1,2,0:0:0:0:
196,202,103014,1,0,0:0:0:0:
197,255,103115,1,0,0:0:0:0:
366,215,103217,1,2,0:0:0:0:
367,268,103318,1,0,0:0:0:0:
200,309,103419,6,0,L|104:317,1,96,2|0,0:0|0:0,0:0:0:0:
178,311,103724,1,2,0:0:0:0:
345,292,103825,1,0,0:0:0:0:
417,285,103926,1,0,0:0:0:0:
248,191,104028,1,2,0:0:0:0:
176,198,104129,1,0,0:0:0:0:
368,174,104230,6,0,L|464:166,1,96,2|0,0:0|0:0,0:0:0:0:
290,280,104636,1,8,0:0:0:0:
218,256,104738,1,0,0:0:0:0:
194,184,104839,1,0,0:0:0:0:
226,120,104940,1,0,0:0:0:0:
394,132,105041,6,0,L|402:228,1,96,2|0,0:0|0:0,0:0:0:0:
474,229,105345,1,0,0:0:0:0:
306,282,105446,2,0,L|298:186,1,96,8|0,0:0|0:0,0:0:0:0:
371,193,105751,1,0,0:0:0:0:
203,239,105852,6,0,L|195:143,1,96,8|0,0:0|0:0,0:0:0:0:
364,152,106156,1,2,0:0:0:0:
436,151,106257,1,0,0:0:0:0:
364,152,106359,1,0,0:0:0:0:
196,157,106460,1,2,0:0:0:0:
124,158,106562,1,0,0:0:0:0:
291,78,106663,6,0,L|387:86,1,96,2|0,0:0|0:0,0:0:0:0:
314,111,106967,1,0,0:0:0:0:
147,210,107068,2,0,L|243:218,1,96,8|0,0:0|0:0,0:0:0:0:
315,228,107372,1,0,0:0:0:0:
122,282,107474,6,0,B|97:214|97:214|167:199,1,144,2|0,0:0|0:0,0:0:0:0:
335,163,107879,2,0,B|405:148|405:148|380:80,1,144,8|0,0:0|0:0,0:0:0:0:
168,32,108284,2,0,B|72:32|72:32|120:32,1,144,2|0,0:0|0:0,0:0:0:0:
392,32,108690,2,0,B|440:32|440:32|344:32,1,144,8|0,0:0|0:0,0:0:0:0:
168,32,109095,6,0,P|257:100|344:32,1,240,8|0,0:0|0:0,0:0:0:0:
168,32,109703,1,2,0:0:0:0:
96,32,109805,1,0,0:0:0:0:
344,32,109906,5,2,0:0:0:0:
352,104,110007,1,0,0:0:0:0:
184,144,110109,1,2,0:0:0:0:
256,144,110211,1,0,0:0:0:0:
422,203,110311,1,8,0:0:0:0:
350,203,110413,1,0,0:0:0:0:
182,215,110514,1,2,0:0:0:0:
110,223,110615,1,0,0:0:0:0:
330,215,110717,5,4,0:0:0:0:
453,216,110919,1,0,0:0:0:0:
436,95,111122,1,2,0:0:0:0:
244,102,111325,2,0,B|207:163|207:163|246:225,1,144,2|0,0:0|0:0,0:0:0:0:
416,200,111730,2,0,B|448:200|448:200|336:200,1,144,2|0,0:0|0:0,0:0:0:0:
171,300,112136,2,0,L|168:230,1,48
372,176,112339,6,0,P|258:29|139:177,1,432.000016479493,2|0,0:0|0:0,0:0:0:0:
306,179,113048,1,0,0:0:0:0:
475,181,113150,1,8,0:0:0:0:
188,245,113555,1,2,0:0:0:0:
324,245,113757,1,0,0:0:0:0:
36,255,113960,6,0,B|32:160|32:160|129:160,1,192,4|0,0:0|0:0,0:0:0:0:
307,201,114568,2,2,B|311:296|311:296|214:296,1,192
407,300,115379,2,0,L|407:232,1,48
216,256,115582,2,0,B|72:256|72:256|232:256,1,288,2|8,0:0|0:0,0:0:0:0:
480,256,116392,2,2,L|336:256,2,144
182,215,117203,5,4,0:0:0:0:
59,216,117405,1,0,0:0:0:0:
76,95,117608,1,2,0:0:0:0:
268,102,117811,2,0,B|305:163|305:163|266:225,1,144,2|0,0:0|0:0,0:0:0:0:
96,200,118217,2,0,B|64:200|64:200|176:200,1,144,2|0,0:0|0:0,0:0:0:0:
344,300,118622,2,0,L|347:230,1,48
140,176,118825,6,0,P|254:29|373:177,1,432.000016479493,2|0,0:0|0:0,0:0:0:0:
206,179,119534,1,0,0:0:0:0:
37,181,119636,1,8,0:0:0:0:
324,245,120041,1,2,0:0:0:0:
188,245,120243,1,0,0:0:0:0:
490,253,120446,6,0,B|494:158|494:158|397:158,1,192,4|0,0:0|0:0,0:0:0:0:
205,201,121054,2,2,B|201:296|201:296|298:296,1,192
105,300,121865,2,0,L|105:232,1,48
296,256,122068,2,0,B|440:256|440:256|280:256,1,288,2|8,0:0|0:0,0:0:0:0:
32,256,122879,2,2,L|192:256,2,144
480,256,123690,1,4,0:0:0:0:
256,192,123892,12,0,125514,0:0:0:0:
