osu file format v14

[General]
AudioFilename: audio.mp3
AudioLeadIn: 0
PreviewTime: 39163
Countdown: 0
SampleSet: Soft
StackLeniency: 0.7
Mode: 2
LetterboxInBreaks: 0
WidescreenStoryboard: 1

[Editor]
Bookmarks: 447,19906,32879,39365,52338,65311,71798,78284,84771,97744,110717,125514
DistanceSpacing: 0.9
BeatDivisor: 4
GridSize: 8
TimelineZoom: 2.2

[Metadata]
Title:Turii ~Panta rhei~
TitleUnicode:Turii ~Panta rhei~
Artist:Zektbach
ArtistUnicode:Zektbach
Creator:Kyuare
Version:Salad
Source:beatmania IIDX 16 EMPRESS
Tags:ゼクトバッハ iidx16 tomosuke funaki 舟木智介 maya takamura 高村真耶 Akiko Shikata 志方あきこ elemental chant malchut REFLEC BEAT
BeatmapID:1569983
BeatmapSetID:685428

[Difficulty]
HPDrainRate:4
CircleSize:3.3
OverallDifficulty:7
ApproachRate:7
SliderMultiplier:1.6
SliderTickRate:1

[Events]
//Background and Video events
0,0,"65165749_p0.png",0,0
Video,-11550,"stare2.avi"
//Break Periods
//Storyboard Layer 0 (Background)
//Storyboard Layer 1 (Fail)
//Storyboard Layer 2 (Pass)
//Storyboard Layer 3 (Foreground)
//Storyboard Sound Samples

[TimingPoints]
447,405.405405405405,4,2,0,50,1,0
6933,-100,4,2,0,70,0,0
19906,-100,4,2,0,50,0,0
32879,-100,4,2,0,70,0,0
39365,-100,4,2,0,60,0,0
52338,-100,4,2,0,70,0,0
65311,-100,4,2,0,80,0,1
78284,-100,4,2,0,70,0,0
84771,-100,4,2,0,50,0,0
96528,-117.647058823529,4,2,0,50,0,0
97744,-100,4,2,0,60,0,0
110717,-100,4,2,0,70,0,0
112338,-66.6666666666667,4,2,0,70,0,0
112946,-100,4,2,0,70,0,0
118825,-66.6666666666667,4,2,0,70,0,0
119433,-100,4,2,0,70,0,0
123892,-100,4,2,0,10,0,0

[Colours]
Combo1 : 174,170,115
Combo2 : 177,90,90
Combo3 : 66,97,130
Combo4 : 87,118,80

[HitObjects]
295,288,447,5,4,0:0:0:0:
387,272,649,1,0,0:0:0:0:
295,288,852,1,2,0:0:0:0:
203,303,1055,2,0,L|180:144,1,160,2|0,0:0|0:0,0:0:0:0:
272,133,1663,1,0,0:0:0:0:
364,122,1865,1,0,0:0:0:0:
219,112,2068,5,2,0:0:0:0:
127,97,2270,1,0,0:0:0:0:
219,112,2473,1,0,0:0:0:0:
311,132,2676,2,0,L|334:291,1,160,2|0,0:0|0:0,0:0:0:0:
242,281,3284,1,0,0:0:0:0:
150,270,3486,1,0,0:0:0:0:
351,226,3690,5,2,0:0:0:0:
370,125,4095,1,0,0:0:0:0:
161,226,4501,1,2,0:0:0:0:
142,125,4906,1,0,0:0:0:0:
370,125,5311,6,0,P|388:202|326:232,1,160,2|2,0:0|0:0,0:0:0:0:
134,231,6122,2,0,P|69:195|89:124,1,160,2|2,0:0|0:0,0:0:0:0:
442,129,6933,6,0,P|462:181|442:225,1,106.666666666667,4|0,0:0|0:0,0:0:0:0:
381,225,7338,1,8,0:0:0:0:
188,227,7744,2,0,P|168:279|188:323,1,106.666666666667,2|0,0:0|0:0,0:0:0:0:
249,323,8149,1,8,0:0:0:0:
410,321,8555,5,2,0:0:0:0:
250,251,8960,1,8,0:0:0:0:
410,321,9365,2,0,P|440:249|417:174,1,160,2|8,0:0|0:0,0:0:0:0:
96,195,10176,6,0,P|76:143|96:99,1,106.666666666667,2|0,0:0|0:0,0:0:0:0:
157,99,10581,1,8,0:0:0:0:
350,97,10987,2,0,P|370:45|350:1,1,106.666666666667,2|0,0:0|0:0,0:0:0:0:
289,1,11392,1,8,0:0:0:0:
102,63,11798,5,2,0:0:0:0:
262,133,12203,1,8,0:0:0:0:
102,63,12609,2,0,P|72:135|95:210,1,160,2|8,0:0|0:0,0:0:0:0:
416,215,13419,6,0,L|479:130,1,106.666666666667,2|0,0:0|0:0,0:0:0:0:
417,129,13825,1,8,0:0:0:0:
225,130,14230,2,0,L|162:215,1,106.666666666667,2|0,0:0|0:0,0:0:0:0:
224,216,14636,1,8,0:0:0:0:
416,216,15041,5,2,0:0:0:0:
256,236,15446,1,8,0:0:0:0:
95,257,15852,2,0,P|89:177|146:131,1,160,2|8,0:0|0:0,0:0:0:0:
467,155,16663,6,0,L|404:240,1,106.666666666667,2|0,0:0|0:0,0:0:0:0:
343,241,17068,1,8,0:0:0:0:
150,235,17474,2,0,L|213:150,1,106.666666666667,2|0,0:0|0:0,0:0:0:0:
274,149,17879,1,8,0:0:0:0:
466,135,18284,5,2,0:0:0:0:
306,115,18689,1,8,0:0:0:0:
145,102,19095,2,0,P|80:142|78:219,1,160,2|8,0:0|0:0,0:0:0:0:
416,341,19906,6,0,P|465:192|409:46,1,320,4|2,0:0|0:0,0:0:0:0:
256,40,21122,1,0,0:0:0:0:
103,45,21528,2,0,P|47:191|96:341,1,320,8|2,0:0|0:0,0:0:0:0:
256,352,22744,1,0,0:0:0:0:
416,383,23149,2,0,P|483:190|298:25,1,480,2|0,0:0|0:0,0:0:0:0:
106,273,24771,6,0,L|106:105,1,160,8|2,0:0|0:0,0:0:0:0:
106,113,25987,1,0,0:0:0:0:
298,109,26392,1,2,0:0:0:0:
325,184,26595,1,0,0:0:0:0:
293,257,26798,1,0,0:0:0:0:
214,270,27001,1,0,0:0:0:0:
118,270,27203,2,0,P|98:152|191:108,1,240,2|0,0:0|0:0,0:0:0:0:
392,39,28014,6,0,P|463:250|266:333,1,480,8|2,0:0|0:0,0:0:0:0:
104,347,29636,2,0,P|41:200|256:22,1,480,2|2,0:0|0:0,0:0:0:0:
447,23,31257,1,8,0:0:0:0:
65,23,32879,5,4,0:0:0:0:
257,117,33284,1,2,0:0:0:0:
293,154,33386,1,0,0:0:0:0:
329,196,33487,1,0,0:0:0:0:
257,268,33690,1,2,0:0:0:0:
97,270,34095,1,2,0:0:0:0:
137,166,34298,1,2,0:0:0:0:
329,166,34501,5,4,0:0:0:0:
489,238,34906,1,2,0:0:0:0:
449,131,35109,1,0,0:0:0:0:
258,141,35311,1,4,0:0:0:0:
222,181,35413,1,0,0:0:0:0:
186,220,35514,1,0,0:0:0:0:
258,292,35717,1,4,0:0:0:0:
449,131,36122,5,4,0:0:0:0:
257,126,36528,1,2,0:0:0:0:
221,166,36630,1,0,0:0:0:0:
185,205,36731,1,0,0:0:0:0:
257,277,36934,1,2,0:0:0:0:
353,279,37136,1,0,0:0:0:0:
257,277,37338,5,2,0:0:0:0:
205,269,37440,1,2,0:0:0:0:
153,261,37541,1,2,0:0:0:0:
257,277,37744,1,4,0:0:0:0:
353,279,37946,1,0,0:0:0:0:
400,228,38149,1,2,0:0:0:0:
304,224,38352,1,0,0:0:0:0:
111,218,38555,5,4,0:0:0:0:
71,178,38656,1,0,0:0:0:0:
31,149,38757,1,0,0:0:0:0:
110,77,38960,1,4,0:0:0:0:
462,95,39365,5,4,0:0:0:0:
366,104,39568,1,0,0:0:0:0:
270,113,39771,2,0,L|268:275,1,160,8|2,0:0|0:0,0:0:0:0:
364,276,40379,1,0,0:0:0:0:
460,283,40582,1,8,0:0:0:0:
252,299,40987,5,2,0:0:0:0:
106,226,41392,1,8,0:0:0:0:
202,214,41595,1,0,0:0:0:0:
298,200,41798,2,0,L|299:41,1,160,2|8,0:0|0:0,0:0:0:0:
203,50,42406,1,0,0:0:0:0:
106,63,42609,1,2,0:0:0:0:
313,118,43014,5,8,0:0:0:0:
106,63,43419,2,0,P|65:130|107:189,1,160,2|8,0:0|0:0,0:0:0:0:
204,206,44028,1,0,0:0:0:0:
300,223,44230,2,0,L|459:204,1,160,2|8,0:0|0:0,0:0:0:0:
363,189,44838,1,0,0:0:0:0:
267,175,45041,1,2,0:0:0:0:
474,199,45446,1,8,0:0:0:0:
154,194,45852,6,0,L|291:276,2,160,2|8|2,0:0|0:0|0:0,0:0:0:0:
362,188,47068,1,8,0:0:0:0:
154,135,47474,2,0,P|88:179|88:253,1,160,2|8,0:0|0:0,0:0:0:0:
184,284,48082,1,0,0:0:0:0:
280,282,48284,1,2,0:0:0:0:
88,285,48690,1,8,0:0:0:0:
408,282,49095,5,2,0:0:0:0:
488,272,49298,1,0,0:0:0:0:
408,282,49501,2,0,L|242:301,1,160,8|2,0:0|0:0,0:0:0:0:
168,309,50109,1,0,0:0:0:0:
168,309,50311,1,8,0:0:0:0:
249,300,50514,1,0,0:0:0:0:
401,302,50717,5,2,0:0:0:0:
237,320,51122,1,8,0:0:0:0:
151,276,51325,1,0,0:0:0:0:
131,190,51528,1,2,0:0:0:0:
170,116,51730,1,2,0:0:0:0:
250,85,51933,1,8,0:0:0:0:
354,85,52136,1,0,0:0:0:0:
148,41,52338,5,4,0:0:0:0:
68,70,52541,1,0,0:0:0:0:
32,142,52744,1,8,0:0:0:0:
71,211,52946,1,2,0:0:0:0:
175,224,53149,1,2,0:0:0:0:
270,147,53555,1,8,0:0:0:0:
174,153,53758,1,0,0:0:0:0:
78,166,53960,6,0,P|38:97|80:38,1,160,2|8,0:0|0:0,0:0:0:0:
176,33,54568,1,2,0:0:0:0:
376,56,54771,2,0,P|448:84|471:158,1,160,2|8,0:0|0:0,0:0:0:0:
375,178,55379,1,0,0:0:0:0:
279,194,55582,1,2,0:0:0:0:
471,159,55987,5,8,0:0:0:0:
280,201,56392,1,2,0:0:0:0:
184,228,56595,1,0,0:0:0:0:
280,201,56798,1,8,0:0:0:0:
376,174,57001,1,0,0:0:0:0:
280,201,57203,2,0,P|281:121|347:97,1,160,2|8,0:0|0:0,0:0:0:0:
443,98,57811,1,2,0:0:0:0:
243,56,58014,2,0,P|171:84|148:158,1,160,2|8,0:0|0:0,0:0:0:0:
244,178,58622,1,0,0:0:0:0:
340,194,58825,5,2,0:0:0:0:
148,258,59230,1,8,0:0:0:0:
468,234,59636,2,0,P|475:155|411:122,1,160,2|8,0:0|0:0,0:0:0:0:
315,120,60244,1,0,0:0:0:0:
220,118,60446,2,0,P|144:141|116:210,1,160,2|10,0:0|0:0,0:0:0:0:
213,219,61055,1,2,0:0:0:0:
412,234,61257,5,2,0:0:0:0:
492,171,61460,1,0,0:0:0:0:
412,108,61663,1,8,0:0:0:0:
324,110,61865,1,0,0:0:0:0:
124,116,62068,6,0,P|81:184|126:237,1,160,4|8,0:0|0:0,0:0:0:0:
334,191,62879,2,0,P|377:259|332:312,1,160,2|8,0:0|0:0,0:0:0:0:
109,300,63690,1,2,0:0:0:0:
333,305,64095,1,8,0:0:0:0:
92,308,64501,1,2,0:0:0:0:
188,303,64703,1,2,0:0:0:0:
284,297,64906,1,8,0:0:0:0:
380,289,65109,1,8,0:0:0:0:
173,227,65311,5,4,0:0:0:0:
85,225,65514,1,0,0:0:0:0:
81,174,65615,1,0,0:0:0:0:
77,124,65717,1,8,0:0:0:0:
166,195,65919,1,0,0:0:0:0:
253,103,66123,5,2,0:0:0:0:
262,49,66325,1,0,0:0:0:0:
397,51,66528,1,8,0:0:0:0:
449,66,66630,1,0,0:0:0:0:
469,130,66731,1,0,0:0:0:0:
449,194,66832,1,0,0:0:0:0:
397,202,66934,5,2,0:0:0:0:
205,192,67338,1,8,0:0:0:0:
397,202,67744,1,2,0:0:0:0:
205,192,68149,1,8,0:0:0:0:
174,247,68352,1,2,0:0:0:0:
374,251,68555,5,2,0:0:0:0:
422,255,68656,1,2,0:0:0:0:
374,251,68757,1,0,0:0:0:0:
270,168,68960,1,2,0:0:0:0:
222,164,69061,1,2,0:0:0:0:
270,168,69163,1,0,0:0:0:0:
362,261,69365,1,2,0:0:0:0:
458,233,69568,1,2,0:0:0:0:
458,171,69771,1,8,0:0:0:0:
362,143,69974,1,2,0:0:0:0:
210,145,70176,5,2,0:0:0:0:
371,209,70582,1,8,0:0:0:0:
131,156,70987,1,2,0:0:0:0:
79,171,71089,1,2,0:0:0:0:
59,235,71190,1,2,0:0:0:0:
79,299,71291,1,2,0:0:0:0:
131,307,71393,1,8,0:0:0:0:
450,309,71798,5,4,0:0:0:0:
362,324,72001,1,0,0:0:0:0:
358,269,72102,1,0,0:0:0:0:
354,217,72204,1,8,0:0:0:0:
266,315,72406,1,0,0:0:0:0:
177,211,72610,1,2,0:0:0:0:
173,170,72812,1,0,0:0:0:0:
308,206,73014,1,8,0:0:0:0:
351,171,73115,1,0,0:0:0:0:
354,114,73217,1,2,0:0:0:0:
321,73,73318,1,0,0:0:0:0:
269,58,73419,5,2,0:0:0:0:
77,60,73825,1,8,0:0:0:0:
269,58,74230,1,2,0:0:0:0:
77,60,74636,1,8,0:0:0:0:
118,137,74838,1,2,0:0:0:0:
318,141,75040,5,2,0:0:0:0:
366,145,75141,1,2,0:0:0:0:
318,141,75244,1,0,0:0:0:0:
215,53,75445,1,2,0:0:0:0:
167,49,75548,1,2,0:0:0:0:
215,53,75649,1,0,0:0:0:0:
307,91,75852,1,2,0:0:0:0:
383,112,76055,1,2,0:0:0:0:
417,165,76257,1,8,0:0:0:0:
383,224,76460,1,2,0:0:0:0:
278,250,76663,5,2,0:0:0:0:
438,249,77069,1,8,0:0:0:0:
278,250,77474,1,2,0:0:0:0:
186,250,77676,1,0,0:0:0:0:
94,244,77879,1,10,0:0:0:0:
157,303,77980,1,2,0:0:0:0:
221,351,78082,1,2,0:0:0:0:
428,360,78284,5,4,0:0:0:0:
236,302,78689,1,8,0:0:0:0:
200,263,78791,1,0,0:0:0:0:
164,223,78892,1,0,0:0:0:0:
236,151,79095,1,2,0:0:0:0:
396,149,79500,1,8,0:0:0:0:
436,252,79703,1,0,0:0:0:0:
244,256,79906,5,2,0:0:0:0:
84,184,80311,1,8,0:0:0:0:
44,288,80514,1,0,0:0:0:0:
235,278,80716,1,2,0:0:0:0:
271,240,80818,1,2,0:0:0:0:
307,199,80919,1,2,0:0:0:0:
235,127,81122,1,10,0:0:0:0:
58,25,81528,5,4,0:0:0:0:
250,119,81933,1,8,0:0:0:0:
286,158,82035,1,0,0:0:0:0:
322,198,82136,1,0,0:0:0:0:
250,270,82339,1,2,0:0:0:0:
90,272,82744,1,8,0:0:0:0:
130,171,82947,1,0,0:0:0:0:
322,168,83150,5,2,0:0:0:0:
482,240,83555,1,8,0:0:0:0:
442,134,83758,1,0,0:0:0:0:
251,143,83960,1,2,0:0:0:0:
215,183,84062,1,2,0:0:0:0:
179,222,84163,1,2,0:0:0:0:
263,284,84366,1,8,0:0:0:0:
347,298,84568,1,2,0:0:0:0:
154,294,84771,6,0,P|112:225|155:169,1,160,4|0,0:0|0:0,0:0:0:0:
357,169,85582,2,0,P|400:231|358:294,1,160,2|0,0:0|0:0,0:0:0:0:
140,296,86392,1,8,0:0:0:0:
348,301,86798,2,0,L|454:182,2,160
140,296,88014,6,0,L|34:177,2,160,2|0|2,0:0|0:0|0:0,0:0:0:0:
348,317,89230,1,0,0:0:0:0:
140,296,89636,1,8,0:0:0:0:
372,296,90041,2,0,P|481:200|422:57,1,320,2|0,0:0|0:0,0:0:0:0:
101,53,91257,6,0,L|100:212,1,160,4|0,0:0|0:0,0:0:0:0:
309,130,92068,2,0,L|310:289,1,160,2|0,0:0|0:0,0:0:0:0:
214,302,92676,1,0,0:0:0:0:
118,313,92879,1,8,0:0:0:0:
326,290,93284,2,0,L|455:195,2,160,0|2|0,0:0|0:0|0:0,0:0:0:0:
117,289,94501,5,2,0:0:0:0:
309,296,94906,1,0,0:0:0:0:
405,216,95311,1,2,0:0:0:0:
213,217,95717,1,2,0:0:0:0:
118,134,96122,1,8,0:0:0:0:
364,117,96528,2,0,P|457:242|355:367,1,340.000006484985,2|0,0:0|0:0,0:0:0:0:
156,366,97744,5,4,0:0:0:0:
60,325,97946,1,0,0:0:0:0:
156,366,98149,1,8,0:0:0:0:
353,354,98555,2,0,P|400:289|356:237,1,160,2|8,0:0|0:0,0:0:0:0:
260,232,99163,1,0,0:0:0:0:
165,231,99365,6,0,P|67:180|99:73,1,240,8|2,0:0|0:0,0:0:0:0:
219,72,100176,1,2,0:0:0:0:
339,68,100480,1,0,0:0:0:0:
219,72,100784,1,0,0:0:0:0:
99,73,100987,6,0,P|91:149|158:180,1,160,2|8,0:0|0:0,0:0:0:0:
354,203,101798,2,0,P|421:236|413:311,1,160,2|8,0:0|0:0,0:0:0:0:
93,305,102609,2,0,L|84:66,1,240,8|2,0:0|0:0,0:0:0:0:
180,83,103419,1,2,0:0:0:0:
300,79,103723,1,2,0:0:0:0:
420,76,104027,1,2,0:0:0:0:
300,79,104230,5,2,0:0:0:0:
205,81,104433,1,0,0:0:0:0:
109,82,104636,1,8,0:0:0:0:
301,116,105041,1,2,0:0:0:0:
494,146,105446,1,8,0:0:0:0:
174,218,105852,5,8,0:0:0:0:
40,133,106190,1,2,0:0:0:0:
147,136,106460,1,2,0:0:0:0:
226,135,106663,1,2,0:0:0:0:
387,133,107068,1,8,0:0:0:0:
307,159,107271,1,2,0:0:0:0:
227,183,107474,5,2,0:0:0:0:
40,133,107879,1,8,0:0:0:0:
40,133,108284,1,2,0:0:0:0:
256,192,108690,1,8,0:0:0:0:
471,39,109095,2,0,P|451:155|357:222,1,240,8|2,0:0|0:0,0:0:0:0:
212,223,109906,1,2,0:0:0:0:
135,218,110109,1,2,0:0:0:0:
136,148,110311,1,8,0:0:0:0:
456,77,110717,5,4,0:0:0:0:
480,152,110919,1,0,0:0:0:0:
456,77,111122,1,2,0:0:0:0:
336,77,111325,2,0,L|175:75,2,160,2|2|0,0:0|0:0|0:0,0:0:0:0:
457,79,112338,6,0,P|435:250|274:301,1,360.000013732911,2|0,0:0|0:0,0:0:0:0:
130,297,113149,1,8,0:0:0:0:
70,194,113555,1,2,0:0:0:0:
166,198,113757,1,0,0:0:0:0:
366,207,113960,6,0,P|414:144|366:96,1,160,4|0,0:0|0:0,0:0:0:0:
246,95,114568,2,0,P|198:150|246:205,1,160,2|2,0:0|0:0,0:0:0:0:
454,204,115379,1,0,0:0:0:0:
334,202,115582,2,0,P|216:186|178:84,1,240,2|8,0:0|0:0,0:0:0:0:
297,84,116392,1,2,0:0:0:0:
416,88,116696,1,2,0:0:0:0:
297,84,117001,1,2,0:0:0:0:
98,159,117203,5,4,0:0:0:0:
34,223,117405,1,0,0:0:0:0:
56,307,117608,1,2,0:0:0:0:
176,307,117811,2,0,L|337:309,2,160,2|2|0,0:0|0:0|0:0,0:0:0:0:
55,305,118825,6,0,P|77:134|238:83,1,360.000013732911,2|0,0:0|0:0,0:0:0:0:
382,87,119635,1,8,0:0:0:0:
438,185,120041,1,2,0:0:0:0:
342,185,120243,1,0,0:0:0:0:
146,177,120446,6,0,P|98:240|146:288,1,160,4|0,0:0|0:0,0:0:0:0:
266,289,121054,2,0,P|314:234|266:179,1,160,2|2,0:0|0:0,0:0:0:0:
58,180,121865,1,0,0:0:0:0:
178,182,122068,2,0,P|296:198|334:300,1,240,2|8,0:0|0:0,0:0:0:0:
215,300,122879,5,2,0:0:0:0:
96,296,123183,1,2,0:0:0:0:
215,300,123487,1,2,0:0:0:0:
439,302,123690,1,4,0:0:0:0:
256,192,124095,12,0,125514,0:0:0:0:
