osu file format v14

[General]
AudioFilename: audio.mp3
AudioLeadIn: 0
PreviewTime: 39163
Countdown: 0
SampleSet: Soft
StackLeniency: 0.7
Mode: 2
LetterboxInBreaks: 0
WidescreenStoryboard: 0

[Editor]
Bookmarks: 447,19906,32879,39365,52338,65311,71798,78284,84771,97744,110717,125514
DistanceSpacing: 0.9
BeatDivisor: 4
GridSize: 8
TimelineZoom: 2.2

[Metadata]
Title:Turii ~Panta rhei~
TitleUnicode:Turii ~Panta rhei~
Artist:Zektbach
ArtistUnicode:Zektbach
Creator:Kyuare
Version:Rain
Source:beatmania IIDX 16 EMPRESS
Tags:ゼクトバッハ iidx16 tomosuke funaki 舟木智介 maya takamura 高村真耶 Akiko Shikata 志方あきこ elemental chant malchut REFLEC BEAT
BeatmapID:1479407
BeatmapSetID:685428

[Difficulty]
HPDrainRate:6
CircleSize:3.8
OverallDifficulty:9
ApproachRate:9
SliderMultiplier:1.92
SliderTickRate:1

[Events]
//Background and Video events
0,0,"65165749_p0.png",0,0
Video,-11550,"stare2.avi"
//Break Periods
//Storyboard Layer 0 (Background)
//Storyboard Layer 1 (Fail)
//Storyboard Layer 2 (Pass)
//Storyboard Layer 3 (Foreground)
//Storyboard Sound Samples

[TimingPoints]
447,405.405405405405,4,2,0,50,1,0
6933,-100,4,2,0,70,0,0
19906,-100,4,2,0,50,0,0
32879,-100,4,2,0,70,0,0
39365,-100,4,2,0,60,0,0
52338,-100,4,2,0,70,0,0
65311,-100,4,2,0,80,0,1
78284,-100,4,2,0,70,0,0
84771,-100,4,2,0,50,0,0
96528,-200,4,2,0,50,0,0
97744,-100,4,2,0,60,0,0
110717,-100,4,2,0,70,0,0
112338,-66.6666666666667,4,2,0,70,0,0
112946,-100,4,2,0,70,0,0
118825,-66.6666666666667,4,2,0,70,0,0
119433,-100,4,2,0,70,0,0
123892,-100,4,2,0,10,0,0

[Colours]
Combo1 : 174,170,115
Combo2 : 177,90,90
Combo3 : 66,97,130
Combo4 : 87,118,80

[HitObjects]
374,249,447,5,4,0:0:0:0:
278,240,649,1,0,0:0:0:0:
374,249,852,1,2,0:0:0:0:
230,283,1055,2,0,P|189:195|244:132,1,192,2|0,0:0|0:0,0:0:0:0:
370,116,1663,2,0,L|379:211,1,96,0|0,0:0|0:0,0:0:0:0:
216,266,2068,5,2,0:0:0:0:
312,257,2270,1,0,0:0:0:0:
216,266,2473,1,0,0:0:0:0:
360,206,2676,2,0,P|351:112|268:98,1,192,2|0,0:0|0:0,0:0:0:0:
133,123,3284,2,0,L|123:218,1,96,0|0,0:0|0:0,0:0:0:0:
316,265,3690,6,0,P|396:214|390:126,1,192,2|0,0:0|0:0,0:0:0:0:
196,265,4501,2,0,P|116:214|122:126,1,192,2|0,0:0|0:0,0:0:0:0:
449,247,5311,6,0,L|452:151,1,96,2|0,0:0|0:0,0:0:0:0:
307,154,5717,2,0,P|215:182|191:266,1,192,2|2,0:0|0:0,0:0:0:0:
335,269,6325,1,0,0:0:0:0:
177,269,6528,2,0,P|136:212|177:163,1,144,2|0,0:0|0:0,0:0:0:0:
411,243,6933,6,0,B|448:191|448:191|396:151,1,128,4|0,0:0|0:0,0:0:0:0:
256,126,7338,2,0,L|128:125,1,128,8|0,0:0|0:0,0:0:0:0:
270,155,7744,2,0,B|320:194|320:194|283:246,1,128,2|0,0:0|0:0,0:0:0:0:
142,244,8149,2,0,B|92:205|92:205|129:153,1,128,8|0,0:0|0:0,0:0:0:0:
271,258,8555,6,0,L|276:116,1,128,2|0,0:0|0:0,0:0:0:0:
193,234,8960,2,0,L|188:92,1,128,8|0,0:0|0:0,0:0:0:0:
105,191,9365,2,0,L|110:49,1,128,2|0,0:0|0:0,0:0:0:0:
26,206,9771,2,0,L|21:78,1,128,8|0,0:0|0:0,0:0:0:0:
277,92,10176,6,0,B|327:131|327:131|290:183,1,128,2|0,0:0|0:0,0:0:0:0:
149,159,10582,2,0,B|98:198|98:198|135:250,1,128,8|0,0:0|0:0,0:0:0:0:
276,279,10987,2,0,L|404:278,1,128,2|0,0:0|0:0,0:0:0:0:
263,294,11392,2,0,L|135:295,1,128,8|0,0:0|0:0,0:0:0:0:
276,279,11798,6,0,L|281:137,1,128,2|0,0:0|0:0,0:0:0:0:
198,255,12203,2,0,L|193:113,1,128,8|0,0:0|0:0,0:0:0:0:
280,151,12608,2,0,L|285:279,1,128,2|0,0:0|0:0,0:0:0:0:
368,136,13014,2,0,L|363:263,1,128,8|0,0:0|0:0,0:0:0:0:
108,123,13419,6,0,B|58:162|58:162|95:214,1,128,2|0,0:0|0:0,0:0:0:0:
238,221,13825,2,0,L|366:220,1,128,8|0,0:0|0:0,0:0:0:0:
225,308,14230,2,0,L|97:309,1,128,2|0,0:0|0:0,0:0:0:0:
239,274,14636,2,0,B|289:235|289:235|252:183,1,128,8|0,0:0|0:0,0:0:0:0:
112,292,15041,6,0,L|107:150,1,128,2|0,0:0|0:0,0:0:0:0:
190,271,15446,2,0,L|195:129,1,128,8|0,0:0|0:0,0:0:0:0:
278,272,15852,2,0,L|273:130,1,128,2|0,0:0|0:0,0:0:0:0:
357,282,16257,2,0,L|362:140,1,128,8|0,0:0|0:0,0:0:0:0:
103,133,16663,6,0,B|53:172|53:172|90:224,1,128,2|0,0:0|0:0,0:0:0:0:
231,212,17068,2,0,B|281:251|281:251|244:303,1,128,8|0,0:0|0:0,0:0:0:0:
385,327,17474,2,0,L|513:328,1,128,2|0,0:0|0:0,0:0:0:0:
371,304,17879,2,0,L|243:303,1,128,8|0,0:0|0:0,0:0:0:0:
371,304,18284,6,0,L|376:162,1,128,2|0,0:0|0:0,0:0:0:0:
292,249,18690,2,0,L|287:107,1,128,8|0,0:0|0:0,0:0:0:0:
370,208,19095,2,0,L|375:66,1,128,2|0,0:0|0:0,0:0:0:0:
459,193,19501,2,0,L|454:51,1,128,8|0,0:0|0:0,0:0:0:0:
195,87,19906,6,0,P|49:184|139:330,1,384,4|2,0:0|0:0,0:0:0:0:
373,330,21122,1,0,0:0:0:0:
139,329,21528,2,0,P|49:181|195:87,1,384,8|2,0:0|0:0,0:0:0:0:
425,112,22744,1,0,0:0:0:0:
120,120,23149,6,0,P|252:323|384:119,1,576,2|0,0:0|0:0,0:0:0:0:
87,112,24771,2,0,L|81:303,1,192,8|2,0:0|0:0,0:0:0:0:
385,289,25987,1,0,0:0:0:0:
127,289,26392,5,2,0:0:0:0:
105,232,26494,1,0,0:0:0:0:
130,180,26595,1,0,0:0:0:0:
191,167,26696,1,0,0:0:0:0:
264,196,26798,1,0,0:0:0:0:
325,183,26899,1,0,0:0:0:0:
350,131,27000,1,0,0:0:0:0:
328,74,27102,1,0,0:0:0:0:
161,66,27203,6,0,P|80:122|83:212,1,192,2|0,0:0|0:0,0:0:0:0:
216,248,27811,1,0,0:0:0:0:
352,304,28014,2,0,P|332:96|128:272,1,576,8|2,0:0|0:0,0:0:0:0:
376,88,29636,2,0,P|241:293|136:88,1,576,2|2,0:0|0:0,0:0:0:0:
461,94,31257,2,0,P|257:263|50:92,1,576,8|0,0:0|0:0,0:0:0:0:
424,91,32879,5,4,0:0:0:0:
454,154,32980,1,0,0:0:0:0:
424,211,33082,1,0,0:0:0:0:
360,224,33183,1,0,0:0:0:0:
264,191,33284,1,2,0:0:0:0:
200,204,33385,1,0,0:0:0:0:
170,261,33487,1,0,0:0:0:0:
200,323,33588,1,0,0:0:0:0:
369,310,33690,5,2,0:0:0:0:
381,243,33791,1,0,0:0:0:0:
393,181,33892,1,0,0:0:0:0:
405,119,33994,1,0,0:0:0:0:
238,119,34095,1,2,0:0:0:0:
223,182,34196,1,0,0:0:0:0:
257,234,34298,1,0,0:0:0:0:
322,246,34399,1,0,0:0:0:0:
153,157,34501,5,4,0:0:0:0:
119,210,34602,1,0,0:0:0:0:
132,273,34704,1,0,0:0:0:0:
196,286,34805,1,0,0:0:0:0:
291,310,34906,1,2,0:0:0:0:
355,297,35007,1,0,0:0:0:0:
385,240,35109,1,0,0:0:0:0:
355,177,35210,1,0,0:0:0:0:
188,204,35311,5,4,0:0:0:0:
122,192,35413,1,0,0:0:0:0:
89,136,35514,1,0,0:0:0:0:
123,75,35616,1,0,0:0:0:0:
290,63,35717,1,4,0:0:0:0:
406,72,36122,5,4,0:0:0:0:
446,131,36224,1,0,0:0:0:0:
406,189,36325,1,0,0:0:0:0:
344,200,36426,1,0,0:0:0:0:
247,207,36528,1,2,0:0:0:0:
215,261,36630,1,0,0:0:0:0:
247,312,36731,1,0,0:0:0:0:
310,316,36833,1,0,0:0:0:0:
144,326,36933,5,2,0:0:0:0:
82,315,37034,1,0,0:0:0:0:
52,258,37135,1,0,0:0:0:0:
82,198,37237,1,0,0:0:0:0:
178,210,37338,1,2,0:0:0:0:
241,207,37440,1,0,0:0:0:0:
271,154,37541,1,0,0:0:0:0:
242,100,37643,1,0,0:0:0:0:
409,310,37744,5,4,0:0:0:0:
414,241,37845,1,0,0:0:0:0:
318,203,37946,1,0,0:0:0:0:
323,272,38048,1,0,0:0:0:0:
411,216,38149,1,2,0:0:0:0:
439,159,38251,1,0,0:0:0:0:
410,107,38352,1,0,0:0:0:0:
350,100,38453,1,0,0:0:0:0:
180,98,38555,5,4,0:0:0:0:
112,108,38656,1,0,0:0:0:0:
79,171,38757,1,0,0:0:0:0:
119,235,38859,1,0,0:0:0:0:
287,261,38960,1,4,0:0:0:0:
96,318,39365,6,0,L|91:215,1,96,4|0,0:0|0:0,0:0:0:0:
227,206,39771,2,0,L|291:201,2,48,8|0|0,0:0|0:0|0:0,0:0:0:0:
73,226,40176,2,0,L|68:123,1,96,2|0,0:0|0:0,0:0:0:0:
227,106,40582,2,0,L|131:110,1,96,8|0,0:0|0:0,0:0:0:0:
395,157,40987,6,0,L|490:152,1,96,2|0,0:0|0:0,0:0:0:0:
356,224,41392,2,0,L|308:227,2,48,8|0|0,0:0|0:0|0:0,0:0:0:0:
201,291,41798,2,0,L|196:188,1,96,2|0,0:0|0:0,0:0:0:0:
351,128,42203,2,0,L|356:224,1,96,8|0,0:0|0:0,0:0:0:0:
90,171,42609,6,0,L|85:266,1,96,2|0,0:0|0:0,0:0:0:0:
220,291,43014,1,8,0:0:0:0:
222,242,43115,1,0,0:0:0:0:
224,196,43217,1,0,0:0:0:0:
487,118,43419,2,0,L|391:122,1,96,2|0,0:0|0:0,0:0:0:0:
265,59,43825,2,0,L|360:54,1,96,8|0,0:0|0:0,0:0:0:0:
96,108,44230,6,0,L|91:203,1,96,2|0,0:0|0:0,0:0:0:0:
226,252,44636,1,8,0:0:0:0:
275,254,44737,1,0,0:0:0:0:
321,256,44839,1,0,0:0:0:0:
58,123,45041,2,0,L|153:118,1,96,2|0,0:0|0:0,0:0:0:0:
279,181,45446,2,0,L|183:185,1,96,8|0,0:0|0:0,0:0:0:0:
454,278,45852,6,0,P|488:214|450:163,1,144,2|0,0:0|0:0,0:0:0:0:
355,189,46257,2,0,P|316:132|350:73,1,144,8|0,0:0|0:0,0:0:0:0:
446,62,46663,2,0,L|449:162,1,96,2|0,0:0|0:0,0:0:0:0:
324,146,47068,2,0,L|321:246,1,96,8|0,0:0|0:0,0:0:0:0:
55,308,47474,6,0,P|32:266|57:230,1,96,2|0,0:0|0:0,0:0:0:0:
191,227,47879,1,8,0:0:0:0:
145,225,47981,1,0,0:0:0:0:
96,223,48082,1,0,0:0:0:0:
359,94,48284,2,0,P|382:136|357:172,1,96,2|0,0:0|0:0,0:0:0:0:
223,175,48689,1,8,0:0:0:0:
269,177,48791,1,0,0:0:0:0:
318,179,48892,1,0,0:0:0:0:
54,160,49095,6,0,L|49:256,1,96,2|0,0:0|0:0,0:0:0:0:
175,262,49501,2,0,L|79:257,1,96,8|0,0:0|0:0,0:0:0:0:
204,300,49906,2,0,L|209:204,1,96,2|0,0:0|0:0,0:0:0:0:
334,181,50311,2,0,L|238:176,1,96,8|0,0:0|0:0,0:0:0:0:
383,287,50717,6,0,L|183:273,1,192,2|8,0:0|0:0,0:0:0:0:
310,133,51325,1,2,0:0:0:0:
46,47,51528,1,2,0:0:0:0:
170,77,51730,1,2,0:0:0:0:
170,307,51933,1,8,0:0:0:0:
46,337,52136,1,0,0:0:0:0:
309,210,52338,6,0,L|406:202,1,96,4|0,0:0|0:0,0:0:0:0:
260,243,52744,1,8,0:0:0:0:
194,217,52845,1,0,0:0:0:0:
162,154,52946,1,2,0:0:0:0:
194,93,53048,1,0,0:0:0:0:
256,76,53149,1,2,0:0:0:0:
159,64,53352,1,0,0:0:0:0:
303,78,53555,2,0,L|400:70,1,96,8|0,0:0|0:0,0:0:0:0:
134,59,53960,6,0,L|37:67,1,96,2|0,0:0|0:0,0:0:0:0:
183,84,54365,1,8,0:0:0:0:
249,106,54467,1,0,0:0:0:0:
274,171,54568,1,2,0:0:0:0:
249,233,54669,1,0,0:0:0:0:
56,172,54771,5,2,0:0:0:0:
31,234,54872,1,0,0:0:0:0:
56,299,54973,1,0,0:0:0:0:
122,321,55075,1,0,0:0:0:0:
290,338,55176,1,8,0:0:0:0:
356,316,55278,1,0,0:0:0:0:
381,251,55379,1,0,0:0:0:0:
356,189,55480,1,0,0:0:0:0:
187,252,55582,6,0,L|179:156,1,96,2|0,0:0|0:0,0:0:0:0:
323,114,55987,1,8,0:0:0:0:
323,114,56088,1,0,0:0:0:0:
323,114,56190,1,0,0:0:0:0:
189,270,56392,1,2,0:0:0:0:
140,268,56493,1,0,0:0:0:0:
189,270,56595,1,0,0:0:0:0:
333,249,56798,1,8,0:0:0:0:
382,247,56899,1,0,0:0:0:0:
431,245,57001,1,0,0:0:0:0:
168,329,57203,6,0,P|139:264|171:204,1,144,2|0,0:0|0:0,0:0:0:0:
254,191,57609,2,0,L|349:184,1,96,8|2,0:0|0:0,0:0:0:0:
85,73,58014,5,2,0:0:0:0:
148,86,58115,1,0,0:0:0:0:
198,127,58217,1,0,0:0:0:0:
227,189,58318,1,0,0:0:0:0:
227,189,58419,1,8,0:0:0:0:
198,251,58520,1,0,0:0:0:0:
148,292,58622,1,0,0:0:0:0:
85,305,58723,1,0,0:0:0:0:
254,334,58825,6,0,P|303:288|288:220,1,144,2|0,0:0|0:0,0:0:0:0:
192,246,59230,2,0,P|143:200|158:132,1,144,8|0,0:0|0:0,0:0:0:0:
328,84,59636,5,2,0:0:0:0:
391,97,59737,1,0,0:0:0:0:
441,138,59839,1,0,0:0:0:0:
470,200,59940,1,0,0:0:0:0:
470,200,60041,1,8,0:0:0:0:
441,262,60142,1,0,0:0:0:0:
391,303,60244,1,0,0:0:0:0:
328,316,60345,1,0,0:0:0:0:
161,350,60446,6,0,L|154:255,1,96,2|0,0:0|0:0,0:0:0:0:
28,259,60852,2,0,L|21:164,1,96,10|2,0:0|0:0,0:0:0:0:
285,50,61257,5,2,0:0:0:0:
358,60,61359,1,0,0:0:0:0:
422,86,61460,1,0,0:0:0:0:
464,144,61561,1,0,0:0:0:0:
478,210,61663,1,8,0:0:0:0:
458,277,61764,1,0,0:0:0:0:
413,328,61865,1,0,0:0:0:0:
351,337,61967,1,0,0:0:0:0:
161,337,62068,6,0,L|158:234,1,96,4|0,0:0|0:0,0:0:0:0:
303,334,62474,2,0,L|306:231,1,96,8|0,0:0|0:0,0:0:0:0:
162,181,62879,2,0,L|114:179,2,48,2|0|0,0:0|0:0|0:0,0:0:0:0:
306,210,63284,2,0,L|353:208,2,48,8|0|0,0:0|0:0|0:0,0:0:0:0:
117,211,63690,6,0,P|71:127|116:51,1,192,2|8,0:0|0:0,0:0:0:0:
221,48,64298,1,0,0:0:0:0:
485,59,64501,2,0,L|486:113,1,48,2|0,0:0|0:0,0:0:0:0:
404,111,64703,2,0,L|350:112,1,48,2|0,0:0|0:0,0:0:0:0:
187,162,64906,2,0,L|133:163,1,48,8|0,0:0|0:0,0:0:0:0:
325,162,65109,2,0,L|386:162,1,48,8|0,0:0|0:0,0:0:0:0:
136,224,65311,5,4,0:0:0:0:
68,198,65413,1,0,0:0:0:0:
36,135,65514,1,0,0:0:0:0:
69,72,65615,1,0,0:0:0:0:
238,66,65717,1,8,0:0:0:0:
333,74,65919,1,0,0:0:0:0:
270,82,66021,1,0,0:0:0:0:
102,144,66122,5,2,0:0:0:0:
68,198,66224,1,0,0:0:0:0:
245,182,66325,1,0,0:0:0:0:
270,230,66427,1,0,0:0:0:0:
102,144,66528,1,8,0:0:0:0:
68,198,66630,1,0,0:0:0:0:
245,182,66731,1,0,0:0:0:0:
270,230,66833,1,0,0:0:0:0:
81,299,66933,5,2,0:0:0:0:
19,261,67034,1,0,0:0:0:0:
19,197,67136,1,0,0:0:0:0:
81,162,67237,1,0,0:0:0:0:
248,69,67338,1,8,0:0:0:0:
310,103,67439,1,0,0:0:0:0:
310,168,67541,1,0,0:0:0:0:
249,200,67642,1,0,0:0:0:0:
418,107,67744,5,2,0:0:0:0:
480,142,67845,1,0,0:0:0:0:
480,209,67947,1,0,0:0:0:0:
418,244,68048,1,0,0:0:0:0:
249,46,68149,1,8,0:0:0:0:
187,80,68250,1,0,0:0:0:0:
249,46,68352,1,2,0:0:0:0:
311,80,68453,1,2,0:0:0:0:
118,98,68555,5,2,0:0:0:0:
56,121,68656,1,2,0:0:0:0:
224,144,68757,1,0,0:0:0:0:
238,210,68859,1,0,0:0:0:0:
406,157,68960,5,2,0:0:0:0:
468,180,69061,1,2,0:0:0:0:
300,203,69162,1,0,0:0:0:0:
286,270,69264,1,0,0:0:0:0:
453,318,69365,5,2,0:0:0:0:
486,258,69467,1,0,0:0:0:0:
451,203,69568,1,2,0:0:0:0:
386,187,69669,1,0,0:0:0:0:
217,115,69771,1,8,0:0:0:0:
155,149,69872,1,0,0:0:0:0:
217,115,69974,1,2,0:0:0:0:
279,149,70075,1,0,0:0:0:0:
111,75,70176,5,2,0:0:0:0:
102,142,70278,1,0,0:0:0:0:
93,209,70379,1,0,0:0:0:0:
84,276,70480,1,0,0:0:0:0:
253,283,70582,1,8,0:0:0:0:
315,249,70683,1,0,0:0:0:0:
146,310,70784,1,2,0:0:0:0:
84,276,70885,1,2,0:0:0:0:
253,181,70987,5,2,0:0:0:0:
315,147,71088,1,2,0:0:0:0:
253,181,71190,1,2,0:0:0:0:
315,147,71291,1,2,0:0:0:0:
148,134,71392,1,8,0:0:0:0:
86,104,71493,1,0,0:0:0:0:
148,134,71595,1,2,0:0:0:0:
210,164,71696,1,0,0:0:0:0:
403,271,71798,5,4,0:0:0:0:
451,220,71899,1,0,0:0:0:0:
431,156,72001,1,0,0:0:0:0:
364,142,72102,1,0,0:0:0:0:
197,173,72203,1,8,0:0:0:0:
101,228,72406,1,0,0:0:0:0:
163,262,72507,1,0,0:0:0:0:
332,296,72609,5,2,0:0:0:0:
366,242,72711,1,0,0:0:0:0:
198,226,72812,1,0,0:0:0:0:
232,172,72914,1,0,0:0:0:0:
398,174,73014,1,8,0:0:0:0:
364,114,73116,1,0,0:0:0:0:
196,108,73217,1,0,0:0:0:0:
162,54,73319,1,0,0:0:0:0:
352,46,73419,5,2,0:0:0:0:
420,57,73521,1,0,0:0:0:0:
425,124,73622,1,0,0:0:0:0:
430,191,73724,1,0,0:0:0:0:
262,287,73825,1,8,0:0:0:0:
194,276,73927,1,0,0:0:0:0:
189,209,74028,1,0,0:0:0:0:
184,142,74130,1,0,0:0:0:0:
350,172,74230,5,2,0:0:0:0:
418,165,74332,1,0,0:0:0:0:
418,165,74433,1,0,0:0:0:0:
350,172,74534,1,0,0:0:0:0:
181,128,74636,1,8,0:0:0:0:
119,162,74737,1,0,0:0:0:0:
181,128,74839,1,2,0:0:0:0:
243,162,74940,1,2,0:0:0:0:
435,207,75041,5,2,0:0:0:0:
497,184,75142,1,2,0:0:0:0:
329,161,75243,1,0,0:0:0:0:
314,97,75345,1,0,0:0:0:0:
146,151,75446,5,2,0:0:0:0:
84,128,75547,1,2,0:0:0:0:
252,105,75648,1,0,0:0:0:0:
267,35,75750,1,0,0:0:0:0:
74,48,75852,5,2,0:0:0:0:
41,108,75954,1,0,0:0:0:0:
76,163,76055,1,2,0:0:0:0:
141,179,76156,1,0,0:0:0:0:
310,251,76258,1,8,0:0:0:0:
372,217,76359,1,0,0:0:0:0:
310,251,76461,1,2,0:0:0:0:
248,217,76562,1,0,0:0:0:0:
80,248,76663,5,2,0:0:0:0:
32,195,76764,1,0,0:0:0:0:
80,141,76865,1,0,0:0:0:0:
147,141,76967,1,0,0:0:0:0:
315,91,77068,1,8,0:0:0:0:
324,158,77170,1,0,0:0:0:0:
333,225,77271,1,0,0:0:0:0:
342,292,77372,1,0,0:0:0:0:
173,305,77474,5,2,0:0:0:0:
111,283,77575,1,0,0:0:0:0:
173,305,77676,1,0,0:0:0:0:
235,327,77778,1,0,0:0:0:0:
403,287,77879,1,10,0:0:0:0:
464,248,77980,1,2,0:0:0:0:
403,287,78081,1,2,0:0:0:0:
139,104,78284,5,4,0:0:0:0:
82,140,78385,1,0,0:0:0:0:
87,199,78487,1,0,0:0:0:0:
152,224,78588,1,0,0:0:0:0:
248,191,78689,1,8,0:0:0:0:
312,204,78790,1,0,0:0:0:0:
342,261,78892,1,0,0:0:0:0:
312,323,78993,1,0,0:0:0:0:
143,310,79095,5,2,0:0:0:0:
80,288,79196,1,0,0:0:0:0:
54,226,79297,1,0,0:0:0:0:
80,167,79399,1,0,0:0:0:0:
176,115,79500,1,8,0:0:0:0:
191,178,79601,1,0,0:0:0:0:
157,230,79703,1,0,0:0:0:0:
92,242,79804,1,0,0:0:0:0:
261,118,79906,5,2,0:0:0:0:
324,140,80007,1,0,0:0:0:0:
350,202,80108,1,0,0:0:0:0:
324,261,80210,1,0,0:0:0:0:
228,313,80311,1,8,0:0:0:0:
213,250,80412,1,0,0:0:0:0:
247,198,80514,1,0,0:0:0:0:
312,186,80615,1,0,0:0:0:0:
144,231,80716,5,2,0:0:0:0:
78,204,80818,1,0,0:0:0:0:
79,140,80919,1,0,0:0:0:0:
144,105,81021,1,0,0:0:0:0:
312,108,81122,1,10,0:0:0:0:
106,72,81527,5,4,0:0:0:0:
66,131,81629,1,0,0:0:0:0:
106,189,81730,1,0,0:0:0:0:
168,200,81831,1,0,0:0:0:0:
265,207,81933,1,8,0:0:0:0:
297,261,82035,1,0,0:0:0:0:
265,312,82136,1,0,0:0:0:0:
202,316,82238,1,0,0:0:0:0:
368,326,82338,5,2,0:0:0:0:
430,315,82439,1,0,0:0:0:0:
460,258,82540,1,0,0:0:0:0:
430,198,82642,1,0,0:0:0:0:
334,210,82743,1,8,0:0:0:0:
330,157,82845,1,0,0:0:0:0:
326,104,82946,1,0,0:0:0:0:
322,51,83048,1,0,0:0:0:0:
155,326,83149,5,2,0:0:0:0:
93,315,83250,1,0,0:0:0:0:
63,258,83351,1,0,0:0:0:0:
93,198,83453,1,0,0:0:0:0:
189,210,83554,1,8,0:0:0:0:
193,157,83656,1,0,0:0:0:0:
197,104,83757,1,0,0:0:0:0:
201,51,83859,1,0,0:0:0:0:
368,107,83960,5,2,0:0:0:0:
436,117,84061,1,2,0:0:0:0:
465,180,84162,1,2,0:0:0:0:
432,247,84264,1,0,0:0:0:0:
265,293,84365,2,0,L|166:293,1,96,8|2,0:0|0:0,0:0:0:0:
435,239,84771,6,0,P|462:138|399:81,1,192,4|0,0:0|0:0,0:0:0:0:
169,78,85582,2,0,P|105:141|143:224,1,192,2|0,0:0|0:0,0:0:0:0:
399,81,86392,2,0,L|203:79,3,192,8|0|0|0,0:0|0:0|0:0|0:0,0:0:0:0:
476,145,88014,6,0,P|456:239|373:256,1,192,2|0,0:0|0:0,0:0:0:0:
139,255,88825,2,0,P|51:234|36:145,1,192,2|0,0:0|0:0,0:0:0:0:
295,153,89636,1,8,0:0:0:0:
46,66,90041,2,0,B|17:256|17:256|189:340,1,384,2|0,0:0|0:0,0:0:0:0:
477,339,91257,6,0,L|281:340,1,192,4|0,0:0|0:0,0:0:0:0:
35,339,92068,2,0,L|231:340,1,192,2|0,0:0|0:0,0:0:0:0:
323,283,92676,1,0,0:0:0:0:
59,320,92879,2,0,P|46:225|120:183,1,192,8|0,0:0|0:0,0:0:0:0:
351,184,93690,2,0,P|427:231|411:321,1,192,2|0,0:0|0:0,0:0:0:0:
305,323,94298,1,0,0:0:0:0:
199,327,94501,5,2,0:0:0:0:
412,293,94906,1,0,0:0:0:0:
171,310,95311,1,2,0:0:0:0:
412,293,95717,1,2,0:0:0:0:
143,297,96122,1,8,0:0:0:0:
431,342,96528,2,0,P|475:241|388:167,1,240,2|0,0:0|0:0,0:0:0:0:
124,167,97744,6,0,L|119:264,1,96,4|0,0:0|0:0,0:0:0:0:
254,299,98149,1,8,0:0:0:0:
303,301,98250,1,0,0:0:0:0:
349,303,98352,1,0,0:0:0:0:
195,318,98555,2,0,P|152:261|184:205,1,144,2|0,0:0|0:0,0:0:0:0:
265,215,98960,2,0,L|360:219,1,96,8|0,0:0|0:0,0:0:0:0:
96,112,99365,6,0,L|191:116,1,96,2|0,0:0|0:0,0:0:0:0:
285,122,99771,1,8,0:0:0:0:
160,48,99974,1,0,0:0:0:0:
111,46,100075,1,0,0:0:0:0:
279,44,100176,2,0,L|425:50,2,144,2|0|0,0:0|0:0|0:0,0:0:0:0:
125,55,100987,6,0,L|119:151,1,96,2|0,0:0|0:0,0:0:0:0:
254,142,101392,2,0,L|260:238,1,96,8|0,0:0|0:0,0:0:0:0:
395,228,101798,2,0,L|389:324,1,96,2|0,0:0|0:0,0:0:0:0:
254,333,102203,2,0,L|158:327,1,96,8|0,0:0|0:0,0:0:0:0:
424,317,102609,6,0,P|458:228|391:179,1,192,8|0,0:0|0:0,0:0:0:0:
271,175,103217,1,2,0:0:0:0:
151,179,103419,2,0,L|294:173,2,144,2|2|2,0:0|0:0|0:0,0:0:0:0:
305,244,104230,6,0,L|368:172,1,96,2|0,0:0|0:0,0:0:0:0:
233,177,104636,1,8,0:0:0:0:
264,140,104737,1,0,0:0:0:0:
296,104,104838,1,0,0:0:0:0:
161,128,105041,2,0,L|98:56,1,96,2|0,0:0|0:0,0:0:0:0:
290,43,105446,2,0,L|386:49,1,96,8|0,0:0|0:0,0:0:0:0:
120,224,105852,5,8,0:0:0:0:
280,232,106190,1,2,0:0:0:0:
120,224,106460,1,2,0:0:0:0:
240,292,106663,1,2,0:0:0:0:
345,277,106865,1,0,0:0:0:0:
396,213,107068,1,8,0:0:0:0:
353,148,107271,1,0,0:0:0:0:
151,106,107474,6,0,L|145:202,1,96,2|0,0:0|0:0,0:0:0:0:
361,106,107879,2,0,L|367:202,1,96,8|0,0:0|0:0,0:0:0:0:
103,199,108284,2,0,L|97:295,1,96,2|0,0:0|0:0,0:0:0:0:
409,199,108690,2,0,L|415:295,1,96,8|0,0:0|0:0,0:0:0:0:
152,184,109095,6,0,P|257:101|360:184,1,288,8|2,0:0|0:0,0:0:0:0:
96,240,109906,1,2,0:0:0:0:
200,240,110109,1,2,0:0:0:0:
312,240,110311,1,8,0:0:0:0:
416,240,110514,1,2,0:0:0:0:
96,240,110717,5,4,0:0:0:0:
24,192,110919,1,0,0:0:0:0:
96,144,111122,1,2,0:0:0:0:
259,143,111325,2,0,L|404:142,1,144,2|0,0:0|0:0,0:0:0:0:
469,142,111730,2,0,L|325:142,1,144,2|0,0:0|0:0,0:0:0:0:
259,143,112136,1,0,0:0:0:0:
196,144,112237,1,0,0:0:0:0:
259,143,112338,6,0,B|421:287|421:287|259:143,1,432.000016479493,2|0,0:0|0:0,0:0:0:0:
421,287,113149,1,8,0:0:0:0:
228,291,113555,2,0,L|176:211,1,96,2|0,0:0|0:0,0:0:0:0:
440,299,113960,6,0,P|443:203|365:174,1,192,4|0,0:0|0:0,0:0:0:0:
172,159,114568,2,0,L|366:160,2,192,2|2|0,0:0|0:0|0:0,0:0:0:0:
268,95,115480,1,0,0:0:0:0:
365,37,115582,2,0,B|434:163|434:163|368:291,1,288,2|8,0:0|0:0,0:0:0:0:
145,291,116392,2,0,L|288:287,2,144,2|2|2,0:0|0:0|0:0,0:0:0:0:
416,144,117203,5,4,0:0:0:0:
488,192,117405,1,0,0:0:0:0:
416,240,117608,1,2,0:0:0:0:
253,241,117811,2,0,L|108:242,1,144,2|0,0:0|0:0,0:0:0:0:
43,242,118216,2,0,L|187:242,1,144,2|0,0:0|0:0,0:0:0:0:
251,240,118622,1,0,0:0:0:0:
316,240,118723,1,0,0:0:0:0:
253,241,118825,6,0,B|91:97|91:97|253:241,1,432.000016479493,2|0,0:0|0:0,0:0:0:0:
91,97,119635,1,8,0:0:0:0:
284,93,120041,2,0,L|336:173,1,96,2|0,0:0|0:0,0:0:0:0:
72,85,120446,6,0,P|69:181|147:210,1,192,4|0,0:0|0:0,0:0:0:0:
340,225,121054,2,0,L|146:224,2,192,2|2|0,0:0|0:0|0:0,0:0:0:0:
242,297,121967,1,0,0:0:0:0:
147,347,122068,2,0,B|78:221|78:221|183:122,1,288,2|8,0:0|0:0,0:0:0:0:
390,171,122879,2,0,L|247:175,2,144,2|2|2,0:0|0:0|0:0,0:0:0:0:
122,171,123690,1,4,0:0:0:0:
256,192,123892,12,0,125514,0:0:0:0:
