osu file format v14

[General]
AudioFilename: audio.mp3
AudioLeadIn: 0
PreviewTime: 39163
Countdown: 0
SampleSet: Soft
StackLeniency: 0.7
Mode: 2
LetterboxInBreaks: 0
WidescreenStoryboard: 1

[Editor]
Bookmarks: 447,19906,32879,39365,52338,65311,71798,78284,84771,97744,110717,125514
DistanceSpacing: 1.1
BeatDivisor: 6
GridSize: 8
TimelineZoom: 2.2

[Metadata]
Title:Turii ~Panta rhei~
TitleUnicode:Turii ~Panta rhei~
Artist:Zektbach
ArtistUnicode:Zektbach
Creator:Kyuare
Version:Platter
Source:beatmania IIDX 16 EMPRESS
Tags:ゼクトバッハ iidx16 tomosuke funaki 舟木智介 maya takamura 高村真耶 Akiko Shikata 志方あきこ elemental chant malchut REFLEC BEAT
BeatmapID:1567499
BeatmapSetID:685428

[Difficulty]
HPDrainRate:5
CircleSize:3.6
OverallDifficulty:8
ApproachRate:8
SliderMultiplier:1.8
SliderTickRate:1

[Events]
//Background and Video events
0,0,"65165749_p0.png",0,0
Video,-11550,"stare2.avi"
//Break Periods
//Storyboard Layer 0 (Background)
//Storyboard Layer 1 (Fail)
//Storyboard Layer 2 (Pass)
//Storyboard Layer 3 (Foreground)
//Storyboard Sound Samples

[TimingPoints]
447,405.405405405405,4,2,0,50,1,0
6933,-100,4,2,0,70,0,0
19906,-100,4,2,0,50,0,0
32879,-100,4,2,0,70,0,0
39365,-100,4,2,0,60,0,0
52338,-100,4,2,0,70,0,0
65311,-100,4,2,0,80,0,1
78284,-100,4,2,0,70,0,0
84771,-100,4,2,0,50,0,0
96528,-117.647058823529,4,2,0,50,0,0
97744,-100,4,2,0,60,0,0
110717,-100,4,2,0,70,0,0
112338,-66.6666666666667,4,2,0,70,0,0
112946,-100,4,2,0,70,0,0
118825,-66.6666666666667,4,2,0,70,0,0
119433,-100,4,2,0,70,0,0
123892,-100,4,2,0,10,0,0

[Colours]
Combo1 : 174,170,115
Combo2 : 177,90,90
Combo3 : 66,97,130
Combo4 : 87,118,80

[HitObjects]
323,253,447,5,4,0:0:0:0:
413,234,649,1,0,0:0:0:0:
323,253,852,1,2,0:0:0:0:
233,271,1055,2,0,P|160:216|206:158,1,180,2|0,0:0|0:0,0:0:0:0:
289,74,1663,1,0,0:0:0:0:
379,52,1865,1,0,0:0:0:0:
199,94,2068,5,2,0:0:0:0:
128,106,2270,1,0,0:0:0:0:
200,112,2473,1,0,0:0:0:0:
290,113,2676,2,0,P|363:168|317:226,1,180,2|0,0:0|0:0,0:0:0:0:
209,261,3284,1,0,0:0:0:0:
97,297,3486,1,0,0:0:0:0:
278,309,3690,5,2,0:0:0:0:
369,295,4095,1,0,0:0:0:0:
143,295,4501,1,2,0:0:0:0:
143,295,4906,1,0,0:0:0:0:
256,304,5109,1,0,0:0:0:0:
369,295,5311,6,0,P|433:231|393:167,1,180,2|2,0:0|0:0,0:0:0:0:
122,301,6122,2,0,P|58:237|98:173,1,180,2|2,0:0|0:0,0:0:0:0:
189,175,6730,1,0,0:0:0:0:
461,184,6933,6,0,P|472:127|425:96,1,120,4|0,0:0|0:0,0:0:0:0:
306,100,7338,1,8,0:0:0:0:
162,118,7609,1,0,0:0:0:0:
41,130,7744,2,0,P|37:188|86:214,1,120,2|0,0:0|0:0,0:0:0:0:
208,212,8149,1,8,0:0:0:0:
425,321,8555,6,0,L|433:187,1,120,2|0,0:0|0:0,0:0:0:0:
324,248,8960,2,0,L|316:114,1,120,8|0,0:0|0:0,0:0:0:0:
209,223,9365,2,0,L|217:89,1,120,2|0,0:0|0:0,0:0:0:0:
107,125,9771,2,0,P|127:179|183:185,1,120,8|0,0:0|0:0,0:0:0:0:
395,108,10176,6,0,P|430:157|398:199,1,120,2|0,0:0|0:0,0:0:0:0:
278,208,10582,1,8,0:0:0:0:
133,232,10852,1,0,0:0:0:0:
252,248,10987,2,0,L|372:248,1,120,2|0,0:0|0:0,0:0:0:0:
252,316,11392,1,8,0:0:0:0:
36,326,11798,6,0,L|28:192,1,120,2|0,0:0|0:0,0:0:0:0:
137,253,12203,2,0,L|145:119,1,120,8|0,0:0|0:0,0:0:0:0:
252,228,12608,2,0,L|244:94,1,120,2|0,0:0|0:0,0:0:0:0:
353,160,13014,2,0,P|333:214|277:220,1,120,8|0,0:0|0:0,0:0:0:0:
67,199,13419,6,0,P|56:256|103:287,1,120,2|0,0:0|0:0,0:0:0:0:
222,283,13824,1,8,0:0:0:0:
366,265,14095,1,0,0:0:0:0:
484,253,14230,2,0,P|488:195|439:169,1,120,2|0,0:0|0:0,0:0:0:0:
320,171,14635,1,8,0:0:0:0:
103,311,15041,6,0,L|95:177,1,120,2|0,0:0|0:0,0:0:0:0:
204,262,15446,2,0,L|212:128,1,120,8|0,0:0|0:0,0:0:0:0:
103,311,15852,2,0,L|95:177,1,120,2|0,0:0|0:0,0:0:0:0:
204,262,16257,2,0,P|260:255|280:202,1,120,8|0,0:0|0:0,0:0:0:0:
68,210,16663,6,0,P|48:154|89:122,1,120,2|0,0:0|0:0,0:0:0:0:
210,120,17068,1,8,0:0:0:0:
331,121,17338,1,0,0:0:0:0:
210,120,17474,2,0,P|152:135|131:188,1,120,2|0,0:0|0:0,0:0:0:0:
250,233,17879,1,8,0:0:0:0:
466,317,18284,6,0,L|474:183,1,120,2|0,0:0|0:0,0:0:0:0:
365,268,18689,2,0,L|357:134,1,120,8|0,0:0|0:0,0:0:0:0:
466,317,19095,2,0,L|474:183,1,120,2|0,0:0|0:0,0:0:0:0:
365,268,19501,2,0,L|357:134,1,120,8|0,0:0|0:0,0:0:0:0:
154,72,19906,6,0,P|38:181|164:272,1,360,4|2,0:0|0:0,0:0:0:0:
345,276,21122,1,0,0:0:0:0:
75,332,21528,2,0,P|110:158|268:107,1,360,8|2,0:0|0:0,0:0:0:0:
88,92,22744,1,0,0:0:0:0:
339,94,23149,6,0,P|211:283|88:91,1,540,2|0,0:0|0:0,0:0:0:0:
359,92,24771,2,0,P|432:146|426:229,1,180,8|2,0:0|0:0,0:0:0:0:
192,272,25987,1,0,0:0:0:0:
428,268,26392,5,2,0:0:0:0:
456,240,26494,1,0,0:0:0:0:
464,200,26595,1,0,0:0:0:0:
452,158,26696,1,0,0:0:0:0:
416,136,26798,1,0,0:0:0:0:
379,127,26899,1,0,0:0:0:0:
336,128,27001,1,0,0:0:0:0:
202,121,27203,2,0,P|163:202|199:279,1,180,2|0,0:0|0:0,0:0:0:0:
336,128,27811,1,0,0:0:0:0:
129,90,28014,6,0,P|79:327|318:370,1,540,8|2,0:0|0:0,0:0:0:0:
82,342,29636,2,0,P|255:170|428:342,1,540,2|2,0:0|0:0,0:0:0:0:
64,346,31257,2,0,B|255:156|255:156|448:348,1,540,8|0,0:0|0:0,0:0:0:0:
64,38,32879,5,4,0:0:0:0:
56,110,33082,1,0,0:0:0:0:
262,69,33284,1,2,0:0:0:0:
316,104,33386,1,0,0:0:0:0:
330,166,33487,1,0,0:0:0:0:
298,219,33588,1,0,0:0:0:0:
233,225,33690,5,2,0:0:0:0:
96,255,33892,1,0,0:0:0:0:
304,302,34095,1,2,0:0:0:0:
362,294,34196,1,2,0:0:0:0:
421,287,34298,1,2,0:0:0:0:
362,294,34399,1,2,0:0:0:0:
304,302,34501,5,4,0:0:0:0:
178,318,34703,1,0,0:0:0:0:
52,337,34906,1,2,0:0:0:0:
39,273,35007,1,0,0:0:0:0:
70,213,35109,1,0,0:0:0:0:
137,200,35210,1,0,0:0:0:0:
258,195,35311,5,4,0:0:0:0:
325,175,35413,1,0,0:0:0:0:
356,113,35514,1,0,0:0:0:0:
324,52,35615,1,0,0:0:0:0:
202,58,35717,1,4,0:0:0:0:
447,347,36122,5,4,0:0:0:0:
456,274,36325,1,0,0:0:0:0:
250,308,36527,1,2,0:0:0:0:
196,273,36629,1,0,0:0:0:0:
182,211,36730,1,0,0:0:0:0:
214,158,36831,1,0,0:0:0:0:
279,152,36933,5,2,0:0:0:0:
416,122,37135,1,0,0:0:0:0:
292,86,37338,1,2,0:0:0:0:
234,90,37439,1,0,0:0:0:0:
175,99,37541,1,2,0:0:0:0:
234,90,37642,1,0,0:0:0:0:
292,86,37744,5,4,0:0:0:0:
166,70,37946,1,0,0:0:0:0:
40,51,38149,1,2,0:0:0:0:
27,115,38250,1,0,0:0:0:0:
58,175,38352,1,0,0:0:0:0:
125,188,38453,1,0,0:0:0:0:
246,188,38554,5,4,0:0:0:0:
313,208,38656,1,0,0:0:0:0:
344,270,38757,1,0,0:0:0:0:
312,331,38858,1,0,0:0:0:0:
190,330,38960,1,4,0:0:0:0:
80,63,39163,1,0,0:0:0:0:
369,51,39365,6,0,L|378:144,1,90,4|0,0:0|0:0,0:0:0:0:
224,114,39771,2,0,L|134:122,1,90,8|0,0:0|0:0,0:0:0:0:
288,180,40176,2,0,L|297:273,1,90,2|0,0:0|0:0,0:0:0:0:
142,289,40582,2,0,L|52:297,1,90,8|0,0:0|0:0,0:0:0:0:
323,347,40987,5,2,0:0:0:0:
413,326,41190,1,0,0:0:0:0:
452,252,41392,1,8,0:0:0:0:
410,182,41595,1,0,0:0:0:0:
212,226,41798,2,0,L|209:133,1,90,2|0,0:0|0:0,0:0:0:0:
361,170,42203,2,0,L|364:77,1,90,8|0,0:0|0:0,0:0:0:0:
183,69,42609,5,2,0:0:0:0:
120,81,42811,1,0,0:0:0:0:
301,110,43014,2,0,L|391:118,1,90,8|0,0:0|0:0,0:0:0:0:
237,180,43419,2,0,L|147:188,1,90,2|0,0:0|0:0,0:0:0:0:
301,222,43825,2,0,L|310:315,1,90,8|0,0:0|0:0,0:0:0:0:
129,320,44230,5,2,0:0:0:0:
54,303,44433,1,0,0:0:0:0:
33,236,44636,1,8,0:0:0:0:
73,176,44838,1,0,0:0:0:0:
345,162,45041,2,0,L|347:270,1,90,2|0,0:0|0:0,0:0:0:0:
192,238,45446,2,0,L|190:346,1,90,8|0,0:0|0:0,0:0:0:0:
372,353,45852,6,0,L|191:342,2,180,2|8|2,0:0|0:0|0:0,0:0:0:0:
137,354,47068,1,8,0:0:0:0:
128,274,47271,1,0,0:0:0:0:
398,322,47474,6,0,P|453:264|400:197,1,180,2|8,0:0|0:0,0:0:0:0:
300,152,48082,1,0,0:0:0:0:
103,312,48284,2,0,L|101:222,1,90,2|0,0:0|0:0,0:0:0:0:
255,247,48690,2,0,L|256:157,1,90,8|0,0:0|0:0,0:0:0:0:
436,81,49095,5,2,0:0:0:0:
444,92,49297,1,0,0:0:0:0:
263,125,49500,2,0,L|173:133,1,90,8|0,0:0|0:0,0:0:0:0:
327,192,49906,2,0,L|417:200,1,90,2|0,0:0|0:0,0:0:0:0:
263,233,50311,2,0,L|254:326,1,90,8|0,0:0|0:0,0:0:0:0:
454,343,50717,6,0,L|474:142,1,180,2|8,0:0|0:0,0:0:0:0:
373,150,51325,1,2,0:0:0:0:
176,142,51528,1,2,0:0:0:0:
73,176,51730,1,2,0:0:0:0:
73,176,51933,1,8,0:0:0:0:
176,142,52136,1,0,0:0:0:0:
445,141,52338,6,0,L|477:225,1,90,4|0,0:0|0:0,0:0:0:0:
323,243,52744,1,8,0:0:0:0:
281,260,52845,1,0,0:0:0:0:
323,243,52946,1,2,0:0:0:0:
477,225,53149,1,2,0:0:0:0:
350,225,53352,1,0,0:0:0:0:
224,222,53555,1,8,0:0:0:0:
182,239,53656,1,0,0:0:0:0:
224,222,53757,1,0,0:0:0:0:
403,304,53960,6,0,P|467:253|453:165,1,180,2|8,0:0|0:0,0:0:0:0:
344,119,54568,1,2,0:0:0:0:
74,95,54771,1,2,0:0:0:0:
37,140,54872,1,0,0:0:0:0:
25,195,54974,1,0,0:0:0:0:
53,242,55075,1,0,0:0:0:0:
109,262,55176,1,8,0:0:0:0:
217,274,55379,1,0,0:0:0:0:
63,332,55582,6,0,L|31:248,1,90,2|0,0:0|0:0,0:0:0:0:
176,230,55987,1,8,0:0:0:0:
217,248,56088,1,0,0:0:0:0:
176,230,56190,1,0,0:0:0:0:
49,248,56392,2,0,L|81:164,1,90,2|0,0:0|0:0,0:0:0:0:
262,260,56798,1,8,0:0:0:0:
303,218,56899,1,0,0:0:0:0:
314,158,57001,1,0,0:0:0:0:
277,107,57102,1,0,0:0:0:0:
209,90,57203,6,0,L|28:91,1,180,2|8,0:0|0:0,0:0:0:0:
137,90,57811,1,2,0:0:0:0:
407,92,58014,1,2,0:0:0:0:
465,118,58115,1,0,0:0:0:0:
490,176,58217,1,0,0:0:0:0:
474,240,58318,1,0,0:0:0:0:
418,265,58419,1,8,0:0:0:0:
309,269,58622,1,0,0:0:0:0:
120,256,58825,5,2,0:0:0:0:
299,195,59230,1,8,0:0:0:0:
390,126,59433,1,0,0:0:0:0:
210,107,59636,1,2,0:0:0:0:
152,133,59737,1,0,0:0:0:0:
127,191,59839,1,0,0:0:0:0:
152,248,59940,1,0,0:0:0:0:
209,274,60041,1,8,0:0:0:0:
318,279,60244,1,0,0:0:0:0:
139,329,60446,6,0,L|123:241,1,90,2|0,0:0|0:0,0:0:0:0:
277,228,60852,2,0,L|365:212,1,90,10|2,0:0|0:0,0:0:0:0:
95,234,61257,1,2,0:0:0:0:
50,207,61359,1,0,0:0:0:0:
36,161,61460,1,0,0:0:0:0:
62,115,61561,1,0,0:0:0:0:
112,104,61663,1,8,0:0:0:0:
220,101,61865,1,0,0:0:0:0:
417,110,62068,5,4,0:0:0:0:
427,192,62271,1,0,0:0:0:0:
274,184,62474,1,8,0:0:0:0:
192,193,62677,1,0,0:0:0:0:
345,201,62879,1,2,0:0:0:0:
427,192,63082,1,0,0:0:0:0:
274,184,63284,1,8,0:0:0:0:
265,266,63487,1,0,0:0:0:0:
463,331,63690,6,0,P|485:250|430:179,1,180,2|8,0:0|0:0,0:0:0:0:
321,175,64298,1,0,0:0:0:0:
122,240,64501,1,2,0:0:0:0:
122,240,64703,1,2,0:0:0:0:
302,264,64906,1,8,0:0:0:0:
356,260,65007,1,0,0:0:0:0:
410,256,65109,1,8,0:0:0:0:
141,194,65311,5,4,0:0:0:0:
15,161,65514,1,0,0:0:0:0:
49,225,65615,1,0,0:0:0:0:
83,287,65717,1,8,0:0:0:0:
209,327,65919,1,0,0:0:0:0:
268,312,66020,1,0,0:0:0:0:
327,297,66122,1,2,0:0:0:0:
209,251,66325,1,0,0:0:0:0:
389,190,66528,1,8,0:0:0:0:
448,175,66629,1,0,0:0:0:0:
389,190,66731,1,0,0:0:0:0:
120,210,66933,5,2,0:0:0:0:
20,123,67136,1,0,0:0:0:0:
79,108,67237,1,0,0:0:0:0:
137,96,67338,1,8,0:0:0:0:
238,238,67541,1,0,0:0:0:0:
179,223,67642,1,0,0:0:0:0:
120,210,67744,1,2,0:0:0:0:
250,170,67946,1,0,0:0:0:0:
309,155,68047,1,0,0:0:0:0:
250,170,68149,1,8,0:0:0:0:
78,166,68352,1,2,0:0:0:0:
348,113,68555,5,2,0:0:0:0:
411,118,68656,1,2,0:0:0:0:
348,113,68757,1,0,0:0:0:0:
167,114,68960,1,2,0:0:0:0:
104,118,69061,1,2,0:0:0:0:
167,114,69162,1,0,0:0:0:0:
325,268,69365,1,2,0:0:0:0:
447,184,69568,1,2,0:0:0:0:
447,184,69771,1,8,0:0:0:0:
326,113,69974,1,2,0:0:0:0:
146,122,70176,5,2,0:0:0:0:
87,137,70278,1,0,0:0:0:0:
146,122,70379,1,0,0:0:0:0:
326,185,70582,1,8,0:0:0:0:
385,200,70684,1,0,0:0:0:0:
443,209,70784,1,2,0:0:0:0:
173,286,70987,1,2,0:0:0:0:
110,286,71088,1,2,0:0:0:0:
71,263,71190,1,2,0:0:0:0:
45,226,71291,1,2,0:0:0:0:
41,175,71392,1,8,0:0:0:0:
84,108,71595,1,2,0:0:0:0:
355,105,71798,5,4,0:0:0:0:
481,219,72001,1,0,0:0:0:0:
423,210,72101,1,0,0:0:0:0:
364,195,72203,1,8,0:0:0:0:
490,315,72406,1,0,0:0:0:0:
490,250,72506,1,0,0:0:0:0:
490,191,72609,1,2,0:0:0:0:
373,321,72812,1,0,0:0:0:0:
193,294,73015,1,8,0:0:0:0:
135,302,73116,1,0,0:0:0:0:
78,303,73217,1,2,0:0:0:0:
347,256,73419,5,2,0:0:0:0:
473,170,73622,1,0,0:0:0:0:
414,180,73723,1,0,0:0:0:0:
355,195,73824,1,8,0:0:0:0:
229,202,74027,1,0,0:0:0:0:
170,187,74128,1,0,0:0:0:0:
229,202,74230,1,2,0:0:0:0:
355,195,74432,1,0,0:0:0:0:
414,180,74533,1,0,0:0:0:0:
473,170,74635,1,8,0:0:0:0:
391,244,74838,1,2,0:0:0:0:
121,191,75041,5,2,0:0:0:0:
58,196,75142,1,2,0:0:0:0:
121,191,75243,1,0,0:0:0:0:
301,177,75446,1,2,0:0:0:0:
364,181,75547,1,2,0:0:0:0:
427,189,75648,1,0,0:0:0:0:
247,203,75851,1,2,0:0:0:0:
126,274,76054,1,2,0:0:0:0:
126,274,76257,1,8,0:0:0:0:
247,203,76460,1,2,0:0:0:0:
427,170,76663,5,2,0:0:0:0:
486,197,76765,1,0,0:0:0:0:
427,170,76866,1,0,0:0:0:0:
243,141,77068,1,8,0:0:0:0:
184,168,77170,1,0,0:0:0:0:
126,194,77271,1,0,0:0:0:0:
337,94,77474,5,2,0:0:0:0:
402,110,77575,1,0,0:0:0:0:
460,158,77677,1,0,0:0:0:0:
475,197,77778,1,0,0:0:0:0:
460,232,77879,1,10,0:0:0:0:
402,280,77980,1,2,0:0:0:0:
337,296,78082,1,2,0:0:0:0:
68,82,78284,5,4,0:0:0:0:
56,130,78487,1,0,0:0:0:0:
262,76,78689,1,8,0:0:0:0:
316,111,78791,1,0,0:0:0:0:
330,173,78892,1,0,0:0:0:0:
298,226,78993,1,0,0:0:0:0:
233,232,79095,5,2,0:0:0:0:
96,262,79297,1,0,0:0:0:0:
304,302,79500,1,8,0:0:0:0:
362,294,79601,1,0,0:0:0:0:
421,287,79703,1,0,0:0:0:0:
362,294,79804,1,0,0:0:0:0:
304,302,79906,5,2,0:0:0:0:
178,318,80108,1,0,0:0:0:0:
52,337,80311,1,8,0:0:0:0:
39,273,80412,1,0,0:0:0:0:
70,213,80514,1,0,0:0:0:0:
137,200,80615,1,0,0:0:0:0:
249,209,80716,5,2,0:0:0:0:
316,189,80818,1,2,0:0:0:0:
347,127,80919,1,2,0:0:0:0:
315,66,81020,1,2,0:0:0:0:
202,58,81122,1,10,0:0:0:0:
454,345,81527,5,4,0:0:0:0:
462,261,81730,1,0,0:0:0:0:
256,309,81932,1,8,0:0:0:0:
202,274,82034,1,0,0:0:0:0:
188,212,82135,1,0,0:0:0:0:
220,159,82236,1,0,0:0:0:0:
285,153,82338,5,2,0:0:0:0:
422,123,82540,1,0,0:0:0:0:
214,81,82744,1,8,0:0:0:0:
156,89,82844,1,0,0:0:0:0:
97,96,82946,1,0,0:0:0:0:
156,89,83047,1,0,0:0:0:0:
214,81,83149,5,2,0:0:0:0:
340,65,83351,1,0,0:0:0:0:
466,46,83554,1,8,0:0:0:0:
479,110,83655,1,0,0:0:0:0:
448,170,83757,1,0,0:0:0:0:
381,183,83858,1,0,0:0:0:0:
260,189,83959,5,2,0:0:0:0:
193,209,84061,1,2,0:0:0:0:
162,271,84162,1,2,0:0:0:0:
194,332,84263,1,0,0:0:0:0:
316,325,84365,1,8,0:0:0:0:
432,321,84568,1,2,0:0:0:0:
150,84,84771,6,0,P|91:151|132:217,1,180,4|0,0:0|0:0,0:0:0:0:
362,84,85582,2,0,P|421:151|380:217,1,180,2|0,0:0|0:0,0:0:0:0:
132,217,86392,2,0,L|127:38,1,180,8|0,0:0|0:0,0:0:0:0:
380,217,87203,2,0,L|385:38,1,180
126,36,88014,6,0,L|308:35,3,180,2|0|2|0,0:0|0:0|0:0|0:0,0:0:0:0:
55,89,89636,1,8,0:0:0:0:
306,122,90041,2,0,P|257:288|92:306,1,360,2|0,0:0|0:0,0:0:0:0:
420,341,91257,6,0,P|468:265|441:186,1,180,4|0,0:0|0:0,0:0:0:0:
242,196,92068,2,0,P|194:120|240:56,1,180,2|0,0:0|0:0,0:0:0:0:
357,57,92676,1,0,0:0:0:0:
240,55,92879,6,0,P|151:67|118:145,1,180,8|0,0:0|0:0,0:0:0:0:
316,199,93690,2,0,B|406:194|406:194|310:199,1,180,2|0,0:0|0:0,0:0:0:0:
186,333,94501,1,2,0:0:0:0:
326,333,94906,1,0,0:0:0:0:
147,263,95311,1,2,0:0:0:0:
365,263,95717,1,2,0:0:0:0:
112,191,96122,1,8,0:0:0:0:
400,191,96528,6,0,P|256:85|113:192,1,382.500007295609,2|0,0:0|0:0,0:0:0:0:
400,191,97744,6,0,L|484:161,1,90,4|0,0:0|0:0,0:0:0:0:
331,177,98149,1,8,0:0:0:0:
327,136,98251,1,0,0:0:0:0:
323,95,98352,1,0,0:0:0:0:
170,114,98555,2,0,L|86:144,1,90,2|0,0:0|0:0,0:0:0:0:
239,128,98960,1,8,0:0:0:0:
323,111,99163,1,0,0:0:0:0:
54,175,99365,6,0,B|42:263|42:263|130:288,1,180,8|0,0:0|0:0,0:0:0:0:
284,281,99974,1,0,0:0:0:0:
347,271,100075,1,0,0:0:0:0:
284,281,100176,2,0,L|140:303,2,135,2|0|0,0:0|0:0|0:0,0:0:0:0:
438,295,100987,6,0,L|442:206,1,90,2|0,0:0|0:0,0:0:0:0:
289,254,101392,2,0,L|285:165,1,90,8|0,0:0|0:0,0:0:0:0:
439,130,101798,2,0,L|350:126,1,90,2|0,0:0|0:0,0:0:0:0:
181,128,102203,2,0,L|92:124,1,90,8|0,0:0|0:0,0:0:0:0:
363,61,102609,6,0,P|425:127|393:199,1,180,8|0,0:0|0:0,0:0:0:0:
275,213,103217,1,2,0:0:0:0:
77,226,103419,2,0,L|213:212,2,135,2|2|2,0:0|0:0|0:0,0:0:0:0:
275,213,104230,1,2,0:0:0:0:
365,198,104433,1,0,0:0:0:0:
211,171,104636,6,0,L|207:82,1,90,8|0,0:0|0:0,0:0:0:0:
360,287,105041,2,0,L|364:198,1,90,2|0,0:0|0:0,0:0:0:0:
166,251,105446,2,0,L|77:247,1,90,8|0,0:0|0:0,0:0:0:0:
357,158,105852,5,8,0:0:0:0:
477,254,106190,1,2,0:0:0:0:
357,158,106460,1,2,0:0:0:0:
155,158,106663,1,2,0:0:0:0:
35,254,107068,1,8,0:0:0:0:
155,158,107271,1,2,0:0:0:0:
371,225,107474,6,0,L|382:314,1,90,2|0,0:0|0:0,0:0:0:0:
218,198,107879,2,0,L|207:287,1,90,8|0,0:0|0:0,0:0:0:0:
387,194,108284,2,0,L|398:283,1,90,2|0,0:0|0:0,0:0:0:0:
197,209,108690,2,0,L|186:298,1,90,8|0,0:0|0:0,0:0:0:0:
456,308,109095,6,0,P|475:184|360:127,1,270,8|0,0:0|0:0,0:0:0:0:
153,126,109906,1,2,0:0:0:0:
45,144,110109,1,2,0:0:0:0:
45,240,110311,1,8,0:0:0:0:
153,257,110514,1,2,0:0:0:0:
424,276,110717,5,4,0:0:0:0:
487,190,110919,1,0,0:0:0:0:
425,117,111122,1,2,0:0:0:0:
245,119,111325,2,0,L|123:219,1,135,2|0,0:0|0:0,0:0:0:0:
141,179,111730,2,0,L|276:179,1,135,2|0,0:0|0:0,0:0:0:0:
335,127,112136,1,0,0:0:0:0:
274,122,112237,1,0,0:0:0:0:
214,118,112338,6,0,B|86:275|86:275|215:118,1,405.000015449525,2|0,0:0|0:0,0:0:0:0:
484,119,113149,1,8,0:0:0:0:
484,119,113555,2,0,L|395:126,1,90,2|0,0:0|0:0,0:0:0:0:
124,151,113960,6,0,P|61:216|105:276,1,180,4|0,0:0|0:0,0:0:0:0:
286,316,114568,2,0,P|349:251|305:191,1,180,2|2,0:0|0:0,0:0:0:0:
88,207,115379,1,0,0:0:0:0:
137,176,115480,1,0,0:0:0:0:
184,139,115582,6,0,P|318:129|377:20,1,270,2|8,0:0|0:0,0:0:0:0:
134,19,116392,1,2,0:0:0:0:
256,16,116696,1,2,0:0:0:0:
377,19,117001,1,2,0:0:0:0:
88,276,117203,5,4,0:0:0:0:
25,190,117405,1,0,0:0:0:0:
87,117,117608,1,2,0:0:0:0:
267,70,117811,2,0,L|389:170,1,135,2|0,0:0|0:0,0:0:0:0:
371,155,118216,2,0,L|236:155,1,135,2|0,0:0|0:0,0:0:0:0:
177,127,118622,1,0,0:0:0:0:
238,122,118724,1,0,0:0:0:0:
298,118,118825,6,0,B|426:275|426:275|297:118,1,405.000015449525,2|0,0:0|0:0,0:0:0:0:
28,119,119635,1,8,0:0:0:0:
28,119,120041,2,0,L|117:126,1,90,2|0,0:0|0:0,0:0:0:0:
388,151,120446,6,0,P|451:216|407:276,1,180,4|0,0:0|0:0,0:0:0:0:
226,316,121054,2,0,P|163:251|207:191,1,180,2|2,0:0|0:0,0:0:0:0:
424,207,121865,1,0,0:0:0:0:
376,169,121966,1,0,0:0:0:0:
328,139,122068,6,0,P|194:129|135:20,1,270,2|8,0:0|0:0,0:0:0:0:
378,19,122878,1,2,0:0:0:0:
256,16,123182,1,0,0:0:0:0:
135,19,123487,1,2,0:0:0:0:
405,144,123690,1,4,0:0:0:0:
256,192,123892,12,0,125514,0:0:0:0:
